#TITLE:Psi Glory;
#SUBTITLE:;
#ARTIST:KafkaType;
#TITLETRANSLIT:;
#SUBTITLETRANSLIT:;
#ARTISTTRANSLIT:;
#CREDIT:B. Abear;
#BANNER:Bn-Glory.png;
#BACKGROUND:Bg-Glory.png;
#LYRICSPATH:;
#CDTITLE:;
#MUSIC:Psi Glory.ogg;
#OFFSET:-0.099;
#SAMPLESTART:33.552;
#SAMPLELENGTH:16.700;
#SELECTABLE:YES;
#BPMS:0.000=230.000;
#STOPS:;
#BGCHANGES:;
// cache tags:
#FIRSTBEAT:24.000;
#LASTBEAT:696.000;
#SONGFILENAME:Songs/SPEEEDCOOOORE 3/Psi Glory - [Pope]/Psi Glory.sm;
#HASMUSIC:1;
#HASBANNER:1;
#MUSICLENGTH:185.770;
// end cache tags

//---------------dance-single - B. Abear----------------
#NOTES:
     dance-single:
     B. Abear:
     Challenge:
     16:
     1.000,1.000,0.328,0.641,1.000,1357.000,61.000,119.000,11.000,0.000:

0000
0000
0000
0000
,
0000
0000
0000
0000
,
0000
0000
0000
0000
,
0000
0000
0000
0000
,
0000
0000
0000
0000
,
0000
0000
0000
0000
,
1010
0000
0000
0110
,
0000
0000
0100
0000
,
0001
0000
0000
0010
0000
0000
0100
0000
0000
1000
0000
0000
0001
0000
0000
0000
0100
0000
0000
0000
0010
0000
0000
0000
,
1010
1000
0010
0100
,
0201
0000
0000
0000
0000
0000
0301
1000
0001
0010
0100
1000
,
0001
1000
0100
1000
0010
0100
0001
0000
,
1000
0000
0100
0000
0010
0000
0001
0000
1000
0000
0001
0000
0100
0000
0000
0010
0000
0000
1000
0000
0000
0001
0000
0000
,
0040
0000
0000
0000
0030
0000
0000
0000
0000
0000
0000
0000
0000
0000
0000
0004
0000
0000
0003
0000
0000
0000
0000
0000
0000
0000
0000
0000
0000
0000
4000
0000
0000
3000
0000
0000
0000
0000
0000
0000
0000
0000
0000
0000
0000
0000
0000
0000
,
0040
0000
0000
0000
0000
0000
0000
0000
0000
0030
0000
0000
1000
0000
0000
0000
1000
0000
0000
0000
0010
0000
0000
0000
,
0110
0000
0000
0000
0200
0300
0000
0000
0002
0003
0000
0000
2001
3000
0000
0000
,
0001
0000
0000
0100
0000
0000
0010
0000
0000
1000
0000
0000
0001
0000
0100
0000
0010
0000
1000
0000
0001
0000
1000
0000
,
0200
0000
0000
4000
0000
0000
0000
3300
,
1002
0000
0000
0000
0000
0000
0103
0010
0100
0001
1000
0001
,
0010
0100
1000
0100
0010
0001
1001
0000
,
1010
0000
1000
0000
0010
0000
0110
0000
0100
0000
0001
0000
,
2001
0000
0000
3001
0010
0100
1000
0001
,
0201
0000
0000
0000
0000
0000
0310
1000
0001
1000
0100
0010
,
MM01
0000
0000
0000
,
0001
0200
0310
2000
3001
0020
0130
2000
,
3001
0001
0001
0001
0200
0000
0000
0310
,
1000
0002
0013
0200
0310
0002
1003
0020
,
0130
0100
0100
0100
0002
0000
0000
1003
,
0100
0010
0001
1000
0001
0100
0010
0100
0001
1000
0001
0010
0100
1000
0001
1000
,
0002
0000
0000
0203
0000
0000
0320
0000
,
1030
0100
0010
0001
1000
0000
1000
0000
,
0001
0100
0010
1000
0001
0000
0001
0000
,
1000
0010
0100
0001
1000
0010
1000
0001
1000
0100
0010
0001
1000
0100
1000
0001
,
2000
00M0
3001
0001
0100
0010
2000
0000
,
3001
0010
0100
1000
0001
0010
0001
1000
0001
0100
0010
0100
0001
1000
0010
0100
,
0002
00M0
1003
1000
0100
0010
0200
0000
,
1300
0010
0100
0001
0100
0010
1000
0001
1000
0100
1000
0001
0010
0001
1000
0001
,
2000
0M00
3001
0001
0010
0100
2000
0000
,
3001
0010
0100
1000
0001
1000
0100
0010
0001
1000
0010
0100
0010
1000
0001
0100
,
0002
00M0
1003
1000
0010
0100
0002
0000
,
1003
0100
1000
0001
0010
0001
0010
0100
1000
0001
1000
0010
0100
0001
0100
0010
,
2000
0M00
3001
0001
0100
0010
0200
0000
,
0301
1000
0001
0100
0010
1000
0010
0100
0001
1000
0100
1000
0001
0010
0100
1000
,
0002
0M00
1003
1000
0100
0010
0200
0000
,
1300
0001
0010
0001
1000
0100
0010
0001
1000
0001
1000
0010
0100
0001
0100
0001
,
2000
00M0
3100
0100
0010
0001
2000
0000
,
3001
0100
0010
1000
0001
1000
0010
0100
0001
1000
0100
0010
0001
1000
0100
1000
,
0004
0000
0000
0000
4003
3000
0400
0300
0040
0030
0004
0003
4000
3000
0400
0300
,
1200
0000
0000
0000
0310
0001
1000
0001
,
0100
0000
0100
0000
0010
1000
0002
0000
,
2003
0000
0000
0000
3100
0000
0020
0000
0000
0000
0130
0000
1000
0010
0100
0001
,
1000
1000
0100
1000
,
0040
0030
0100
0000
0001
0010
0000
0001
,
2000
0000
3020
0000
0130
0001
1000
0100
,
2000
0010
3001
2000
0010
3001
2000
0000
,
3010
0100
0001
1000
0100
0000
0100
0000
,
0210
0000
0000
0000
0310
0001
0010
0100
,
1000
0000
1000
0000
0010
0100
0002
0000
,
2003
0000
0000
0000
3010
0000
0200
0000
0000
0000
0310
0000
1000
0100
0010
0001
,
0100
0100
0001
1000
,
0400
0300
0010
0000
0001
0010
0000
0001
,
4000
0000
3002
0000
0013
0100
1000
0010
,
2000
0100
3001
2000
0100
3001
2000
0000
,
3100
0010
0001
1000
0010
0000
0010
0000
,
1000
0000
0001
1000
0100
0000
0010
0000
0001
0000
1000
0001
0100
0000
0010
0000
,
1000
0000
0001
1000
0100
0000
1000
0000
1200
0000
0000
0000
0000
0000
0000
0000
,
0310
0001
1000
0010
0100
0001
1000
0001
,
0010
0100
1000
0001
0200
0000
0000
0300
,
0102
0103
0210
0310
,
1020
1030
2000
0000
,
3100
0010
0001
1000
0100
1000
0010
0100
,
0001
1000
0010
0100
0002
0000
0000
0000
,
1003
0000
0000
0000
0000
0000
0000
0000
0100
0000
0000
0000
0000
0000
0000
0000
0010
0000
0000
0000
0000
0000
0000
0000
0001
0000
0000
0000
0000
0000
0000
0000
0000
1000
0000
0000
0000
0000
0000
0000
0000
0000
0010
0000
0000
0000
0000
0000
,
0000
0000
0000
0100
0000
0000
0000
0000
0000
0000
0000
0000
0001
0000
0000
0000
0010
0000
0000
0000
0001
0000
0000
0000
1000
0000
0000
0000
0000
0000
0100
0000
0000
0000
0000
0000
1000
0000
0000
0000
0000
0000
0001
0000
0000
0000
0000
0000
,
0100
0010
0100
0000
0002
0000
0000
0000
0000
0000
0103
0010
1000
0001
1000
0100
,
0020
0000
0000
0000
0000
0000
0000
0000
0000
0000
0000
0000
0000
0000
0000
0000
0000
0000
0031
0000
0000
1000
0000
0000
0100
0000
0000
0000
1000
0000
0000
0000
0001
0000
0000
0000
0020
0000
0000
0000
0000
0000
0000
0000
0000
0000
0000
0000
,
0031
0000
0100
0000
0010
0000
0100
0000
0001
0000
0000
1000
0000
0000
0001
0010
,
0100
0000
0000
1000
0000
0000
0001
0000
0000
1000
0000
0000
0010
0000
0000
0000
0100
0000
0000
0000
0001
0000
0000
0000
2000
0000
0000
0000
0000
0000
0000
0000
0000
0000
0000
0000
3002
0000
0000
0000
0000
0000
0000
0000
0000
0000
0000
0000
,
0013
0000
0100
1000
0002
0000
0000
0000
0103
0000
0010
1000
0002
0000
0000
0000
,
2003
0000
0000
0000
3200
0000
0000
0000
0320
0000
0000
0000
0032
0000
0000
0003
,
1001
0001
0010
0100
1000
0010
1000
1000
,
0010
0000
0100
0000
0001
0100
0010
1000
0001
0100
0010
0000
1000
0100
0010
0001
,
0100
0010
1000
0010
0100
0001
1000
0001
1000
0100
0010
0001
1000
0100
1000
0010
,
0100
0001
1000
0100
1000
0001
0100
0001
0010
0100
1000
0001
1000
0001
0010
0100
,
1000
0000
0010
0100
0000
0001
1000
0100
,
1000
0000
0000
0000
0001
0100
0010
1000
0001
0100
0010
0000
0200
0000
0000
0000
,
0301
1000
0001
0100
0010
1000
0001
1000
0001
0010
0100
1000
0001
0010
0001
0100
,
0010
0100
0001
1000
0100
0000
0010
0000
,
0011
0001
1000
0010
0100
0001
1000
1000
,
0200
0000
0000
0000
1300
0010
0100
0001
1000
0010
0100
0000
0001
0010
0100
1000
,
0010
0100
0001
0100
0010
1000
0001
1000
0001
0010
0100
1000
0001
0010
0001
0100
,
0010
1000
0001
0010
0001
1000
0010
1000
0100
0010
0001
1000
0001
1000
0100
0010
,
0001
0000
0100
0010
0000
1000
0001
0010
,
0001
0000
0000
0000
1000
0100
1000
0001
0100
0001
0100
0000
0002
0000
0000
0000
,
1003
1000
0100
0100
0010
0010
0001
0001
,
1000
0010
0100
0010
1000
0100
1000
0010
0100
0001
1000
0100
0010
0001
0010
0100
,
1000
0000
0010
0000
0100
0000
0001
0000
0010
0000
0100
0000
,
1000
0000
0001
0100
0001
0000
0000
0000
1000
0000
0001
0100
0001
0000
0000
0000
,
1000
1000
0000
0000
1000
0010
0200
0302
,
1003
0200
0310
0002
1003
0100
1000
0001
,
0200
0000
0340
0030
2000
0000
3004
0000
,
0013
0000
0000
0000
0010
0001
0000
0000
0100
0000
0001
1000
0200
0000
0000
0000
,
1300
0000
0001
0100
0020
0000
0000
0000
1030
0000
0100
0010
0002
0000
0000
0000
,
1003
0100
1000
0001
1000
0010
1000
0001
,
0400
0000
0301
1000
0200
0000
0000
0000
0340
0000
0031
1000
0200
0000
0000
0000
,
0310
0000
0001
1000
0001
0100
0001
0000
0100
0000
0010
1000
0020
0000
0000
0000
,
0130
0000
0100
0000
0000
0000
0100
0000
0100
0000
0001
1000
0002
0000
0000
0000
,
1003
1000
0000
1000
1000
0100
0010
0000
,
0011
0000
0000
0000
0001
0000
0000
0000
1000
0000
0000
0000
0001
0000
0000
0100
0000
0000
0001
0000
1000
0000
0100
0000
,
M01M
0000
0000
0100
0000
0000
0000
0000
1000
0000
0000
0000
0100
0000
0000
0010
0000
0000
0001
0000
1000
0000
0010
0000
,
0100
0001
0100
0001
0100
0000
0000
0000
0001
0000
0000
1000
0000
0000
0100
0000
,
0020
0000
0000
0000
0000
0000
0000
0000
0000
0000
0000
0000
0000
0000
0000
0000
0000
0000
0000
0000
0000
0000
0000
0030
,
0012
0000
0000
0000
0000
0000
0000
0000
0000
0000
0003
0000
0000
0000
0000
0000
0000
0000
2001
0000
0000
0000
0000
3000
,
1002
0000
0000
0000
0000
0000
0003
0000
0000
0000
0000
0000
2000
0000
0000
0000
0000
0000
0000
0000
0000
0000
0000
3000
,
1020
0000
0000
0000
0000
0000
0000
0000
0030
0210
0000
0000
0000
0000
0000
0000
0000
0300
0102
0000
0000
0000
0000
0003
,
2001
0000
0000
0000
0000
3000
2001
0000
0000
0000
0000
3000
2001
0000
0000
0000
0000
3000
0000
0000
0000
0000
0000
0000
,
1200
0000
0000
0000
0000
0000
0000
0000
0000
0000
0000
0000
0000
0000
0000
0000
0000
0000
0000
0000
0000
0000
0000
0000
0000
0000
0000
0000
0000
0000
0000
0000
0000
0000
0000
0000
0000
0000
0000
0000
0000
0000
0000
0000
0000
0000
0000
0000
0320
0000
0000
0000
0000
0000
0000
0000
0000
0000
0000
0000
0000
0000
0000
0000
0000
0000
0000
0000
0000
0000
0000
0000
0000
0000
0000
0000
0000
0000
0000
0000
0000
0000
0000
0000
0000
0000
0000
0000
0000
0000
0000
0000
0000
0000
0000
0000
0032
0000
0000
0000
0000
0000
0000
0000
0000
0000
0000
0000
0000
0000
0000
0000
0000
0000
0000
0000
0000
0000
0000
0000
0000
0000
0000
0000
0000
0000
0000
0000
0000
0000
0000
0000
0000
0000
0000
0000
0003
0000
0000
0000
0000
0000
0000
0000
0021
0000
0000
0000
0000
0000
0000
0000
0000
0000
0000
0000
0000
0000
0000
0000
0000
0000
0000
0000
0000
0000
0000
0000
0000
0000
0000
0000
0000
0000
0000
0000
0000
0000
0000
0000
0000
0000
0000
0000
0000
0000
0030
0000
0000
0000
0000
0000
,
1002
0000
0000
0000
0000
0000
0000
0003
2000
0000
0000
0000
0000
0000
0000
0000
3020
0000
0000
0000
0000
0000
0000
0000
0000
0000
0000
0000
0030
0000
0000
0000
,
0210
0000
0000
0000
0000
0000
0000
0000
0300
0000
0000
0000
0101
0000
0000
0000
0000
0000
0000
0000
0000
0000
0000
0000
1002
0000
0000
0000
0000
0000
0000
0003
,
2100
0000
0000
0000
0000
0000
0000
3000
2100
0000
0000
0000
0000
0000
0000
3000
1100
0000
0000
0000
0000
0000
0000
0000
2000
0000
0000
0000
0000
0000
0000
0000
,
3100
0010
0001
0100
0010
0100
0001
1000
,
0100
1000
0010
0100
0001
0000
0000
0000
,
1000
0010
0100
0001
0100
0010
1000
0001
1000
0010
0100
0010
1000
0001
0100
0010
,
1000
0001
1000
0100
0010
0001
1000
0100
1000
0001
0010
0100
1000
0001
1000
0001
,
0100
0010
0100
0001
1000
0010
0100
0001
1000
0010
0100
0010
1000
0001
0100
0001
,
1000
0100
1000
0001
0010
0100
1000
0001
0010
0001
1000
0100
1000
0100
0010
0001
,
1000
0001
0100
0010
1000
0001
0100
0010
0100
0001
1000
0010
0100
0001
1000
0010
,
1000
0001
0010
0001
1000
0100
0010
0001
1000
0100
1000
0001
1000
0001
0010
0100
,
1000
0001
0100
0001
1000
0010
0100
0001
0100
0010
1000
0001
0100
0010
0100
0001
,
1000
0100
0010
0001
1000
0100
0010
0001
1000
0010
0100
0001
1000
0000
0000
0000
,
0001
0010
0100
1000
0001
0100
0010
0100
,
0001
0000
1000
0000
0001
0010
0100
1000
0001
0100
0010
0000
0100
0001
0010
0100
,
1000
0010
1000
0010
0100
0001
1000
0001
1000
0100
0010
0001
1000
0100
1000
0010
,
0100
0001
1000
0100
1000
0001
0100
0001
0010
0100
1000
0001
1000
0001
0010
0100
,
1000
0000
0000
0000
0000
0000
0010
0000
0000
0000
0000
0000
0100
0000
0000
0000
0000
0000
0001
0000
0000
0000
1000
0000
0000
0000
0100
0000
0000
0000
0010
0000
0000
0000
0000
0000
0001
0000
0000
0100
0000
0000
0010
0000
0000
1000
0000
0000
,
0001
0000
0000
1000
0100
0010
0100
1000
0001
0100
0010
0000
1000
0000
0000
0000
,
0001
1000
0001
0100
0010
1000
0001
1000
0001
0010
0100
1000
0001
0010
0001
0100
,
0010
0100
0001
1000
0100
0000
0010
0000
,
0011
0001
1000
0010
0100
0001
1000
1000
,
0200
0000
0000
0000
1300
0010
0100
0001
1000
0010
0100
0000
0002
0000
0000
0000
,
1003
0100
0010
0001
0100
0001
1000
0001
1000
0100
0010
0001
1000
0100
1000
0010
,
0100
0001
1000
0100
1000
0001
0100
0001
0010
0100
1000
0001
1000
0001
0010
0100
,
1000
0000
0000
0000
0000
0000
0010
0000
0000
0000
0000
0000
0100
0000
0000
0000
0000
0000
0001
0000
0000
0000
1000
0000
0000
0000
0010
0000
0000
0000
0100
0000
0000
0000
0000
0000
0001
0000
0000
0010
0000
0000
0100
0000
0000
1000
0000
0000
,
0001
0000
0000
1000
0001
0100
0010
0100
0001
1000
0100
0000
1000
0000
0000
0000
,
0001
0001
0010
0010
0100
0100
1000
1000
,
0001
0100
0010
0100
0001
0010
0001
0100
0010
1000
0001
0010
0100
1000
0100
0010
,
0001
0000
0000
0100
0000
0100
0001
0000
,
1002
0000
0000
0000
0000
0000
0000
0000
0000
0000
0000
0000
0000
0000
0000
0000
2003
0000
0000
0000
0000
0000
0000
0000
0000
0000
0000
0000
0000
0000
0000
3000
,
1010
0010
0100
0001
0010
0100
1000
0000
,
1100
0000
0000
0100
0010
0000
0000
0100
,
1100
0000
0000
1000
0000
1000
0100
0000
,
0120
0000
0000
0000
0000
0000
0000
0000
0000
0000
0000
0000
0000
0000
0000
0000
0230
0000
0000
0000
0000
0000
0000
0000
0000
0000
0000
0000
0000
0000
0000
0300
,
1100
1000
0001
0010
0001
1000
0100
0000
,
1100
0000
0000
1000
0010
0000
0000
0100
,
0110
0000
0000
1000
0000
1000
0001
0000
,
0021
0000
0000
0000
0000
0000
0000
0000
0000
0000
0000
0000
0000
0000
0000
0000
0230
0000
0000
0000
0000
0000
0000
0000
0000
0000
0000
0000
0000
0000
0000
0300
,
1100
1000
0001
0100
0001
1000
0010
0000
,
1010
0000
0000
1000
0100
0000
0000
1000
,
1001
0000
0000
0001
0000
0001
0100
0000
,
0120
0000
0000
0000
0000
0000
0000
0000
0000
0000
0000
0000
0000
0000
0000
0000
2030
0000
0000
0000
0000
0000
0000
0000
0000
0000
0000
0000
0000
0000
0000
3000
,
1001
0001
0010
0100
1000
0100
0010
0001
,
0100
0010
1000
0001
1001
0000
0000
0000
,
1000
0001
0010
0100
1000
0001
0010
0001
1000
0100
0010
0001
1000
0100
1000
0001
,
0100
0010
0100
0001
1000
0010
0100
0010
1000
0001
0100
0010
1000
0001
0100
0010
,
1000
0100
1000
0001
0010
0100
1000
0001
0100
0010
1000
0001
0010
0100
1000
0001
,
1000
0010
1000
0001
1000
0100
1000
0001
0100
0010
0100
0001
1000
0100
0010
0001
,
1000
0010
1000
0010
0100
0001
1000
0010
1000
0001
0100
0001
1000
0010
0100
0001
,
1000
0100
1000
0001
0010
0100
1000
0001
0010
0001
1000
0001
1000
0100
0010
0001
,
1000
0001
1000
0010
0100
0001
1000
0100
0010
0001
1000
0010
1000
0001
1000
0100
,
1000
0010
0100
0001
1000
0100
0010
0001
1000
0010
1000
0001
0010
0100
1000
0001
,
4000
3000
0000
0000
0000
0000
0000
0000
,
0000
0000
0000
0000
,
1001
0000
0000
0000
,
0000
0000
0000
0000
,
1001
0000
0000
0000
;
