#TITLE:Hong Kong Magic;
#SUBTITLE:;
#ARTIST:tiger yamato;
#TITLETRANSLIT:;
#SUBTITLETRANSLIT:;
#ARTISTTRANSLIT:;
#CREDIT:;
#BANNER:hkmagic.png;
#BACKGROUND:hkmagic-bg.png;
#LYRICSPATH:;
#CDTITLE:!skorTitle.png;
#MUSIC:Pop'n 11 - Hong Kong Euro.mp3;
#OFFSET:-0.065;
#SAMPLESTART:39.411;
#SAMPLELENGTH:12.000;
#SELECTABLE:YES;
#BPMS:0.000=150.000;
#STOPS:;
#BGCHANGES:;
// cache tags:
#FIRSTBEAT:16.000;
#LASTBEAT:260.000;
#SONGFILENAME:Songs/Keyboard Collaboration II/Skorpion9x - Hong Kong Magic/hkmagic.sm;
#HASMUSIC:1;
#HASBANNER:1;
#MUSICLENGTH:106.874;
// end cache tags

//---------------dance-single - ----------------
#NOTES:
     dance-single:
     :
     Hard:
     11:
     0.982,1.000,1.000,0.271,0.599,580.000,126.000,29.000,0.000,0.000:  // measure 1
0000
0000
0000
0000
,  // measure 2
0000
0000
0000
0000
,  // measure 3
0000
0000
0000
0000
,  // measure 4
0000
0000
0000
0000
,  // measure 5
1001
0100
0010
0001
0110
1000
0001
0100
,  // measure 6
1010
0000
0100
0000
0011
0000
0100
0000
1100
0001
1100
0001
1100
0001
1100
0001
,  // measure 7
1000
0010
0100
0001
2000
0000
3100
0010
,  // measure 8
0001
0100
0001
1000
0020
0000
0130
0001
,  // measure 9
2000
0000
3100
1000
0001
0100
0001
0010
,  // measure 10
0100
0000
0010
0001
0100
0000
0010
0000
1000
0000
1000
0000
0100
0000
1000
0000
,  // measure 11
1001
0010
1000
0100
0002
0000
0103
1000
,  // measure 12
1000
0010
0100
0001
2000
0000
3100
1000
,  // measure 13
0002
0000
0103
0010
1000
0001
1000
0100
,  // measure 14
0010
0000
0001
0100
0010
0000
1000
0000
0011
1000
0011
1000
0011
1000
0011
1000
,  // measure 15
0101
0000
1001
0000
0011
0000
0001
1000
0001
0000
0101
0000
1001
0000
1000
0100
,  // measure 16
0010
0000
0110
0000
0011
0000
0010
0001
0100
0000
0101
0000
0110
0000
0010
1000
,  // measure 17
0001
0000
1001
0000
0101
0000
0100
0010
1000
0000
1100
0000
0011
0000
0001
1000
,  // measure 18
0100
0000
1100
0000
1001
0000
0001
0100
0010
0000
1010
0000
1100
0000
0100
0010
,  // measure 19
0100
0000
1100
0000
1001
0000
0001
0100
0010
0000
0101
0000
1010
0000
1000
0001
,  // measure 20
0100
0000
0110
0000
1010
0000
1000
0100
0010
0000
0011
0000
0101
0000
0100
0010
,  // measure 21
1000
0000
1001
0000
0110
0000
1000
0001
0100
0000
0101
0000
1010
0000
1000
0000
,  // measure 22
0011
1100
0011
1100
0011
1100
0011
0000
0001
0000
1001
0000
0110
0000
0100
0000
,  // measure 23
0001
0000
1000
0010
1000
0000
0100
0000
1000
0000
0001
1000
0100
0010
0100
0000
,  // measure 24
0010
0000
1000
0010
0001
0000
0001
0000
1000
0000
0010
0100
0001
0010
0001
0000
,  // measure 25
0100
0000
0010
1000
0010
0000
0100
0000
0001
0000
0010
0100
1000
0100
0010
0000
,  // measure 26
0001
0000
0100
1000
0100
0000
0001
0000
0010
0000
0100
0000
2000
0000
0000
0000
,  // measure 27
3010
0100
0001
0100
0010
0000
1000
0000
0100
0010
0001
0010
0100
0000
1000
0000
,  // measure 28
0001
1000
0010
1000
0100
0000
0010
0000
0001
0100
1000
0100
0001
0000
0100
0000
,  // measure 29
0001
1000
0010
1000
0100
0000
1000
0000
0001
0010
0100
0010
0001
0000
0100
0000
,  // measure 30
1001
0000
0000
1100
0000
0000
0011
0000
0000
0101
0000
0000
1001
0000
0000
0000
,  // measure 31
0120
0100
0100
0130
0001
0100
0010
1000
,  // measure 32
0200
0301
0100
1000
0020
0130
0001
1000
,  // measure 33
0020
0031
0010
1000
0002
0103
0010
0001
,  // measure 34
0020
1030
0100
0001
0200
1300
0001
0010
,  // measure 35
0120
1030
0001
0100
1020
1030
0001
0010
,  // measure 36
0210
1300
0010
0100
0102
1003
0100
1000
,  // measure 37
1020
0130
0001
0100
0210
0301
0101
0110
,  // measure 38
1010
0200
0000
0000
0000
0000
0000
0300
,  // measure 39
1001
0010
0001
0100
1010
0100
0001
1000
,  // measure 40
0110
0000
0001
0000
0110
0000
1000
0000
0110
0001
0110
0001
0110
0001
0110
0001
,  // measure 41
1000
0010
0100
0001
2000
0000
3001
0100
,  // measure 42
0001
0010
0100
1000
0002
0000
0103
1000
,  // measure 43
0200
0000
0310
1000
0010
1000
0001
1000
,  // measure 44
0100
0000
0010
0001
1000
0000
0100
0000
0010
0100
0010
0100
0010
0100
0010
0100
,  // measure 45
0011
1000
0100
0001
2000
0000
3001
0100
,  // measure 46
1000
0010
0001
0010
0200
0000
0310
0001
,  // measure 47
0200
0000
0310
1000
0001
1000
0100
0010
,  // measure 48
0001
1000
0001
1000
0001
1000
0001
1000
0010
0100
0010
0100
0010
0100
0010
0100
,  // measure 49
1001
0000
0101
0000
0011
0000
0001
0100
0010
1000
1100
0000
1001
0000
0100
0010
,  // measure 50
0001
1000
1010
0000
1100
0000
0100
0010
0001
1000
1001
0000
0110
0000
0010
1000
,  // measure 51
0100
1000
1100
0000
0011
0000
0010
0001
1000
0010
1010
0000
1001
0000
0001
0100
,  // measure 52
0001
0010
0011
0000
1100
0000
1000
0100
0010
1000
1010
0000
0011
0000
0010
0001
,  // measure 53
0100
1000
1100
0000
0101
0000
0001
1000
0100
0010
0110
0000
1001
0000
0001
1000
,  // measure 54
0010
1000
1010
0000
1100
0000
0100
0010
0001
0100
0101
0000
1010
0000
1000
0010
,  // measure 55
0100
0001
0101
0000
0011
0000
0001
1000
0010
1000
1001
0000
0110
0000
0100
0000
,  // measure 56
1010
0101
1010
0101
1010
0101
1010
0000
0100
0000
0011
0000
1001
0000
0100
0000
,  // measure 57
1001
0000
0100
1000
0100
0010
0001
0000
1000
0000
0001
0100
0010
0100
0001
0000
,  // measure 58
1000
0000
0010
0100
0001
0100
0010
0000
1000
0000
0100
0010
0001
0010
0100
0000
,  // measure 59
1000
0000
0001
0100
1000
0100
0001
0000
0010
0000
0100
1000
0010
0001
0010
0000
,  // measure 60
1000
0000
0100
0010
0100
1000
0001
0000
0100
0010
0100
0010
0100
0010
0100
0010
,  // measure 61
1001
0100
0010
0100
1000
0000
0001
0000
0110
1000
0100
1000
0001
0000
0010
0000
,  // measure 62
0110
1000
0001
0100
0001
0000
0010
0000
1001
0010
1000
0100
1000
0000
0010
0000
,  // measure 63
0101
0010
1000
0010
0100
0000
0001
0000
0011
1000
0100
0010
0001
0000
0100
0000
,  // measure 64
1010
0000
0000
0101
0000
0000
1001
0000
0000
0011
0000
0000
0110
0000
0000
0000
,  // measure 65
2002
0000
0000
0000
,  // measure 66
3003
0000
0000
0000
;
