#TITLE:Realization;
#SUBTITLE:;
#ARTIST:Reason Sound Team;
#TITLETRANSLIT:;
#SUBTITLETRANSLIT:;
#ARTISTTRANSLIT:;
#CREDIT:;
#BANNER:realization.png;
#BACKGROUND:realization-bg.png;
#LYRICSPATH:;
#CDTITLE:reny.png;
#MUSIC:Realization (DWI Edit).mp3;
#OFFSET:-0.060;
#SAMPLESTART:54.587;
#SAMPLELENGTH:15.000;
#SELECTABLE:YES;
#BPMS:0.000=140.000,128.000=70.000,144.000=140.000;
#STOPS:;
#BGCHANGES:;
// cache tags:
#FIRSTBEAT:16.000;
#LASTBEAT:284.000;
#SONGFILENAME:Songs/Community Keyboard Megapack - Volume 1/(Ren) Realization/realization.sm;
#HASMUSIC:1;
#HASBANNER:1;
#MUSICLENGTH:138.953;
// end cache tags

//---------------dance-single - ----------------
#NOTES:
     dance-single:
     :
     Hard:
     10:
     0.629,1.000,0.036,0.000,1.000,607.000,5.000,0.000,0.000,0.000:  // measure 1
0000
0000
0000
0000
,  // measure 2
0000
0000
0000
0000
,  // measure 3
0000
0000
0000
0000
,  // measure 4
0000
0000
0000
0000
,  // measure 5
0000
0000
0000
0000
0000
0000
0000
0010
0000
0100
0000
0001
0000
1000
0000
0000
,  // measure 6
0000
0000
0000
0000
,  // measure 7
0000
0000
0000
0000
,  // measure 8
0000
0000
0000
0001
0100
0001
0000
1000
0000
0100
0000
1000
0010
1000
0000
0001
,  // measure 9
0000
0010
0000
0001
1000
0001
0000
0010
0000
0100
0000
1000
0100
1000
0000
0010
,  // measure 10
0000
0100
0000
0001
0010
0001
0000
1000
0000
0100
0000
0000
0000
0000
0000
0000
,  // measure 11
0001
0100
0000
0100
0001
0100
0000
0000
0000
0000
0000
0000
0000
0000
0000
0000
,  // measure 12
0000
0000
0000
1000
0010
1000
0000
0001
0000
0010
0000
0001
0100
0001
0000
1000
,  // measure 13
0000
0100
0000
1000
0001
1000
0000
0100
0000
0010
0000
0001
0010
0001
0000
0100
,  // measure 14
0000
0010
0000
1000
0100
1000
0000
0001
0000
0010
0000
0000
0000
0000
0000
0000
,  // measure 15
1000
0010
0000
0010
1000
0010
0000
0000
0000
0000
0000
0000
0000
0000
0000
0000
,  // measure 16
1001
0000
0000
0000
0000
0000
0000
0000
0110
0000
0000
0001
0101
0000
0000
0000
,  // measure 17
0010
0000
0000
0100
0010
0000
0000
0000
0100
0000
0000
0000
0001
0000
0000
0000
,  // measure 18
1000
0000
0000
0100
0010
0000
0000
0000
0001
0000
0000
0100
1000
0000
0000
0000
,  // measure 19
0100
0010
0000
0010
0100
0010
0000
0000
0010
0000
0000
0000
1000
0000
0000
0000
,  // measure 20
0001
0000
0000
0010
0100
0010
0000
0100
0000
1000
0000
0010
0001
0010
0000
1000
,  // measure 21
0000
0001
0000
0100
0010
0100
0000
0001
0000
0010
0000
0100
0001
0100
0000
0000
,  // measure 22
1000
0000
0000
0100
0010
0000
0000
0000
0001
0000
0000
0100
1000
0000
0000
0000
,  // measure 23
0100
0010
0000
0010
0100
0010
0000
0000
0010
0000
0000
0000
1000
0000
0000
0000
,  // measure 24
0001
0000
0000
0010
0100
0010
0000
0100
0000
1000
0000
0010
0001
0010
0000
1000
,  // measure 25
0010
0000
0000
0010
0100
0000
0000
0000
1000
0000
0000
0000
0001
0000
0000
0000
,  // measure 26
0100
0000
0000
0100
0010
0000
0000
0000
0100
0000
0000
0100
0001
0000
0000
0000
,  // measure 27
1000
0000
0000
1000
0100
0000
0000
0000
0010
0000
0000
0000
0100
0000
0000
0000
,  // measure 28
0001
0000
0000
0001
0100
0000
0000
0000
0010
0000
0000
0010
1000
0000
0000
0000
,  // measure 29
0100
0000
0000
0100
0010
0000
0000
0000
0001
0000
0000
0000
1000
0000
0000
0000
,  // measure 30
0010
0000
0000
0010
0100
0000
0000
0000
0010
0000
0000
0010
1000
0000
0000
0000
,  // measure 31
0001
0000
0000
0001
0010
0000
0000
0000
0100
0000
0000
0000
0010
0000
0000
0000
,  // measure 32
1000
0000
0000
1000
0010
0000
0000
0000
0100
0000
0000
0100
0001
0000
0000
0000
,  // measure 33
1000
0000
0100
1000
0000
0001
0010
0000
0100
0010
0000
0001
0100
0000
0010
1000
0100
0000
0010
0100
0000
1000
0010
0000
0100
0001
0000
0010
0100
0000
0010
0001
,  // measure 34
0100
0000
0010
0100
0000
0001
1000
0000
0100
0010
0000
0100
1000
0000
0010
0001
0010
0000
1000
0100
0000
0010
0100
0000
1000
0001
0000
0100
0010
0000
0010
0100
,  // measure 35
0001
0000
0010
0001
0000
1000
0100
0000
0010
0100
0000
1000
0010
0000
0100
0001
0010
0000
0100
0010
0000
0001
0100
0000
0010
1000
0000
0100
0010
0000
0100
1000
,  // measure 36
0010
0000
0100
0010
0000
1000
0001
0000
0010
0100
0000
0010
0001
0000
0100
1000
0100
0000
0001
0010
0000
0100
0010
0000
0001
1000
0000
0010
0100
0000
0100
0010
,  // measure 37
1000
0000
0100
1000
0000
0001
0010
0000
0100
0010
0000
0001
0100
0000
0010
1000
,  // measure 38
0100
0000
0010
0100
0000
1000
0010
0000
0100
0001
0000
0010
0100
0000
0010
0001
,  // measure 39
0100
0000
0010
0100
0000
0001
1000
0000
0100
0010
0000
0100
1000
0000
0010
0001
,  // measure 40
0010
0000
1000
0100
0000
0010
0100
0000
1000
0001
0000
0100
0010
0000
0010
0100
,  // measure 41
0001
0000
0010
0001
0000
1000
0100
0000
0010
0100
0000
1000
0010
0000
0100
0001
,  // measure 42
0010
0000
0100
0010
0000
0001
0100
0000
0010
1000
0000
0100
0010
0000
0100
1000
,  // measure 43
0010
0000
0100
0010
0000
1000
0001
0000
0010
0100
0000
0010
0001
0000
0100
1000
,  // measure 44
0100
0000
0001
0010
0000
0100
0010
0000
0001
1000
0000
0010
0100
0000
0100
0010
,  // measure 45
0001
0000
1000
0001
0000
0010
0100
0000
1000
0100
0000
0010
1000
0000
0100
0001
,  // measure 46
1000
0000
0100
1000
0000
0001
0100
0000
1000
0010
0000
0100
1000
0000
0100
0010
,  // measure 47
1000
0000
0100
1000
0000
0010
0001
0000
1000
0100
0000
1000
0001
0000
0100
0010
,  // measure 48
0100
0000
0001
1000
0000
0100
1000
0000
0001
0010
0000
1000
0100
0000
0100
1000
,  // measure 49
0010
0000
0100
0010
0000
0001
1000
0000
0100
1000
0000
0001
0100
0000
1000
0010
,  // measure 50
0100
0000
1000
0100
0000
0010
1000
0000
0100
0001
0000
1000
0100
0000
1000
0001
,  // measure 51
0100
0000
1000
0100
0000
0001
0010
0000
0100
1000
0000
0100
0010
0000
1000
0001
,  // measure 52
1000
0000
0010
0100
0000
1000
0100
0000
0010
0001
0000
0100
1000
0000
0010
0100
,  // measure 53
1000
0000
0100
1000
0010
0000
0001
0000
0100
0000
0010
0000
0100
0000
0001
0000
,  // measure 54
1000
0000
0100
1000
0010
0000
0001
0000
1000
0000
0010
1000
0100
0000
0001
0000
,  // measure 55
1000
0000
0010
0001
1000
0000
0100
0000
0010
0000
0001
0000
0100
0000
0001
0000
,  // measure 56
1000
0000
0001
1000
0010
0000
0100
0000
1000
0000
0001
1000
0100
0000
0010
0000
,  // measure 57
1000
0000
0100
1000
0010
0000
0001
0000
0100
0000
0010
0000
0100
0000
0001
0000
,  // measure 58
1000
0000
0100
1000
0010
0000
0001
0000
1000
0000
0010
1000
0100
0000
0001
0000
,  // measure 59
1000
0000
0010
0001
1000
0000
0100
0000
0010
0000
0001
0000
0100
0000
0001
0000
,  // measure 60
1000
0000
0001
1000
0010
0000
0100
0000
1000
0001
0000
0001
1000
0100
0010
0100
,  // measure 61
1001
0000
0000
0001
0010
0100
0010
0001
0000
0100
0000
0010
1000
0001
0010
0100
,  // measure 62
0000
0010
0000
0100
1000
0010
1000
0001
0000
0100
0000
0001
0010
0100
1000
0001
,  // measure 63
1000
0100
0000
0100
1000
0100
0000
0100
0010
0100
0000
0100
0001
0100
0000
0000
,  // measure 64
0000
0000
0000
0100
0010
0001
1000
0010
0000
0100
0000
0001
1000
0001
0010
0100
,  // measure 65
0000
1000
0000
0001
0010
0100
0010
0001
0000
0100
0000
0010
1000
0001
0010
0100
,  // measure 66
0000
0010
0000
0100
1000
0010
1000
0001
0000
0100
0000
0001
0010
0100
1000
0001
,  // measure 67
1000
0100
0000
0100
1000
0100
0000
0100
0010
0100
0000
0100
0001
0100
0000
0000
,  // measure 68
0000
0000
0000
0100
0010
0001
1000
0010
0000
0100
0000
0001
1000
0001
0010
0100
,  // measure 69
1001
0000
0000
0000
;

//---------------dance-single - ----------------
#NOTES:
     dance-single:
     :
     Challenge:
     11:
     0.983,1.000,0.943,0.158,1.000,803.000,131.000,22.000,0.000,0.000:  // measure 1
0000
0000
0000
0000
,  // measure 2
0000
0000
0000
0000
,  // measure 3
0000
0000
0000
0000
,  // measure 4
0000
0000
0000
0000
,  // measure 5
1001
0100
0000
0001
0010
0100
1000
0010
0000
0101
0000
0010
0000
0102
0000
0000
,  // measure 6
1003
0100
0010
0000
0001
0000
0011
0000
0001
0100
0010
0000
1000
0000
1010
0000
,  // measure 7
0010
0100
0010
0000
0110
0000
1100
0000
0010
0100
0010
0000
0110
0000
0102
0000
,  // measure 8
0000
0000
0000
0000
0000
0000
1003
0001
1000
0001
1000
0000
0100
0000
0010
0000
0000
0000
0011
0000
0000
0000
0001
1000
0001
1000
0001
0000
0100
0000
0010
0000
,  // measure 9
0000
1010
0000
1000
0100
0010
0001
0010
0000
1100
0000
0010
0000
2100
0000
0000
,  // measure 10
3001
0010
0100
0000
0010
0000
1010
0000
0001
0010
0100
0000
0010
0000
0011
0000
,  // measure 11
1000
0010
0100
0001
0100
0010
1000
0001
0010
0100
1000
0100
0010
0001
1000
0010
,  // measure 12
1001
0000
0000
0000
0000
0000
0001
0100
0001
0100
0001
0000
0010
0000
0100
0000
0000
0000
0010
0000
0000
0000
1000
0100
1000
0100
1000
0000
0010
0000
0100
0000
,  // measure 13
0000
1001
0000
0001
1000
0100
0010
0100
0000
0011
0000
1000
0000
0012
0000
0000
,  // measure 14
1003
0100
1000
0000
0010
0000
0101
0000
0001
0100
0001
0000
0010
0000
1100
0000
,  // measure 15
0001
0010
0100
1000
0100
0010
0001
1000
0010
0100
0001
0100
0010
1000
0001
0010
,  // measure 16
1002
0000
0000
0000
0013
0000
0000
0000
0101
0000
0000
0010
1100
0000
0000
0000
,  // measure 17
0002
0010
1000
0100
1000
0010
0100
0010
,  // measure 18
2003
0010
0100
0001
3020
0100
0001
1000
,  // measure 19
0230
0010
0001
0010
1000
0010
0001
0010
,  // measure 20
2300
0100
0010
0001
3200
0010
0001
1000
,  // measure 21
0320
0100
1000
0100
0001
0100
1000
0100
,  // measure 22
0032
1000
0100
0010
0203
0010
1000
0001
,  // measure 23
0320
1000
0001
0100
0001
1000
0100
0001
,  // measure 24
2030
0010
0100
0001
3002
0010
0100
1003
,  // measure 25
1001
0000
0000
0001
0100
0000
0010
0000
1001
0000
0100
0010
0100
0000
0001
0000
,  // measure 26
1001
0000
0000
1000
0100
0000
0010
0000
1001
0000
0100
0010
0100
0000
1000
0000
,  // measure 27
0010
1000
0001
0000
1000
0000
0001
0100
0010
0000
1000
0000
0100
0010
0001
0000
,  // measure 28
0010
0001
1000
0000
0001
0000
1000
0100
0010
0000
0001
0000
0100
0010
1000
0001
,  // measure 29
1000
0100
1000
0100
1000
0100
1000
0100
0010
0001
0010
0001
0010
0001
0010
0001
,  // measure 30
1000
0001
0010
0100
1000
0001
0100
0010
1000
0010
0001
0010
1000
0100
0001
0100
,  // measure 31
0010
0001
0100
0010
1000
0100
0010
0001
0100
0001
0010
0100
1000
0010
1000
0100
,  // measure 32
0010
0000
0001
0000
1000
0001
1000
0000
0100
0000
0010
0000
1000
0000
0100
0000
0010
0000
0001
0000
1000
0000
0001
0000
0100
0000
0010
1000
0001
1000
0001
0010
,  // measure 33
1001
0100
0010
1000
0000
0001
0100
0010
0100
0010
1000
0001
0100
0010
1000
0001
0010
0100
1000
0001
0000
0001
0010
0100
0010
0100
1000
0001
0010
0100
1000
0001
,  // measure 34
1001
0100
0010
0001
0000
1000
0100
0010
0100
0010
0001
1000
0100
0010
0001
1000
0010
0100
0001
1000
0000
1000
0010
0100
0010
0100
0001
1000
0010
0100
0001
1000
,  // measure 35
0001
0100
0001
0100
0001
0100
0001
0100
0010
1000
0010
1000
0010
1000
0010
1000
0001
1000
0010
0100
0001
1000
0100
0010
0001
0010
1000
0010
0001
0100
1000
0100
,  // measure 36
0010
0000
1000
0000
0100
0000
0010
0000
0001
0000
0100
0000
0010
0000
1000
0000
0100
0000
1000
0000
0010
0000
0100
0000
0001
0000
0010
0000
0001
0000
0100
0000
0010
0000
1000
0000
0001
1000
0001
0000
0100
0000
0010
0000
0001
0000
0100
0000
0010
0000
1000
0000
0001
0000
1000
0000
0100
0000
0010
0001
1000
0001
1000
0010
,  // measure 37
1001
0000
1000
0101
0000
1000
0011
0000
0100
1001
0000
0010
1001
0100
1000
0001
,  // measure 38
1001
0000
0001
1100
0000
0001
1010
0000
0100
1001
0000
0010
1001
0100
0001
1000
,  // measure 39
0110
0000
0010
1000
0000
0010
0001
0000
0100
0010
0000
0110
0001
1000
0110
1001
,  // measure 40
0110
0000
0100
0001
0000
0100
1000
0000
0100
0010
0000
0110
1000
0001
1000
0110
,  // measure 41
1001
0000
0011
1001
0000
1100
1010
0000
1001
0101
0000
0110
0001
0100
0010
1000
,  // measure 42
1001
0000
1010
1001
0000
0011
0101
0000
1100
1001
0000
0110
1000
0001
0100
0010
,  // measure 43
1001
0000
0010
1100
0000
0010
0101
0000
1001
0110
0000
1010
0100
0001
1000
0100
,  // measure 44
1001
0000
1100
0011
0000
0101
1010
0000
1001
0110
0000
1001
0110
1000
0001
0110
,  // measure 45
1001
0100
0010
0001
0000
1000
0100
0010
0001
1000
0000
0100
0010
0001
1000
0010
,  // measure 46
0100
0010
1000
0001
0000
0100
0010
1000
0001
1000
0000
0001
0100
0010
1000
0001
,  // measure 47
0010
0100
1000
0001
0000
0010
0100
1000
0100
0010
0000
0100
0001
0100
1000
0010
,  // measure 48
0101
0000
0010
1000
0000
0010
0001
0000
1100
0010
0000
0001
1000
0010
0100
0010
,  // measure 49
1001
0000
0100
1100
0000
1000
1010
0000
0010
0011
0000
0001
0101
1000
0010
0001
,  // measure 50
1001
0000
0100
0101
0000
0001
0011
0000
0010
1010
0000
1000
1100
0001
0010
1000
,  // measure 51
0110
0000
0100
0101
0000
0010
1010
0000
1000
1100
0000
0010
0011
0001
0100
0010
,  // measure 52
0110
0000
0100
1100
0000
0010
0011
0000
0001
0101
0000
0010
1010
1000
0100
0010
,  // measure 53
1001
0010
0100
0010
0001
0010
0100
0010
,  // measure 54
0101
1000
0010
0100
1100
0001
0010
0100
,  // measure 55
0110
0001
0100
1000
0100
0001
0100
1000
,  // measure 56
1001
0100
0010
0001
1001
0100
0010
1000
,  // measure 57
1010
0001
1000
0100
1000
0001
1000
0100
,  // measure 58
0110
0001
0010
0100
0110
1000
0010
0100
,  // measure 59
1001
1000
0010
0001
0010
1000
0100
0001
,  // measure 60
0011
0000
0000
0000
0001
0000
0000
0000
0100
0000
0000
0000
1000
0000
0000
0000
1001
0000
0010
0000
0000
0000
1000
0000
0001
0010
0100
1000
0001
0010
0100
1000
,  // measure 61
1001
0100
0000
0001
0010
0100
1000
0010
0000
0101
0000
0010
0000
0102
0000
0000
,  // measure 62
1003
0100
0010
0000
0001
0000
0011
0000
0001
0100
0010
0000
1000
0000
1010
0000
,  // measure 63
0010
0100
0010
0000
0110
0000
1100
0000
0010
0100
0010
0000
0110
0000
0102
0000
,  // measure 64
0000
0000
0000
0000
0000
0000
1003
0001
1000
0001
1000
0000
0100
0000
0010
0000
0000
0000
0011
0000
0000
0000
0001
1000
0001
1000
0001
0000
0100
0000
0010
0000
,  // measure 65
0000
1010
0000
1000
0100
0010
0001
0010
0000
1100
0000
0010
0000
2100
0000
0000
,  // measure 66
3001
0010
0100
0000
0010
0000
1010
0000
0001
0010
0100
0000
0010
0000
0011
0000
,  // measure 67
1000
0010
0100
0001
0100
0010
1000
0001
0010
0100
1000
0100
0010
0001
1000
0010
,  // measure 68
1001
0000
0000
0000
0000
0000
0001
0100
0001
0100
0001
0000
0010
0000
0100
0000
0000
0000
0010
0000
0000
0000
1000
0100
1000
0100
1000
0000
0010
0000
0100
0000
,  // measure 69
2002
0000
0000
0000
,  // measure 70
0000
0000
0000
0000
,  // measure 71
0000
0000
0000
0000
,  // measure 72
3003
0000
0000
0000
;
