#TITLE:Flimbo's Quest;
#SUBTITLE:;
#ARTIST:Reyn Ouwehand;
#TITLETRANSLIT:;
#SUBTITLETRANSLIT:;
#ARTISTTRANSLIT:;
#CREDIT:owenviau1;
#BANNER:../BN.png;
#BACKGROUND:../BG.png;
#LYRICSPATH:;
#CDTITLE:../CDTitleOV1.png;
#MUSIC:Reyn Ouwehand - Flimbo's Quest.ogg;
#OFFSET:-0.784;
#SAMPLESTART:59.020;
#SAMPLELENGTH:29.999;
#SELECTABLE:YES;
#BPMS:0.000=131.878;
#STOPS:;
#BGCHANGES:;
// cache tags:
#FIRSTBEAT:0.000;
#LASTBEAT:479.750;
#SONGFILENAME:Songs/Index Gradation/Flimbo's Quest - [Owen71]/Flimbo's Quest.sm;
#HASMUSIC:1;
#HASBANNER:1;
#MUSICLENGTH:226.348;
// end cache tags

//---------------dance-single - ----------------
#NOTES:
     dance-single:
     :
     Challenge:
     17:
     1.000,1.000,0.115,0.247,1.000,2136.000,26.000,56.000,0.000,2.000:
1001
1000
0000
1000
0000
1000
0000
1000
,
0000
0000
1000
0000
0000
0000
1000
0000
0000
0000
1000
0000
0000
0100
0010
0001
,
1000
1000
0000
1000
0000
1000
0000
1000
,
0200
0000
0000
0000
0320
0000
0032
0000
0000
0000
0000
0000
0003
1000
0010
1000
,
0001
0001
0000
0001
0000
0001
0000
0001
,
0020
0000
0000
0000
0000
0000
0230
0000
0000
0000
0000
0000
0300
1000
0001
0100
,
0010
0010
0000
0010
0000
0010
0000
0010
,
0200
0000
0000
0000
0000
0000
0000
0000
0000
0000
0000
0000
0302
0000
0000
0000
0000
0000
0000
0000
0000
0000
0000
0000
2003
0000
0000
0000
0000
0000
0000
0000
0000
0000
0000
0000
3002
0000
0000
0000
0000
0000
0000
0000
0000
0000
0000
0000
0023
0000
0000
0000
0000
0000
0000
0000
0000
0000
0000
0000
0000
0000
0000
0000
0000
0000
0000
0000
0000
0000
0000
0000
0130
2000
0000
0000
0000
0000
0000
0000
0000
0000
0000
0000
0000
0000
0000
0000
0000
0000
0000
0000
0000
0000
0000
0000
,
3010
0000
0000
0000
0000
0000
0000
0000
0100
0001
0000
0000
0000
0000
0000
0000
1000
0000
0000
0000
0000
0000
0000
0000
0010
0100
0000
0000
0000
0000
0000
0000
0001
0000
0000
0000
0000
0000
0000
0000
1000
0010
0000
0000
0000
0000
0000
0000
0100
0000
0000
0000
0000
0000
0000
0000
0001
1000
0000
0000
0000
0000
0000
0000
,
0100
0000
0000
0000
0000
0000
0000
0000
0010
0001
0000
0000
0000
0000
0000
0000
1000
0000
0000
0000
0000
0000
0000
0000
0010
0100
0000
0000
0000
0000
0000
0000
0001
0000
0000
0000
0000
0000
0000
0000
1000
0100
0000
0000
0000
0000
0000
0000
0010
0000
0000
0000
0000
0000
0000
0000
0001
0100
0000
0000
0001
0100
0000
0000
,
0010
0000
0000
0000
0000
0000
0000
0000
1000
0010
0000
0000
0000
0000
0000
0000
0100
0000
0000
0000
0000
0000
0000
0000
0001
1000
0000
0000
0000
0000
0000
0000
0100
0000
0000
0000
0000
0000
0000
0000
0010
0001
0000
0000
0000
0000
0000
0000
1000
0000
0000
0000
0000
0000
0000
0000
0010
1000
0000
0000
0000
0000
0000
0000
,
0001
0000
0000
0000
0000
0000
0000
0000
0010
0100
0000
0000
0000
0000
0000
0000
1000
0000
0000
0000
0000
0000
0000
0000
0001
0100
0000
0000
0000
0000
0000
0000
0010
0000
0000
0000
0000
0000
0000
0000
1000
0100
0000
0000
0000
0000
0000
0000
0010
0000
0000
0000
0000
0000
0000
0000
0001
1000
0000
0000
0001
1000
0000
0000
,
0010
0000
0000
0000
0000
0000
0000
0000
0100
0001
0000
0000
0000
0000
0000
0000
1000
0000
0000
0000
0100
0000
0000
0000
0010
0000
0000
0000
0001
0000
0000
0000
1000
0000
0000
0000
0001
0000
0000
0000
0100
0000
0000
0000
0010
0000
0000
0000
0100
0000
0000
0000
0001
0000
0000
0000
1000
0000
0000
0000
0100
0000
0000
0000
,
1000
0000
0000
0000
0001
0000
0000
0000
0010
0000
0000
0000
0100
0000
0000
0000
1000
0000
0000
0000
0001
0000
0000
0000
1000
0000
0000
0000
0010
0000
0000
0000
0100
0000
0000
0000
0001
0000
0000
0000
1000
0000
0000
0000
0001
0000
0000
0000
0100
0000
0000
0000
0010
0000
0000
0000
1000
0001
0000
0000
1000
0001
0000
0000
,
0100
0010
1000
0001
1000
0100
0010
0001
1000
0100
0010
0100
1000
0001
0100
0010
,
1000
0001
1000
0001
1000
0000
0000
0000
1001
0000
0000
0000
1001
0000
0000
0000
2000
0000
0000
0000
0000
0000
0000
0000
3010
0000
0000
0000
0100
0000
0001
0000
,
1000
0100
0010
0001
1000
0001
0100
0010
0100
0001
1000
0010
1000
0100
0010
0001
1000
0001
0100
0010
1000
0010
0100
0001
,
1000
0001
0100
0010
0100
0001
1000
0010
1000
0100
0010
0001
0100
0010
0100
0001
1000
0010
1000
0100
0010
0001
1000
0100
,
0010
0100
1000
0001
0010
0100
1000
0001
1000
0010
0100
0001
1000
0001
0100
0010
0100
0001
1000
0010
1000
0001
0010
0100
,
1000
0001
0010
0001
0100
0010
1000
0010
0100
0001
1000
0010
1000
0001
0100
0001
1000
0100
0010
0001
1000
0100
1000
0010
,
0100
0010
1000
0001
0010
0001
0100
0010
1000
0010
0100
0001
1000
0100
0010
0001
1000
0001
0010
0100
1000
0001
0010
0100
,
0010
0001
1000
0100
1000
0001
0100
0010
1000
0010
0100
0001
1000
0010
1000
0001
0100
0001
1000
0100
0010
0001
1000
0010
,
0200
0310
2000
3001
,
0100
0010
0100
0010
0100
0000
0000
0000
0110
0000
0000
0000
0110
0000
0000
0000
0020
0000
0000
0000
0000
0000
0000
0000
1030
0000
0000
0000
0001
0000
0010
0000
,
0100
1000
0001
1000
0010
0100
0010
1000
0001
0100
0001
1000
0010
0100
0010
1000
0001
0100
0010
1000
0010
0100
0001
1000
,
0100
0010
0001
1000
0001
0100
0010
1000
0010
0100
0001
1000
0100
0010
0100
1000
0001
0010
0001
0100
0010
1000
0010
0100
,
0001
1000
0001
0100
0010
0100
0001
1000
0100
1000
0001
0010
0001
0100
0010
1000
0010
0100
0001
1000
0001
0010
0100
1000
,
0001
0010
0001
0100
0010
1000
0010
0100
0001
1000
0001
0100
0010
1000
0010
0100
0001
1000
0100
1000
0001
0010
0100
1000
,
0001
1000
0100
0010
0001
1000
0010
1000
0001
0100
0010
0100
0001
1000
0010
1000
0100
0010
0001
1000
0100
1000
0001
0010
,
0001
0100
0010
1000
0010
0100
0001
1000
0100
1000
0001
0100
0010
0100
0001
1000
0001
0100
0010
1000
0010
0100
0001
1000
,
0001
0010
0100
0000
1000
0000
0000
0000
0010
0100
0001
0000
1000
0000
0000
0000
0100
0000
0000
0000
0010
0000
0000
0000
0001
0000
0000
0000
1000
0000
0000
0000
,
0001
0100
0001
0100
0001
0000
0000
0000
0101
0000
0000
0000
0102
0000
0000
0000
0000
0000
0000
0000
0000
0000
0000
0000
0000
0000
0000
0000
0103
0000
0010
0000
,
1000
0001
0100
0010
0100
0001
1000
0010
1000
0001
0100
0010
1000
0010
0100
0001
1000
0100
0010
0001
1000
0001
0100
0010
,
0100
0001
1000
0010
1000
0100
0010
0001
1000
0100
1000
0001
0010
0001
0100
0010
1000
0010
0100
0001
1000
0100
0010
0001
,
1000
0001
0010
0100
1000
0001
0010
0001
0100
0010
1000
0010
0100
0001
1000
0001
0100
0010
1000
0010
0100
0001
1000
0100
,
0010
0001
1000
0100
1000
0001
0010
0001
0100
0010
1000
0010
0100
0001
1000
0001
0100
0010
0100
0001
1000
0100
0010
0001
,
1000
0100
1000
0001
0010
0001
1000
0010
0100
0010
1000
0001
0100
0001
1000
0100
0010
0001
1000
0010
1000
0001
0100
0010
,
0100
0001
1000
0010
1000
0100
0010
0001
1000
0100
1000
0010
0100
0001
1000
0001
0100
0010
1000
0010
0100
0001
1000
0100
,
0020
0031
2000
3010
,
0100
0001
0100
0001
0100
0000
0000
0000
0101
0000
0000
0000
0101
0000
0000
0000
0002
0000
0000
0000
0000
0000
0000
0000
1003
0000
0000
0000
0010
0000
0100
0000
,
0010
1000
0001
0100
0001
0010
0100
1000
0100
0010
0001
1000
0100
1000
0001
0100
0010
0100
0001
1000
0010
1000
0001
0100
,
0001
0010
0100
1000
0001
0010
0001
0100
0010
1000
0010
0100
0001
1000
0001
0100
0010
0100
0001
1000
0010
1000
0100
0010
,
0001
1000
0001
0010
0100
1000
0001
0010
0001
0100
0010
1000
0010
0100
0001
1000
0100
1000
0001
0010
0001
0100
0010
0100
,
0001
1000
0010
1000
0001
0100
0001
1000
0100
0010
0001
1000
0001
0100
0010
1000
0010
0100
0001
1000
0100
1000
0001
0010
,
0001
0100
0010
1000
0010
0100
0001
1000
0100
1000
0001
0010
0001
0100
0010
1000
0010
0100
0001
1000
0100
1000
0001
0010
,
0001
0100
0010
1000
0010
0100
0001
1000
0001
0100
0010
0100
0001
1000
0010
1000
0100
0010
0001
1000
0100
1000
0001
0010
,
0100
1000
0001
0000
0100
0000
0000
0000
0010
1000
0001
0000
0100
0000
0000
0000
0010
0000
0000
0000
0001
0000
0000
0000
0010
0000
0000
0000
0100
0000
0000
0000
,
1000
0010
1000
0010
1000
0000
0000
0000
1010
0000
0000
0000
2010
0000
0000
0000
0000
0000
0000
0000
0000
0000
0000
0000
0000
0000
0000
0000
3100
0000
0010
0000
,
0001
1000
0001
0100
0010
0100
0001
1000
0010
0100
0001
1000
0001
0100
0010
1000
0010
0100
0001
1000
0100
0010
0001
1000
,
0100
1000
0001
0010
0100
0010
0001
1000
0010
1000
0001
0100
0001
1000
0010
1000
0100
0010
0001
1000
0100
1000
0001
0010
,
0001
0100
0010
1000
0010
0100
0001
1000
0001
0100
0010
0100
0001
1000
0001
0010
0100
0010
0001
1000
0010
1000
0100
0010
,
0001
1000
0100
1000
0010
0100
0010
1000
0001
1000
0100
0010
0001
1000
0010
1000
0100
0010
0001
1000
0100
1000
0001
0100
,
0001
0010
0100
1000
0001
0010
0001
0100
0010
1000
0010
0100
0001
1000
0001
0100
0010
1000
0010
0100
0001
1000
0100
0010
,
0100
1000
0001
0010
0001
1000
0100
0010
0001
1000
0001
0100
0010
0100
0001
1000
0001
0010
0100
1000
0001
0010
0001
0100
,
0010
1000
0010
0100
0001
1000
0010
1000
0100
0010
0001
1000
0100
1000
0001
0010
0001
0100
0010
1000
0010
0100
0001
1000
,
0010
0000
0000
0000
1000
0000
0000
0000
0100
0000
0000
0000
0010
0000
0000
0000
0001
0000
0000
0000
1000
0000
0000
0000
0001
0000
0000
0000
0100
0000
0000
0000
0010
0000
0000
0000
0100
0000
0000
0000
0001
0000
0000
0000
1000
0000
0000
0000
0100
0000
0000
0010
0000
0000
0001
0000
0000
1000
0000
0000
0001
0000
0000
0100
0000
0000
0010
0000
0000
1000
0000
0000
0010
0000
0000
0000
0000
0000
0000
0000
0000
0000
0000
0000
0100
0000
0000
0000
0000
0000
0001
0000
0000
0000
0000
0000
,
1000
0100
0010
0001
1000
0001
0100
0010
0100
0001
1000
0010
1000
0100
0010
0001
1000
0100
1000
0001
0010
0001
0100
0010
,
1000
0010
0100
0001
1000
0001
0100
0010
0100
0001
1000
0010
1000
0100
0010
0001
1000
0100
1000
0001
0010
0001
0100
0010
,
1000
0010
0100
0001
1000
0100
1000
0001
0010
0001
1000
0100
0010
0100
1000
0001
0100
0001
0010
0100
1000
0100
0010
0001
,
1000
0001
0100
0010
1000
0010
0100
0001
1000
0001
0100
0010
1000
0001
0010
0001
0100
0010
1000
0001
1000
0100
0010
0001
,
1000
0100
1000
0001
0100
0001
0010
0100
1000
0100
0010
0001
1000
0010
1000
0001
0100
0010
1000
0010
0100
0001
1000
0010
,
1000
0100
0010
0001
1000
0010
1000
0001
0100
0001
1000
0100
1000
0010
0100
0001
0100
0010
1000
0001
1000
0100
0010
0001
,
1000
0010
0100
0000
0001
0000
0000
0000
0010
0100
1000
0000
0010
0000
0000
0000
0100
0000
0000
0000
0001
0000
0000
0000
0010
0000
0000
0000
0100
0000
0000
0000
,
1000
0001
1000
0001
1000
0000
0000
0000
1001
0000
0000
0000
1002
0000
0000
0000
0000
0000
0000
0000
0000
0000
0000
0000
0000
0000
0000
0000
0013
0000
0100
0000
,
2100
0000
0000
3010
0100
0002
0003
2000
,
0000
3100
0010
0002
0003
0200
0300
0020
,
0000
0000
0000
0000
1030
0001
0100
0010
,
0100
0001
1000
0020
0030
0200
0300
0001
,
1001
0000
2000
3100
0020
0031
2000
3001
0200
0310
2000
3010
0200
0301
2000
3100
,
1000
0001
0020
0031
0100
0010
2000
3010
0100
0001
2000
3100
1000
0001
0040
0031
,
0100
0010
1000
0010
0100
0001
1000
0001
0100
0010
0100
0001
1000
0100
0010
0001
,
2000
0000
3100
0000
2000
0000
3001
0000
0010
0000
0001
0000
0200
0000
0310
0000
1000
0001
0100
0010
1000
0010
0100
0001
1000
0000
0000
0000
0100
0000
0010
0000
,
0001
0100
0001
1000
0010
0100
0010
1000
0001
0100
0001
1000
0010
0100
0010
1000
0001
0100
0010
1000
0010
0100
0001
1000
,
0100
0010
0001
1000
0001
0100
0010
1000
0010
0100
0001
1000
0100
0010
0100
1000
0001
0010
0001
0100
0010
1000
0010
0100
,
0001
1000
0001
0100
0010
0100
0001
1000
0100
1000
0001
0010
0001
0100
0010
1000
0010
0100
0001
1000
0001
0010
0100
1000
,
0001
0010
0001
0100
0010
1000
0010
0100
0001
1000
0001
0100
0010
1000
0010
0100
0001
1000
0100
1000
0001
0010
0100
1000
,
0001
1000
0100
0010
0001
1000
0010
1000
0001
0100
0010
0100
0001
1000
0010
1000
0100
0010
0001
1000
0100
1000
0001
0010
,
0001
0100
0010
1000
0010
0100
0001
1000
0100
1000
0001
0100
0010
0100
0001
1000
0001
0100
0010
1000
0010
0100
0001
1000
,
0001
0010
0100
0000
1000
0000
0000
0000
0010
0100
0001
0000
1000
0000
0000
0000
0100
0000
0000
0000
0010
0000
0000
0000
0001
0000
0000
0000
1000
0000
0000
0000
,
0001
0100
0001
0100
0001
0000
0000
0000
0101
0000
0000
0000
0102
0000
0000
0000
0000
0000
0000
0000
0000
0000
0000
0000
1003
0000
0000
0000
0100
0000
0010
0000
,
0001
0000
0000
0000
0000
0000
0000
0000
0100
0010
0000
0000
0000
0000
0000
0000
1000
0000
0000
0000
0000
0000
0000
0000
0010
0100
0000
0000
0000
0000
0000
0000
0001
0000
0000
0000
0000
0000
0000
0000
1000
0010
0000
0000
0000
0000
0000
0000
0100
0000
0000
0000
0000
0000
0000
0000
0001
1000
0000
0000
0000
0000
0000
0000
,
0100
0000
0000
0000
0000
0000
0000
0000
0010
0001
0000
0000
0000
0000
0000
0000
1000
0000
0000
0000
0000
0000
0000
0000
0010
0100
0000
0000
0000
0000
0000
0000
0001
0000
0000
0000
0000
0000
0000
0000
1000
0100
0000
0000
0000
0000
0000
0000
0010
0000
0000
0000
0000
0000
0000
0000
0001
0100
0000
0000
0001
0100
0000
0000
,
0010
0000
0000
0000
0000
0000
0000
0000
1000
0010
0000
0000
0000
0000
0000
0000
0100
0000
0000
0000
0000
0000
0000
0000
0001
1000
0000
0000
0000
0000
0000
0000
0100
0000
0000
0000
0000
0000
0000
0000
0010
0001
0000
0000
0000
0000
0000
0000
1000
0000
0000
0000
0000
0000
0000
0000
0010
1000
0000
0000
0000
0000
0000
0000
,
0001
0000
0000
0000
0000
0000
0000
0000
0010
0100
0000
0000
0000
0000
0000
0000
1000
0000
0000
0000
0000
0000
0000
0000
0001
0100
0000
0000
0000
0000
0000
0000
0010
0000
0000
0000
0000
0000
0000
0000
1000
0100
0000
0000
0000
0000
0000
0000
0010
0000
0000
0000
0000
0000
0000
0000
0001
1000
0000
0000
0001
1000
0000
0000
,
0010
0000
0000
0000
0000
0000
0000
0000
0100
0001
0000
0000
0000
0000
0000
0000
1000
0000
0000
0000
0100
0000
0000
0000
0010
0000
0000
0000
0001
0000
0000
0000
1000
0000
0000
0000
0001
0000
0000
0000
0100
0000
0000
0000
0010
0000
0000
0000
0100
0000
0000
0000
0001
0000
0000
0000
1000
0000
0000
0000
0100
0000
0000
0000
,
1000
0000
0000
0000
0001
0000
0000
0000
0010
0000
0000
0000
0100
0000
0000
0000
1000
0000
0000
0000
0001
0000
0000
0000
1000
0000
0000
0000
0010
0000
0000
0000
0100
0000
0000
0000
0001
0000
0000
0000
1000
0000
0000
0000
0001
0000
0000
0000
0100
0000
0000
0000
0010
0000
0000
0000
1000
0001
0000
0000
1000
0001
0000
0000
,
0100
0010
1000
0001
1000
0100
0010
0001
1000
0100
0010
0100
1000
0001
0100
0010
,
1000
0001
1000
0001
1000
0000
0000
0000
1001
0000
0000
0000
1001
0000
0000
0000
2000
0000
0000
0000
0000
0000
0000
0000
3010
0000
0000
0000
0100
0000
0001
0000
,
1000
0001
0100
0010
0100
0001
1000
0010
1000
0001
0100
0010
1000
0010
0100
0001
1000
0100
0010
0001
1000
0001
0100
0010
,
0100
0001
1000
0010
1000
0100
0010
0001
1000
0100
1000
0001
0010
0001
0100
0010
1000
0010
0100
0001
1000
0100
0010
0001
,
1000
0001
0010
0100
1000
0001
0010
0001
0100
0010
1000
0010
0100
0001
1000
0001
0100
0010
1000
0010
0100
0001
1000
0100
,
0010
0001
1000
0100
1000
0001
0010
0001
0100
0010
1000
0010
0100
0001
1000
0001
0100
0010
0100
0001
1000
0100
0010
0001
,
1000
0100
1000
0001
0010
0001
1000
0010
0100
0010
1000
0001
0100
0001
1000
0100
0010
0001
1000
0010
1000
0001
0100
0010
,
0100
0001
1000
0010
1000
0100
0010
0001
1000
0100
1000
0010
0100
0001
1000
0001
0100
0010
1000
0010
0100
0001
1000
0100
,
0010
0001
1000
0001
0100
0010
1000
0010
0100
0001
1000
0100
0010
0001
1000
0010
,
0100
0001
0100
0001
0100
0000
0000
0000
0101
0000
0000
0000
0101
0000
0000
0000
0002
0000
0000
0000
0000
0000
0000
0000
1003
0000
0000
0000
0010
0000
0100
0000
,
0010
1000
0001
0100
0001
0010
0100
1000
0100
0010
0001
1000
0100
1000
0001
0100
0010
0100
0001
1000
0010
1000
0001
0100
,
0001
0010
0100
1000
0001
0010
0001
0100
0010
1000
0010
0100
0001
1000
0001
0100
0010
0100
0001
1000
0010
1000
0100
0010
,
0001
1000
0001
0010
0100
1000
0001
0010
0001
0100
0010
1000
0010
0100
0001
1000
0100
1000
0001
0010
0001
0100
0010
0100
,
0001
1000
0010
1000
0001
0100
0001
1000
0100
0010
0001
1000
0001
0100
0010
1000
0010
0100
0001
1000
0100
1000
0001
0010
,
0001
0100
0010
1000
0010
0100
0001
1000
0100
1000
0001
0010
0001
0100
0010
1000
0010
0100
0001
1000
0100
1000
0001
0010
,
0001
0100
0010
1000
0010
0100
0001
1000
0001
0100
0010
0100
0001
1000
0010
1000
0100
0010
0001
1000
0100
1000
0001
0010
,
0200
1300
0001
1000
0010
0100
0010
1000
0002
0103
0001
0010
0100
1000
0001
0100
,
0010
1000
0010
1000
0010
0000
0000
0000
1010
0000
0000
0000
1010
0000
0000
0000
1000
0000
0100
0000
0010
0000
0001
0000
1000
0000
0001
0000
0100
0000
0010
0000
,
1000
0001
1000
0100
0010
0001
1000
0100
1000
0001
0100
0010
1000
0010
0100
0001
1000
0100
1000
0001
0010
0001
0100
0010
,
1000
0010
0100
0001
1000
0001
0100
0010
0100
0001
1000
0010
1000
0001
0100
0001
0010
0100
1000
0100
0010
0001
1000
0100
,
1000
0001
0100
0001
0010
0100
1000
0001
1000
0010
0100
0001
1000
0001
0100
0010
1000
0010
0100
0001
1000
0100
1000
0001
,
0100
0001
1000
0010
0100
0010
1000
0001
0100
0001
0010
0100
1000
0100
0010
0001
1000
0010
1000
0001
0100
0001
0010
0100
,
1000
0001
0010
0001
0100
0010
1000
0010
0100
0001
1000
0010
1000
0001
0100
0001
1000
0100
0010
0001
1000
0100
1000
0001
,
0010
0001
0100
0010
1000
0010
0100
0001
1000
0100
1000
0001
0010
0001
0100
0010
1000
0010
0100
0001
1000
0001
0100
0010
,
1000
0010
0100
0001
1000
0100
1000
0001
0010
0100
0010
0001
1000
0100
1000
0001
0100
0001
1000
0100
0010
0001
1000
0100
,
1000
0000
0000
0000
0001
0000
0000
0000
0010
0000
0000
0000
0001
0000
0000
0000
0100
0000
0000
0000
0010
0000
0000
0000
1000
0000
0000
0000
0010
0000
0000
0000
0100
0000
0000
0000
0001
0000
0000
0000
1000
0000
0000
0000
0001
0000
0000
0000
0100
0000
0000
0010
0000
0000
0100
0000
0000
0001
0000
0000
1000
0000
0000
0010
0000
0000
1000
0000
0000
0001
0000
0000
0100
0000
0000
0000
0000
0000
0000
0000
0000
0000
0000
0000
0010
0000
0000
0000
0000
0000
1000
0000
0000
0000
0000
0000
,
0001
0100
0010
0000
0100
0000
0001
0000
1000
0000
0100
0010
0000
0001
0100
0010
,
0100
0000
0001
0000
1000
0000
0000
0000
0100
0000
0000
0000
0010
0000
0000
0000
0001
1000
0001
0000
0000
0000
0200
0000
0000
0000
0000
0000
0000
0000
0300
0000
,
0010
1000
0001
0000
0010
0000
0100
0000
1000
0000
0001
0100
0000
0010
1000
0010
,
0100
0001
1000
0000
0100
0000
0000
0000
0020
0000
0000
0000
0032
0000
0000
0000
0000
0000
0000
0000
0000
0000
0000
0000
0000
0000
0000
0000
0000
0000
0003
0000
,
1000
0010
0100
0000
0001
0000
1000
0000
0100
0000
0010
0001
0000
1000
0001
1000
,
0010
0100
0010
0000
1000
0000
0000
0000
0001
0000
0000
0000
0020
0000
0000
0000
0000
0000
0030
0000
0100
0000
0000
0000
1000
0000
0000
0000
0001
0000
0000
0000
,
1000
0100
0010
0000
0001
0000
0000
0000
0010
0100
1000
0000
0001
0000
0000
0000
0100
0000
0000
0000
0010
0000
0000
0000
0100
0000
0000
0000
0001
0000
0000
0000
,
1000
0001
1000
0001
1000
0000
0000
0000
1201
0000
0300
0000
2222
0000
0303
0000
0000
0000
0000
0000
0000
0000
0000
0000
0000
0000
0000
0000
0000
0000
3030
0000
,
0000
0000
0000
0000
,
0000
0000
0000
0000
,
0000
0000
0000
0000
,
0000
0000
0000
0000
;
