#TITLE:MEI;
#SUBTITLE:;
#ARTIST:Amuro vs Killer;
#TITLETRANSLIT:;
#SUBTITLETRANSLIT:;
#ARTISTTRANSLIT:;
#CREDIT:;
#BANNER:mei-bn.png;
#BACKGROUND:mei-bg.png;
#LYRICSPATH:;
#CDTITLE:cdtitle.png;
#MUSIC:HUMAN SEQUENCER - mei.mp3;
#OFFSET:-2.115;
#SAMPLESTART:79.945;
#SAMPLELENGTH:21.500;
#SELECTABLE:YES;
#BPMS:0.000=200.004,192.000=100.000,208.000=110.000,212.000=120.000,216.000=130.000,220.000=140.000,224.000=150.000,228.000=160.000,232.000=170.000,236.000=180.000,240.000=190.000,244.000=200.000,360.000=199.600,361.500=180.000,364.000=175.000,368.000=140.000,372.000=110.000,373.000=100.000,373.500=105.000,374.000=66.000;
#STOPS:373.833=0.020
,374.333=0.020
,374.750=0.020
,374.833=0.040
,374.979=0.020
,375.000=1.480
;
#BGCHANGES:;
// cache tags:
#FIRSTBEAT:0.000;
#LASTBEAT:375.125;
#SONGFILENAME:Songs/toune 3/Mei/mei.sm;
#HASMUSIC:1;
#HASBANNER:1;
#MUSICLENGTH:130.045;
// end cache tags

//---------------dance-single - ----------------
#NOTES:
     dance-single:
     :
     Challenge:
     13:
     0.984,1.000,0.669,0.031,0.896,805.000,87.000,4.000,0.000,4.000:  // measure 1
0010
0001
0100
1000
0000
0100
0010
0000
,  // measure 2
0001
0010
0000
0100
0010
0000
0000
0000
,  // measure 3
0010
1000
0100
0010
0001
0100
0010
0001
,  // measure 4
0000
1000
0000
1000
,  // measure 5
0010
0100
0001
1000
0100
0010
0001
0100
,  // measure 6
0010
0100
0001
0010
0100
1000
0001
0000
,  // measure 7
0100
0010
1000
0100
0010
0001
0100
0010
,  // measure 8
1000
0010
0100
0001
0010
0000
0000
0000
,  // measure 9
1000
0001
1000
0001
0100
0000
0010
0000
1000
0100
1000
0000
0100
0000
0000
0000
,  // measure 10
0010
0001
0010
0001
0100
0000
0010
0000
1000
0100
1000
0000
0010
0100
0010
0100
,  // measure 11
0010
0100
0010
0100
0001
0000
0010
0001
0100
0001
0010
0000
1000
0001
1000
0001
,  // measure 12
1000
0100
0010
0100
1000
0000
0001
1000
0001
1000
0010
0000
0100
0001
1000
0001
,  // measure 13
1000
0100
0010
0100
1000
0000
0001
1000
0001
1000
0010
0000
0100
0001
1000
0001
,  // measure 14
1000
0100
0010
0100
1000
0000
0001
1000
0001
1000
0010
0000
0100
0001
0010
0001
,  // measure 15
0100
0001
0100
0001
0100
0000
0010
1000
0010
1000
0010
0000
1000
0100
1000
0100
,  // measure 16
0010
0000
0000
0000
,  // measure 17
0000
0000
0000
0100
1010
0001
1100
0000
,  // measure 18
0011
0100
0010
1000
0100
0001
0110
1001
,  // measure 19
1100
1000
0010
1000
0100
1001
0011
0000
,  // measure 20
0101
1000
0010
1000
0100
0010
0101
1000
,  // measure 21
1001
1100
0010
0101
1001
0000
0010
0000
,  // measure 22
1100
0101
0010
0001
1000
0010
1100
1001
,  // measure 23
0101
0010
0001
0110
1000
0100
1000
0001
,  // measure 24
1000
0110
0101
1000
0100
1001
0100
0001
,  // measure 25
0011
0100
0010
0001
1000
0100
1001
0000
,  // measure 26
0100
0010
1100
0001
0100
0010
1001
0001
,  // measure 27
1001
0101
0011
1001
1010
1001
1100
0000
,  // measure 28
0011
0101
1010
1100
1001
0110
0101
0000
,  // measure 29
0011
1001
1100
1001
0110
0101
1100
0000
,  // measure 30
1001
0110
1001
1100
0011
1010
0101
0000
,  // measure 31
1010
1001
1100
1001
0110
0011
1001
0000
,  // measure 32
2020
0000
0000
0000
3030
0000
0000
0000
0010
0100
0001
0010
0100
1000
0010
1000
,  // measure 33
0100
0010
0001
0100
0010
0000
1000
0100
0010
0001
0100
0000
0010
0100
0001
0010
,  // measure 34
0100
1000
0001
1000
0010
1000
0100
0010
0001
0100
0010
1000
0100
1000
0010
1000
,  // measure 35
0001
0000
0010
0001
0100
0010
1000
0010
1000
0100
1000
0010
0100
0001
0010
0001
,  // measure 36
1000
0010
1000
0100
0010
0100
1000
0001
0010
0100
1000
0001
0100
0010
1000
0001
,  // measure 37
1000
0000
0001
1000
0001
0010
0001
0100
0010
1000
0100
0010
0100
1000
0001
0100
,  // measure 38
0010
1000
0100
1000
0100
1000
0010
0100
0001
0010
0100
1000
0001
0100
0010
1000
,  // measure 39
0100
0000
1000
0010
1000
0100
0010
0001
0100
0010
1000
0100
0010
0100
1000
0001
,  // measure 40
0100
0010
1000
0001
1000
0100
1000
0001
0100
0010
1000
0001
0010
0100
1000
0001
,  // measure 41
0100
0001
1100
0010
,  // measure 42
0101
0000
0010
1100
0000
0010
0101
0010
,  // measure 43
1001
0000
1000
0010
1000
0100
0010
0001
,  // measure 44
0100
0010
1000
0010
1000
0010
1000
0100
,  // measure 45
0010
0000
0000
0001
0100
0000
0000
0100
,  // measure 46
0010
1000
0001
0100
0010
1000
0001
0100
0010
1000
0001
0100
0010
1000
0001
0010
,  // measure 47
0100
1000
0100
0010
0001
1000
0100
0010
0100
1000
0001
0010
0100
1000
0100
0010
,  // measure 48
0001
1000
0010
0100
0001
0010
0100
1000
0001
0100
0010
1000
0001
0100
0010
0100
,  // measure 49
0020
0000
0000
0000
,  // measure 50
0000
0000
0000
0000
,  // measure 51
0000
0000
0000
0000
,  // measure 52
0000
0000
0000
0000
,  // measure 53
1001
0000
0000
0000
,  // measure 54
0101
0000
0000
0000
,  // measure 55
1001
0000
0000
0000
,  // measure 56
0101
0000
0000
0000
,  // measure 57
1000
0000
0001
0000
,  // measure 58
1000
0000
0000
0000
0000
0000
0000
0000
0000
0001
0000
0000
0000
0000
0000
0000
,  // measure 59
1000
0001
0000
1000
0001
1000
0000
1000
,  // measure 60
1000
0001
1000
0001
,  // measure 61
1000
0000
0001
0000
1000
0000
0001
0000
1000
0000
0001
0000
1000
0000
0001
0030
,  // measure 62
1010
0000
0101
0000
1000
0010
1000
0001
1000
0100
0010
0001
1000
0100
0010
0100
,  // measure 63
1000
0000
0001
0000
0010
0100
0010
0100
1000
0000
0000
0000
0001
0100
0001
0100
0010
0000
0000
0000
1000
0100
1000
0100
0010
0000
0000
0000
0000
0000
0001
0000
,  // measure 64
0000
0000
0000
0000
0000
0000
1000
0100
0010
0000
0000
0000
0000
0000
0001
0100
,  // measure 65
0010
1000
0100
0010
0001
0100
0010
0100
0001
0010
0100
1000
0001
1000
0010
1000
,  // measure 66
0100
0000
0000
0000
0000
0000
0010
0001
0100
0000
0010
0000
1000
0000
0100
0000
,  // measure 67
0010
0100
1000
0001
1000
0010
1000
0100
,  // measure 68
1001
0000
0000
0100
0001
0000
1000
0010
,  // measure 69
0000
1000
0100
1000
0100
0010
0001
0100
,  // measure 70
0010
0000
0000
1000
0100
0010
0001
0100
0001
0010
0100
1000
0001
1000
0010
1000
,  // measure 71
0100
0010
0100
1000
0001
1000
0010
1000
0100
1000
0010
1000
0001
0100
0010
1000
,  // measure 72
0001
0000
0000
0000
0000
0000
0001
0010
0001
0100
0010
1000
0100
0010
0001
0000
,  // measure 73
0000
0000
0000
0000
0000
0000
1000
0100
1000
0010
0100
0001
0010
0100
1000
0000
,  // measure 74
0000
0000
0000
0000
0000
0000
0001
0100
0001
0010
0001
0100
0010
1000
0100
0000
,  // measure 75
0000
0000
0000
0000
0000
0000
0001
1000
0001
0100
0010
1000
0100
0010
0100
1000
,  // measure 76
0001
0010
1000
0100
0001
0100
1000
0010
,  // measure 77
1000
0100
0010
0001
0100
0100
0010
0000
,  // measure 78
1000
0000
0100
0000
1000
0000
0010
0100
0001
0010
0100
1000
0010
1000
0100
1000
,  // measure 79
0001
0000
0110
0000
,  // measure 80
0010
1000
0100
0010
0100
0000
1000
0001
0100
0010
1000
0000
1000
0100
1000
0010
,  // measure 81
0100
0001
0010
0001
0100
0010
1000
0100
,  // measure 82
1001
0000
1000
0010
1000
0100
0010
0100
1000
0000
0001
0100
0010
0000
1000
0100
,  // measure 83
0010
0100
1000
0000
0001
0000
0100
0000
0110
0000
0000
0000
0101
0000
1001
0000
,  // measure 84
1100
0000
0010
0001
0100
0010
0100
0001
,  // measure 85
0000
0000
0000
0000
0000
0000
0000
0000
1010
0000
0000
1100
0000
0000
1010
0000
,  // measure 86
1001
0010
0001
0100
1000
0100
1000
0010
,  // measure 87
0100
0000
0001
0000
0010
0000
0100
1000
0001
0100
0010
1000
0100
0010
0001
0100
,  // measure 88
0010
0000
0100
0001
0010
0100
1000
0001
1000
0100
1000
0010
1000
0100
0010
0001
,  // measure 89
0100
0010
1000
0100
0010
0100
1000
0001
1000
0000
0001
1000
0000
0001
1000
0000
,  // measure 90
0001
1000
0000
0010
0100
0001
0010
0100
1000
0100
1000
0010
1000
0100
0010
0001
,  // measure 91
0010
0000
0100
0000
0001
0110
1000
0001
,  // measure 92
0100
1000
0100
0010
0001
1000
0100
0010
,  // measure 93
0001
0000
0000
0000
0000
0000
0000
0000
0000
0000
0000
0000
0000
0000
0000
0000
0000
0000
0000
0000
0000
0000
0000
0000
0000
0000
0000
0000
0000
0000
0000
1001
0000
0000
0000
0000
0000
0000
0000
0000
0000
0000
0000
0000
0000
0000
0000
0000
0001
0000
0000
0000
0000
0000
0000
0000
1000
0000
0000
0000
0000
0000
0000
0000
,  // measure 94
0100
0000
0000
0000
0000
0000
0000
0000
0010
0000
0000
0000
0000
0000
0000
0000
0001
0000
0000
0000
0000
0000
0000
0000
0010
0000
0000
0000
0000
0000
0000
0000
0100
0000
0000
0000
0000
0000
0000
1000
0000
0000
0000
0000
0000
0000
0000
0002
0000
0000
0003
0000
0000
0000
0000
0000
0000
0000
0000
0000
0000
0000
0000
0000
;
