#TITLE:[3-4] Yangire;
#SUBTITLE:;
#ARTIST:YZYX;
#TITLETRANSLIT:;
#SUBTITLETRANSLIT:;
#ARTISTTRANSLIT:;
#CREDIT:;
#BANNER:../Beast 4 - bn.png;
#BACKGROUND:../Beast 4 - bg.png;
#LYRICSPATH:;
#CDTITLE:;
#MUSIC:Yangire.ogg;
#OFFSET:0.760;
#SAMPLESTART:31.008;
#SAMPLELENGTH:12.000;
#SELECTABLE:YES;
#DISPLAYBPM:240.000;
#BPMS:0.000=240.000;
#STOPS:;
#BGCHANGES:;
// cache tags:
#FIRSTBEAT:64.000;
#LASTBEAT:575.250;
#SONGFILENAME:Songs/Beast Aoreo BEAST! 4/Yangire - [Aoreo]/Yangire.sm;
#HASMUSIC:1;
#HASBANNER:1;
#MUSICLENGTH:144.255;
// end cache tags

//---------------dance-single - J. Nero----------------
#NOTES:
     dance-single:
     J. Nero:
     Challenge:
     16:
     1.000,1.000,0.055,0.374,1.000,1222.000,8.000,54.000,6.000,0.000:
0000
0000
0000
0000
,
0000
0000
0000
0000
,
0000
0000
0000
0000
,
0000
0000
0000
0000
,
0000
0000
0000
0000
,
0000
0000
0000
0000
,
0000
0000
0000
0000
,
0000
0000
0000
0000
,
0000
0000
0000
0000
,
0000
0000
0000
0000
,
0000
0000
0000
0000
,
0000
0000
0000
0000
,
0000
0000
0000
0000
,
0000
0000
0000
0000
,
0000
0000
0000
0000
,
0000
0000
0000
0000
,
1000
0100
1000
0010
0100
0001
0010
0100
,
1000
0001
0100
0010
0100
0001
1000
0100
,
1100
1000
0001
0010
0000
0000
0110
0100
,
1000
0001
0000
0000
1001
1000
0010
0100
,
0001
0000
0010
0000
0100
0000
1000
0000
0001
0100
0001
1000
0010
0100
0001
1000
,
0100
0000
0010
0000
0001
0000
1000
0000
0001
1000
0100
0010
0001
1000
0001
0100
,
0010
0100
0010
1000
0100
0000
0010
0001
,
1000
0001
0000
1000
0100
0000
1000
0000
,
0001
0000
0010
0000
0100
0000
1000
0000
0010
0100
0010
0000
1000
0000
0100
0010
,
0100
0000
1000
0000
0001
0000
0100
0000
0010
0000
1000
0000
0100
0000
0010
0001
,
1000
0000
0001
0000
0100
0000
0001
0000
1000
0100
1000
0001
0010
0100
1000
0001
,
1000
0000
0010
0000
0400
0300
0000
0000
0001
0000
0100
0000
0001
0000
0010
0000
,
0200
0300
1000
0000
0010
0000
0100
0000
0010
0000
1000
0000
0200
0300
0010
0000
,
0001
0000
0100
0000
0020
0030
1000
0000
0100
0000
2000
3000
0001
0000
0200
0300
,
0002
0003
2000
3000
0200
0300
0000
0000
2000
3000
0002
0003
0200
0300
0000
0000
,
0020
0030
0200
0300
0000
0000
0001
0000
1000
0000
0100
0000
1000
0000
0000
0000
,
0001
0100
0001
1000
0200
0000
0300
0000
1000
0001
1000
0010
0200
0000
0300
0000
,
0001
0100
0001
1000
0001
0100
0010
1000
0001
0010
0100
1000
0001
0100
0010
0100
,
0001
1000
0100
0010
0002
0000
0003
0000
1000
0010
0100
0001
0200
0000
0300
0000
,
0001
1000
0100
0010
0001
1000
0001
0100
0010
0100
0001
1000
0001
0010
0100
1000
,
0001
0100
0001
1000
0020
0000
0030
0000
0100
0001
1000
0001
0020
0000
0030
0000
,
0100
1000
0001
1000
0010
0100
0001
1000
0100
1000
0001
1000
0100
0010
0001
1000
,
0001
0100
0010
1000
0002
0000
0003
0000
1000
0100
1000
0001
0200
0000
0300
0000
,
0001
0100
0001
1000
0100
0010
0001
1000
0010
0100
0010
1000
0001
0010
0100
1000
,
0001
0000
0100
0000
0010
0000
0100
0001
0100
0000
0001
0000
1000
0000
0100
0000
,
0010
0000
0001
1000
0001
0000
0100
0000
0010
0000
0010
0000
1000
0000
1000
0000
,
0001
0000
0000
0101
0000
0000
0100
0001
,
1001
0000
0000
1000
0100
0000
1000
0000
,
0001
0100
0001
0010
0100
1000
0001
0100
,
0010
0100
0001
1000
0100
0010
0001
1000
,
0100
1000
0001
0100
0010
0100
0001
1000
,
0001
0000
0010
0000
0100
0000
1000
0000
0040
0000
0030
0000
1000
0100
0010
0001
,
1000
0001
0100
0001
1000
0010
0100
0010
1000
0001
1000
0100
0010
0001
1000
0100
,
1000
0001
0100
0001
1000
0010
0100
0010
1000
0001
0100
0001
1000
0100
1000
0001
,
1000
0010
0100
0001
0100
0010
1000
0001
0100
0001
1000
0100
1000
0001
0010
0100
,
1000
0001
0100
0001
1000
0010
0100
0010
1000
0001
1000
0100
1000
0001
0100
0010
,
0100
0001
1000
0001
0010
0100
1000
0001
0100
0001
0100
0010
1000
0001
0100
0001
,
1000
0010
1000
0001
0100
0001
1000
0100
0010
0001
1000
0100
1000
0001
0100
0010
,
1000
0001
1000
0100
1000
0001
0010
0100
1000
0001
0100
0001
1000
0010
0100
0010
,
1000
0001
0100
0001
1000
0100
1000
0001
0010
0100
1000
0001
0100
0010
0100
0001
,
1000
0100
1000
0000
0001
0000
1000
0100
1000
0000
0001
0000
0010
0000
0100
0000
,
1000
0001
0000
0000
2000
3002
0023
0230
,
1300
0001
1000
0000
0010
0000
1000
0001
1000
0000
0010
0000
0100
0000
0001
0000
,
0010
0000
0100
0000
0000
0000
1000
0000
0010
0000
0100
0000
0000
0000
0001
1000
,
0100
0010
0100
0000
1000
0000
0010
0100
0010
0000
0100
0000
0001
0000
1000
0000
,
0100
1000
0001
0001
0020
0230
2300
3002
,
1003
0100
1000
0000
0001
0000
1000
0100
1000
0000
0010
0000
0100
0000
0001
0000
,
0010
0000
0100
0000
0000
0000
1000
0000
0002
0000
0203
0000
0000
0000
0000
0300
,
0001
0100
0001
0000
0010
0000
0100
0000
1000
0100
1000
0000
0001
0000
0100
0000
,
0010
0000
0100
0001
1000
0000
0010
0000
1000
0100
1000
0000
0001
0000
0010
0000
,
0100
0000
1000
0000
0001
0000
1000
0100
1000
0000
0001
1000
0001
0100
0010
0000
,
1000
0100
1000
0001
0010
0100
1000
0001
1000
0010
0100
0010
1000
0001
0100
0001
,
1000
0100
1000
0100
0010
0000
0001
1000
0001
0100
0001
0000
1000
0100
1000
0000
,
0002
0003
0000
0000
0010
0000
0200
0300
0000
0000
1000
0000
0100
0000
0010
0000
,
0001
1000
0001
0000
0000
0000
1000
0100
1000
0100
0010
0000
0001
0000
1000
0000
,
0010
0100
0001
1000
1100
0000
1001
0000
,
0001
0100
0010
1000
0100
0010
0002
0000
,
1003
0100
1000
0010
0200
0300
0001
1000
,
0200
0000
0000
0320
0000
0000
0032
0000
,
0000
2003
0000
0000
3002
0000
0203
0000
,
0301
1000
0100
1000
0001
0100
0010
1000
,
0100
0010
0001
1000
0100
1000
0010
0100
,
0002
0000
0000
0023
0000
0000
0230
0000
,
0300
0000
0000
0000
0000
0000
2000
3000
,
1001
0001
0000
0100
0001
0000
0010
0100
,
1000
0000
0001
0000
0100
0000
0000
0000
0010
0000
1000
0000
0001
0100
0001
1000
,
0100
1000
0000
0010
0100
0000
0001
1000
,
0100
0000
1000
0000
0001
0000
0000
0000
0100
0000
0001
0000
1000
0100
0010
0001
,
1000
0010
0000
0100
0010
0000
0100
0001
,
1000
0100
1000
0000
0001
0001
1000
1000
,
0010
0100
0000
0001
0010
0000
0100
1000
,
0001
0000
0100
0000
0000
0000
0010
0000
0100
0000
0001
0000
1000
0000
0100
1000
,
0100
0000
0010
0000
0001
0000
1000
0000
0010
0000
0100
0000
0001
0100
0001
1000
,
0100
0010
0001
1000
0001
0000
0100
0000
0010
0000
1000
0000
0001
0010
0100
1000
,
0002
0000
0000
0000
0000
0000
0003
0000
0000
2000
0000
0000
0000
0000
0000
0000
0000
0000
3001
0000
1000
0000
0100
0000
,
0010
0000
0001
0000
1000
0100
1000
0001
0010
0100
1000
0001
1000
0100
1000
0001
,
0100
0001
0010
0100
1000
0010
0100
0001
,
1000
0100
0010
0001
1000
0001
0100
0010
4000
0000
0000
0000
0000
0000
0000
3000
,
0001
0010
0100
1000
0010
0100
0001
1000
,
0001
0100
0001
1000
0100
0010
0001
1000
0004
0000
0000
0000
0000
0000
0000
0003
,
1000
0100
1000
0001
0100
0001
1000
0010
0100
0010
1000
0001
0100
0001
1000
0100
,
0010
0001
1000
0100
1000
0001
0010
0100
0010
0001
1000
0010
0100
0010
1000
0001
,
1000
0010
0100
0010
1000
0001
0010
0100
1000
0001
0100
0001
1000
0100
0010
0001
,
1000
0001
0100
0001
1000
0010
0100
0010
1000
0001
0100
0001
1000
0100
1000
0001
,
0010
0100
1000
0001
0100
0001
1000
0010
0100
0010
1000
0001
1000
0100
0010
0001
,
1000
0100
1000
0001
1000
0010
0100
0010
1000
0001
0100
0001
1000
0001
0010
0100
,
1000
0001
0100
0001
1000
0010
0100
0010
1000
0001
1000
0100
0010
0001
1000
0100
,
1000
0001
1000
0010
0100
0010
1000
0001
0100
0001
1000
0100
0010
0001
1000
0100
,
1000
0000
0001
0000
0100
0000
0001
1000
0001
0100
0001
0000
1000
0000
0100
0000
,
1000
0000
0001
0000
0100
0010
0100
0000
0001
0010
0100
0000
1000
0000
0010
0000
,
0100
0000
0001
1000
0100
0000
1000
0000
0001
1000
0100
1000
0001
1000
0010
0100
,
0001
0000
0100
0010
0100
0000
0001
1000
0001
0010
0100
1000
0040
0000
0000
0030
,
1000
0001
0010
0100
1000
0010
0100
0001
,
1000
0100
0010
0100
1000
0010
0100
0010
,
1000
0001
0010
0100
1000
0001
0100
0010
,
0100
0001
1000
0100
1000
0001
0100
0001
,
0010
0100
1000
0010
0100
0001
1000
0100
,
1000
0010
0100
0001
1000
0001
0010
0100
,
1000
0000
0000
0010
0000
0000
0100
0000
0000
0001
0000
0000
1000
0000
0100
0000
0010
0000
0001
0000
0100
0000
0010
0000
,
1000
0000
0000
0100
0000
0000
1000
0000
0000
0001
0000
0000
0010
0000
0100
0000
1000
0000
0010
0000
0100
0000
0001
0000
,
1000
0100
1000
0010
0100
0001
1000
0001
,
0010
0100
1000
0010
0100
0001
1000
0100
,
0010
0000
0000
0000
0000
0000
0001
0000
0000
0000
0000
0000
1000
0000
0000
0000
0100
0000
0000
0000
0010
0000
0000
0000
0001
0000
0000
0000
1000
0000
0000
0000
0001
0000
0000
0000
1000
0000
0000
0000
0000
0000
0001
0000
0000
0100
0000
0000
,
0001
1000
0100
1000
0001
0010
0100
1000
0001
0100
0001
1000
0100
0010
0001
1000
,
0001
1000
0100
1000
0010
0100
0001
1000
,
0001
0010
0100
1000
0001
0100
0010
0100
,
0001
1000
0100
1000
0001
0100
0010
0100
,
0001
0000
0000
0010
0000
0000
0100
0000
0000
1000
0000
0000
0001
0000
0100
0000
0010
0000
1000
0000
0100
0000
0010
0000
,
0001
1000
0100
1000
0010
0100
0001
1000
,
0001
0000
0010
0000
0001
0000
0100
0000
0010
0000
1000
0000
0001
1000
0001
0000
,
1000
0000
0001
0000
0100
0001
0100
0000
0010
0000
1000
0001
1000
0000
0100
0000
,
0010
0001
1000
0000
0001
0000
0100
0000
0010
1000
0100
0010
0004
0000
0000
0003
,
1000
0000
0100
0000
1000
0000
0010
0000
0100
0000
0001
0000
1000
0100
1000
0100
,
0010
0000
0001
0000
0100
0000
0001
0000
1000
0100
1000
0000
0001
0100
0001
1000
,
0100
0000
0000
0000
0040
0030
0000
0000
0001
0000
0000
0000
1000
0000
0000
0000
0010
0000
0000
0000
0100
0000
0001
0000
1000
0000
0100
0000
1000
0000
0000
0000
,
0001
0000
0010
0000
0100
0000
1000
0000
0001
0100
0001
0000
1000
0001
1000
0000
,
0100
0010
0001
1000
0010
0100
0010
1000
,
0001
0000
0010
0000
0100
0000
1000
0000
0001
0000
0100
0000
0001
1000
0001
0100
,
0001
0010
0001
1000
0100
0010
0001
1000
,
0001
1000
0001
0000
1000
0100
0010
0000
0001
1000
0001
0100
0010
0100
0001
1000
,
0100
0010
0001
2000
3000
0001
0100
0001
,
0010
0000
0000
0000
0100
0000
0000
0000
1000
0000
0000
0000
0001
0000
0000
0000
0200
0000
0000
0000
0300
0000
0000
0000
0020
0030
0000
0000
0000
0000
0000
0000
,
1000
0100
1000
0002
0003
0100
0001
0010
,
0100
0000
1000
0000
0001
0000
0100
0000
0020
0000
0000
0000
1030
0001
1000
0100
,
1000
0010
0100
0001
1000
0100
0010
0100
,
1000
0001
0100
0010
2000
3000
0001
0100
,
0001
0010
0100
1000
0001
0100
0010
0100
,
0002
0000
0000
0000
0003
M000
0000
00M0
M000
00M0
0000
M000
0000
00M0
0000
0000
;
