#TITLE:do i smile?;
#SUBTITLE:;
#ARTIST:t+pazolite;
#TITLETRANSLIT:;
#SUBTITLETRANSLIT:;
#ARTISTTRANSLIT:;
#CREDIT:Aoreo;
#BANNER:do i smile bn.png;
#BACKGROUND:do i smile bg.png;
#LYRICSPATH:;
#CDTITLE:;
#MUSIC:Do I Smile.ogg;
#OFFSET:-0.224;
#SAMPLESTART:99.516;
#SAMPLELENGTH:12.000;
#SELECTABLE:YES;
#BPMS:0.000=260.000;
#STOPS:;
#BGCHANGES:;
// cache tags:
#FIRSTBEAT:0.000;
#LASTBEAT:578.000;
#SONGFILENAME:Songs/SPEEEDCOOOORE 2/do i smile - [Aoreo]/Do I Smile.sm;
#HASMUSIC:1;
#HASBANNER:1;
#MUSICLENGTH:139.384;
// end cache tags

//---------------dance-single - Aoreo----------------
#NOTES:
     dance-single:
     Aoreo:
     Challenge:
     14:
     1.000,1.000,0.753,0.739,0.570,928.000,105.000,103.000,54.000,10.000:
MMMM
0000
0000
0000
,
0000
0000
0000
0000
,
MMMM
0000
0000
0000
,
0000
0000
0000
0000
,
MMMM
0000
0000
0000
,
0000
0000
0000
0000
,
MMMM
0000
0000
0000
,
0000
0000
0000
0000
,
1111
0000
0000
0000
,
0000
0000
0000
0000
,
1111
0000
0000
0000
,
0000
0000
0000
0000
,
1111
0000
0000
0000
,
1111
0000
0000
0000
,
1111
0000
1111
0000
,
0200
0000
0000
0000
0000
0000
0000
0000
0000
0000
0000
0000
0000
0000
0000
0000
0010
0000
0000
0300
0200
0000
0000
0000
0010
0000
0000
0300
0200
0000
0000
0300
,
0110
0101
1001
1100
,
0110
0000
0011
0000
1001
0000
1010
1000
,
0001
0000
0010
0000
0011
0000
0000
0000
0110
0000
0000
0100
0000
0000
1000
0000
,
0001
0000
1000
0010
1000
0000
0001
0010
0001
0000
1000
0000
0010
0000
0010
0000
,
1010
1001
0011
0110
,
1100
0000
1001
0000
0101
0000
0110
0010
,
1000
0000
0001
0000
1001
0000
0000
0000
1000
0000
0000
0100
0000
0000
0010
0000
,
0001
0000
1000
0100
1000
0000
0001
0100
0001
0000
1000
0000
0001
0000
0100
0000
,
0010
1000
0001
0000
0100
0010
1000
0000
0001
0100
0010
0000
1000
0001
0010
0000
,
0001
1000
0010
0000
0100
0010
1000
0000
0001
0010
0001
0000
1000
0010
0100
0000
,
0001
0000
1000
0000
1100
0000
0000
0000
0100
0000
0000
0010
0000
0000
0001
0000
,
1000
0000
0001
0010
0001
0000
1000
0010
1000
0000
0001
0000
0010
0000
0001
0000
,
1000
0010
1000
0000
0001
0010
0100
0000
0010
0001
1000
0000
0010
1000
0100
0000
,
1000
0001
0010
0000
0001
1000
0010
0000
0100
0010
1000
0000
0001
0010
0001
0000
,
1000
0000
0010
0000
1010
0000
0000
0000
1000
0000
0000
0001
0000
0000
0100
0000
,
0002
0000
0000
0000
0000
0000
0000
0000
0000
0000
0000
0000
0000
0000
0000
0000
2M00
0000
0000
0003
00M2
0000
0000
3000
2M00
0000
0000
0003
00M2
0000
0000
3003
,
1001
1000
0000
0010
0000
0100
0001
1000
,
1200
0000
0000
0000
0310
0000
0001
0000
2000
0000
0000
0000
3001
0010
0001
0010
,
0001
0000
1000
0000
1000
0000
0000
0000
0010
0000
0000
0100
0000
0000
0001
0000
,
1000
0000
0001
0100
0010
0000
1000
0100
0010
0000
0001
0000
1000
0000
1000
0000
,
1010
0010
0000
0100
0000
0001
0010
0100
,
1200
0000
0000
0000
1300
0000
0001
0000
0020
0000
0000
0000
0031
1000
0001
1000
,
0001
0000
0100
0000
0100
0000
0000
0000
0010
0000
0000
1000
0000
0000
0001
0000
,
1000
000M
00M0
0M00
M000
0M00
00M0
000M
,
1010
1000
0010
1000
0010
1000
0010
1000
,
0010
M000
0010
0000
0001
0000
0010
0000
0001
0000
0010
0000
0100
0000
1000
0000
,
0001
0010
0001
0010
0001
0010
0001
0010
,
0100
00M0
0100
0000
0001
0000
0100
0000
0001
0000
0100
0000
0001
0000
1000
0000
,
0010
1000
0010
1000
0010
1000
0010
1000
,
0010
M000
0010
0000
0001
0000
0010
0000
0001
0000
0010
0000
0100
0000
1000
0000
,
0001
0010
0001
0010
0001
0010
0001
0010
,
0100
00M0
0100
0000
0001
0000
0010
0000
0M0M
0000
0010
0000
1000
0000
0100
0000
,
0010
0001
0100
0001
0100
0001
0100
0001
,
0100
000M
0100
0000
1000
0000
0100
0000
1000
0000
0100
0000
0010
0000
0001
0000
,
1000
0100
1000
0100
1000
0100
1000
0100
,
0010
0M00
0010
0000
1000
0000
0010
0000
1000
0000
0010
0000
1000
0000
0001
0000
,
0100
0001
0100
0001
0100
0001
0100
0001
,
0100
000M
0100
0000
1000
0000
0100
0000
1000
0000
0100
0000
0010
0000
0001
0000
,
1000
0100
1000
0100
1000
0100
1000
0100
,
0010
0000
0001
0000
1000
0000
1000
0000
0001
0000
1000
0001
0010
0000
0001
0000
,
1001
1000
0010
0100
0101
0001
1000
0100
,
0110
0010
0001
0100
M0M0
0100
1000
0001
,
1001
1000
0010
0100
0110
0010
1000
0001
,
0011
0010
0100
0010
0M0M
0010
1000
0100
,
0110
0010
0001
1000
1001
0001
0100
0010
,
1010
1000
0001
0100
M0M0
0100
1000
0001
,
1001
1000
0100
0010
0110
0100
1000
0001
,
0101
0100
0001
0010
0M0M
0010
1000
0100
,
1100
1000
0001
0010
0011
0001
0100
0010
,
0110
0100
0010
0100
M0M0
0100
1000
0001
,
0011
0010
0100
1000
1001
0001
1000
0100
,
1100
1000
0001
0010
0M0M
0010
1000
0001
,
0101
0100
0010
1000
1001
0001
0010
0100
,
0110
0010
0001
0100
M0M0
0100
1000
0010
,
1010
1000
0100
0010
0110
0100
1000
0001
,
1000
0000
0010
1000
0010
0000
1000
0000
0001
0010
0001
0000
0010
0000
0100
0000
,
2200
3300
0000
0000
,
2002
3003
0000
0000
,
2022
3033
0000
0000
2202
3303
0000
0000
,
2222
0000
3333
0000
0000
MMMM
0000
0000
,
2002
3003
0000
0000
,
2020
3030
0000
0000
,
2020
3030
0000
2002
3003
0000
0202
0303
,
0220
0330
0000
0000
0010
1000
0100
0010
,
0001
0010
0001
0000
1000
0010
0100
0000
0010
1000
0001
0000
1000
0001
0010
0000
,
0001
0100
0010
0000
1000
0100
1000
0000
0001
0100
0001
0000
1000
0000
0010
0000
,
0100
0000
0010
0000
1010
0000
0000
0000
1000
0000
0000
0010
0000
0000
0100
0000
,
0001
0000
0010
0001
0010
0000
0001
1000
0001
0000
1000
0000
0010
0000
0100
0000
,
0001
1000
0001
0000
1000
0010
0100
0000
0010
1000
0010
0000
0100
0001
1000
0000
,
0001
0010
0100
0000
0010
0001
1000
0000
0010
1000
0010
0000
1000
0000
0001
0000
,
0010
0000
0001
0000
1001
0000
0000
0000
1000
0000
0000
0010
0000
0000
0100
0000
,
0010
0000
1000
0001
1000
0000
0001
0010
0001
0000
1000
0000
0010
0000
0100
0000
,
0001
0010
0001
0000
1000
0010
0100
0000
0010
1000
0001
0000
1000
0100
1000
0000
,
0100
0010
0001
0000
1000
0010
0100
0000
0001
0100
0010
0000
1000
0000
0001
0000
,
0010
0000
0001
0000
1001
0000
0000
0000
1000
0000
0000
0010
0000
0000
0100
0000
,
0010
0000
1000
0010
1000
0000
0001
1000
0001
0000
0100
0000
0010
0000
1000
0000
,
0001
0010
0001
0000
1000
0010
0100
0000
0010
1000
0001
0000
0010
0001
1000
0000
,
0010
0100
0010
0000
1000
0001
0010
0000
0001
1000
0001
0000
1000
0000
0010
0000
,
0100
0000
0001
0000
1001
0000
0000
0000
1000
0000
0000
0100
0000
0000
0010
0000
,
0002
0000
0000
0000
0000
0000
0000
0000
0000
0000
0000
0000
0000
0000
0000
0000
0000
0000
0000
0000
0000
0000
0000
0000
2000
0000
0000
0000
0000
0003
0002
0000
0000
0000
0000
3000
2000
0000
0000
0000
0000
0003
0002
0000
0000
0000
0000
3000
,
1003
0010
1000
0000
0010
0100
0001
0000
1000
0010
0100
0000
0001
0010
0001
0000
,
1000
0010
0100
0000
0010
1000
0001
0000
0010
0001
1000
0000
0010
0000
1000
0000
,
0100
0000
0010
0000
0011
0000
0000
0000
0001
0000
0000
0100
0000
0000
0010
0000
,
1000
0000
0001
1000
0001
0000
0100
0010
0100
0000
0010
0000
1000
0000
0001
0000
,
0010
0001
1000
0000
0010
1000
0010
0000
0100
0001
1000
0000
0001
0010
0001
0000
,
1000
0010
0100
0000
0010
1000
0001
0000
0100
0010
0100
0000
0001
0000
0010
0000
,
0001
0000
1000
0000
1010
0000
0000
0000
0010
0000
0000
1000
0000
0000
0001
0000
,
0100
0000
0010
1000
0010
0000
0100
0001
0100
0000
0010
0000
1000
0000
0001
0000
,
0010
0001
0010
0000
0001
1000
0010
0000
0100
0010
0100
0000
0001
1000
0001
0000
,
1000
0010
0100
0000
0001
0010
0001
0000
1000
0010
0100
0000
0010
0000
1000
0000
,
0001
0000
0010
0000
0011
0000
0000
0000
0001
0000
0000
1000
0000
0000
0010
0000
,
0100
0000
0001
1000
0001
0000
1000
0010
1000
0000
0010
0000
0100
0000
0001
0000
,
0010
0001
1000
0000
0010
1000
0010
0000
0100
0001
0010
0000
0001
1000
0001
0000
,
1000
0010
0100
0000
0010
1000
0010
0000
1000
0001
0100
0000
0010
0000
1000
0000
,
0001
0000
0010
0000
0011
0000
0000
0000
0001
0000
0000
1000
0000
0000
0010
0000
,
4000
0000
0000
0000
0000
0000
0000
0000
0000
0000
0000
3000
,
2002
3003
0000
0000
0000
0000
0000
0000
0000
0000
0000
0000
0000
0000
0000
0000
0022
0033
0000
0000
0000
0000
0000
0000
0000
0000
0000
0000
0000
0000
0000
0000
,
0220
0330
0000
0000
0000
0000
0000
0000
0000
0000
0000
0000
0000
0000
0000
0000
2200
3300
0000
0000
0000
0000
0000
0000
0000
0000
0000
0000
0000
0000
0000
0000
,
2002
3003
0000
0000
0000
0000
0000
0000
0000
0000
0000
0000
0000
0000
0000
0000
0202
0303
0000
0000
0000
0000
0000
0000
0000
0000
0000
0000
0000
0000
0000
0000
,
0220
0330
0000
0000
0000
0000
0000
0000
0000
0000
0000
0000
0000
0000
0000
0000
2020
3030
0000
0000
0000
0000
0000
0000
2002
3003
0000
0000
0000
0000
0000
0000
,
0022
0033
0000
0000
0000
0000
0000
0000
0000
0000
0000
0000
0000
0000
0000
0000
0000
0000
0000
0000
0000
0000
0000
0000
0000
0000
0000
0000
0000
0000
0000
0000
,
0000
0000
0000
0000
,
2002
3003
0000
0000
0000
0000
0000
0000
0000
0000
0000
0000
0000
0000
0000
0000
0000
0000
0000
0000
0000
0000
0000
0000
0000
0000
0000
0000
0000
0000
0000
0000
,
2020
3030
0000
0000
0000
0000
0000
0000
0220
0330
0000
0000
0000
0000
0000
0000
0000
0000
0000
0000
0202
0303
0000
0000
0000
0000
0000
0000
0000
0000
0000
0000
,
2020
3030
0000
0000
0000
0000
0000
0000
0000
0000
0000
0000
0000
0000
0000
0000
2002
3003
0000
0000
0000
0000
0000
0000
0000
0000
0000
0000
0000
0000
0000
0000
,
0022
0033
0000
0000
0000
0000
0000
0000
0000
0000
0000
0000
0000
0000
0000
0000
0220
0330
0000
0000
0000
0000
0000
0000
0000
0000
0000
0000
0000
0000
0000
0000
,
2200
3300
0000
0000
0000
0000
0000
0000
0000
0000
0000
0000
0000
0000
0000
0000
2002
3003
0000
0000
0000
0000
0000
0000
0000
0000
0000
0000
0000
0000
0000
0000
,
0202
0303
0000
0000
0000
0000
0000
0000
0000
0000
0000
0000
0000
0000
0000
0000
0220
0330
0000
0000
0000
0000
0000
0000
2020
3030
0000
0000
0000
0000
0000
0000
,
2002
3003
0000
0000
0000
0000
0000
0000
0000
0000
0000
0000
0000
0000
0000
0000
0000
0000
0000
0000
0000
0000
0000
0000
0000
0000
0000
0000
0000
0000
0000
0000
,
0000
0000
0000
0000
,
2002
3003
0000
0000
0000
0000
0000
0000
0000
0000
0000
0000
0000
0000
0000
0000
0000
0000
0000
0000
0000
0000
0000
0000
0000
0000
0000
0000
0000
0000
0000
0000
,
2002
0000
0000
0000
0000
0000
3000
0000
0000
0000
0000
0000
0000
0000
0000
0000
0000
0000
0000
0000
0000
0000
0000
0000
0000
0000
0000
0000
0000
0000
0000
0000
0000
0000
0000
0000
0000
0000
0000
0000
0000
0000
0000
0000
0000
0000
0000
0000
0000
0000
0000
0000
0000
0000
0000
0000
0000
0000
0000
0000
0000
0000
0000
0000
0000
0000
0000
0000
0000
0000
0000
0000
0000
0000
0000
0000
0000
0000
0000
0000
0000
0000
0000
0000
0000
0000
0000
0000
0000
0000
0000
0000
0000
0000
0000
0000
2000
0000
0000
0000
0000
0000
0000
0000
0000
0000
0000
0000
0000
0000
0000
0000
0000
0000
0000
0000
0003
0000
0000
0000
0002
0000
0000
0000
0000
0000
0000
0000
0000
0000
0000
0000
0000
0000
0000
0000
0000
0000
0000
0000
3000
0000
0000
0000
2000
0000
0000
0000
0000
0000
0000
0000
0000
0000
0000
0000
0000
0000
0000
0000
0000
0000
0000
0000
0003
0000
0000
0000
0002
0000
0000
0000
0000
0000
0000
0000
0000
0000
0000
0000
0000
0000
0000
0000
0000
0000
0000
0000
3000
0000
0000
0000
,
1003
0010
1000
0000
0010
0100
0001
0000
0100
0001
1000
0000
0001
0010
0100
0000
,
0010
0001
1000
0000
0010
1000
0010
0000
1000
0001
1000
0000
0001
0000
0100
0000
,
0010
0000
1000
0000
1010
0000
0000
0000
0010
0000
0000
0100
0000
0000
0001
0000
,
1000
0000
0100
1000
0100
0000
0010
0001
0010
0000
0001
0000
1000
0000
0010
0000
,
1000
0001
0100
0000
0010
0100
0001
0000
1000
0010
0100
0000
0001
0010
0001
0000
,
1000
0010
0100
0000
0010
1000
0001
0000
0010
0001
1000
0000
0010
0000
1000
0000
,
0100
0000
0010
0000
0011
0000
0000
0000
0001
0000
0000
0100
0000
0000
0010
0000
,
1000
0000
0001
1000
0001
0000
0100
0010
0100
0000
0010
0000
1000
0000
0001
0000
,
0010
0001
1000
0000
0010
1000
0010
0000
0100
0001
1000
0000
0001
0010
0001
0000
,
1000
0010
0100
0000
0010
1000
0001
0000
0100
0010
0100
0000
0001
0000
0010
0000
,
0001
0000
1000
0000
1010
0000
0000
0000
0010
0000
0000
0100
0000
0000
0001
0000
,
0010
0000
0001
1000
0001
0000
1000
0010
1000
0000
0010
0000
0100
0000
0001
0000
,
0010
0001
1000
0000
0010
1000
0010
0000
0100
0001
0100
0000
0010
1000
0001
0000
,
0010
0001
1000
0000
0100
1000
0100
0000
0010
0001
0010
0000
0001
0000
1000
0000
,
0100
0000
1000
0000
1001
0000
0000
0000
0001
0000
0000
0100
0000
0000
0010
0000
,
1000
0000
0000
0000
,
2222
3333
0000
0000
0000
0000
0000
0000
0000
0000
0000
0000
0000
0000
0000
0000
0000
0000
0000
0000
0000
0000
0000
0000
0000
0000
0000
0000
0000
0000
0000
0000
;

//---------------dance-single - Rynker----------------
#NOTES:
     dance-single:
     Rynker:
     Hard:
     12:
     0.881,1.000,0.395,0.093,0.291,792.000,55.000,13.000,46.000,0.000:
M000
M000
M000
M000
M000
M000
M000
M000
,
M000
0000
0000
0000
,
0M00
0M00
0M00
0M00
0M00
0M00
0M00
0M00
,
0M00
0000
0000
0000
,
00M0
00M0
00M0
00M0
00M0
00M0
00M0
00M0
,
00M0
0000
0000
0000
,
000M
000M
000M
000M
000M
000M
000M
000M
,
000M
0000
0000
0000
,
0110
0000
0000
0000
,
0000
0000
0000
0000
,
1001
0000
0000
0000
,
0000
0000
0000
0000
,
1100
0000
0000
0000
,
0110
0000
0000
0000
,
0011
0000
1001
0000
,
2002
0000
0000
3003
1000
0001
1000
1000
,
0001
0010
0100
1000
,
0010
0000
1000
0000
0001
0000
0010
0100
,
1000
0000
0001
0000
0100
0000
0000
0000
0001
0000
0000
0010
0000
0000
0100
0000
,
1000
0000
0001
0100
0001
0000
1000
0010
1000
0000
0001
0000
0010
0000
0100
0000
,
1000
0100
0010
0001
,
1000
0000
0010
0000
0100
0000
0001
1000
,
0010
0000
1000
0000
0001
0000
0000
0000
0010
0000
0000
0100
0000
0000
1000
0000
,
0001
0000
1000
0100
1000
0000
0001
0010
0001
0000
1000
0000
0100
0000
1000
0000
,
0001
0100
0010
1000
0001
1000
0100
0010
,
0100
0010
0001
1000
0001
1000
0010
0100
,
0100
0000
0001
0000
1000
0000
0000
0000
0100
0000
0000
1000
0000
0000
0001
0000
,
1000
0000
0010
0100
0010
0000
1000
0001
1000
0000
0001
0000
0010
0000
0001
0000
,
0100
0010
1000
0010
1000
0001
0010
0001
,
0010
0100
1000
0100
1000
0001
0100
0001
,
0001
0000
1000
0000
0010
0000
0000
0000
1000
0000
0000
0100
0000
0000
0010
0000
,
0012
0000
0000
0000
1003
0100
1000
1000
,
0100
0000
0010
0000
0000
0000
0001
0000
0000
0000
0100
0000
0010
0000
1000
0001
,
1000
0000
0001
0000
0100
0000
0010
0000
1000
0000
0010
0000
0100
0001
0100
0001
,
0100
0000
0001
0000
0100
0000
0000
0000
0001
0000
1000
0000
0100
0000
0010
0001
,
0010
0000
0100
1000
0100
0000
1000
0100
1000
0000
0001
0010
0001
0000
1000
0000
,
0001
0000
0010
0000
0000
0000
0100
0000
0000
0000
1000
0000
0001
0000
0010
0001
,
0010
0000
0001
0000
0100
0000
0010
0000
1000
0000
0001
0000
1000
0001
1000
0001
,
1000
0001
0010
0000
0100
0000
1000
0000
,
0001
0100
0001
0100
0010
0100
0001
0100
,
0001
0000
1000
0000
1100
0000
0100
0010
,
0001
0000
0000
0010
0000
0000
0100
0000
0000
1000
0000
0000
0001
0000
0000
0000
1000
0000
0010
0000
0000
0000
1000
0000
,
0010
0100
0001
0011
,
1000
0000
0000
0001
0000
0000
0100
0000
0000
0010
0000
0000
0100
0000
0000
0000
0000
0000
0001
0000
0000
0000
1000
0000
,
0001
0000
1000
0000
1100
0000
0100
0010
,
0001
0000
0000
0100
0000
0000
0010
0000
0000
0100
0000
0000
0001
0000
0000
0000
1000
0000
0100
0000
0000
0000
0010
0000
,
0001
1000
0010
0101
,
0001
0000
0000
1000
0000
0000
0100
0000
0000
0010
0000
0000
0001
0000
0000
0000
0000
0000
1000
0000
0000
0000
0010
0000
,
0100
0000
0001
0000
1100
0000
0100
0010
,
0001
0000
0000
0010
0000
0000
0100
0000
0000
1000
0000
0000
0001
0000
0000
0000
0100
0000
0010
0000
0000
0000
1000
0000
,
0010
1000
0001
0011
,
0010
0000
0000
0100
0000
0000
1000
0000
0000
0100
0000
0000
0010
0000
0000
0000
0000
0000
0001
0000
0000
0000
1000
0000
,
0001
0000
1000
0000
1010
0000
0010
0100
,
0001
0000
0000
1000
0000
0000
0100
0000
0000
1000
0000
0000
0001
0000
0000
0000
0010
0000
0001
0000
0000
0000
1000
0000
,
0010
1000
0100
0110
,
0010
0010
0001
1000
0002
0000
2003
0000
,
3001
0100
0010
1000
,
0010
0100
0000
0001
0000
0010
0000
0010
,
0100
1000
0001
0100
,
0010
1000
0000
0010
0000
0100
0000
0001
,
0010
0100
1000
0010
,
0100
0001
0000
1000
0000
0100
0000
0010
,
0100
1000
0010
0100
,
0001
1000
0100
0010
0000
0100
0010
0100
,
1000
0010
0100
0001
,
0010
0001
0000
0100
0000
0010
0000
1000
,
0001
0100
0001
0010
,
0100
1000
0000
0100
0000
1000
0000
0001
,
0100
0010
1000
0001
,
0010
0001
0000
0010
0000
0001
0000
1000
,
0100
1000
0001
0100
,
0010
0000
1000
0000
0001
0000
0100
0000
0001
0100
0001
0000
1000
0000
0100
0000
,
0010
0000
0001
0000
1001
0000
1000
0001
,
0100
0000
0000
0010
0000
0000
1000
0000
0010
1000
0000
0001
,
1000
0100
0110
0010
,
0011
0000
MMMM
0000
,
1001
0000
0001
0000
0101
0000
0100
0010
,
1000
0000
0000
0100
0000
0000
0010
0000
0001
1000
0000
0001
,
1000
0000
1000
0001
0000
0001
1000
0000
,
0220
0000
0000
0330
0001
0100
0010
1000
,
0001
0100
0010
0100
0001
1000
0100
0010
,
0001
0001
1000
0010
1000
0010
0100
0001
,
1000
0000
0001
0000
1001
0000
0000
0000
1000
0000
0000
0100
0000
0000
1000
0000
,
0100
0000
0010
0001
0010
0000
0100
1000
0100
0000
1000
0000
0010
0000
0100
0000
,
0001
0010
0100
1000
0001
0100
0010
1000
,
0001
0001
1000
0100
0010
0001
1000
0010
,
0100
0000
0001
0000
1001
0000
0000
0000
1000
0000
0000
0100
0000
0000
0010
0000
,
0001
0000
1000
0010
1000
0000
0001
0100
0001
0000
0100
0000
0010
0000
1000
0000
,
0001
0100
0010
0100
0001
1000
0100
0010
,
0001
0001
1000
0010
1000
0010
0100
0001
,
1000
0000
0001
0000
1001
0000
0000
0000
1000
0000
0000
0100
0000
0000
1000
0000
,
0100
0000
0010
0001
0010
0000
0100
1000
0100
0000
1000
0000
0010
0000
0100
0000
,
0001
0010
0100
1000
0001
0100
0010
1000
,
0001
0001
1000
0100
0010
0001
1000
0010
,
0100
0000
0001
0000
1001
0000
0000
0000
1000
0000
0000
0100
0000
0000
0010
0000
,
0002
0000
0000
0003
1000
0001
1000
1000
,
0001
0100
0010
0100
0001
1000
0100
0010
,
0001
0001
1000
0010
1000
0010
0100
0001
,
1000
0000
0001
0000
1001
0000
0000
0000
1000
0000
0000
0100
0000
0000
1000
0000
,
0100
0000
0010
0001
0010
0000
0100
1000
0100
0000
1000
0000
0010
0000
0100
0000
,
0001
0010
0100
1000
0001
0100
0010
1000
,
0001
0001
1000
0100
0010
0001
1000
0010
,
0100
0000
0001
0000
1001
0000
0000
0000
1000
0000
0000
0100
0000
0000
0010
0000
,
0001
0000
1000
0010
1000
0000
0001
0100
0001
0000
0100
0000
0010
0000
1000
0000
,
0001
0100
0010
0100
0001
1000
0100
0010
,
0001
0001
1000
0010
1000
0010
0100
0001
,
1000
0000
0001
0000
1001
0000
0000
0000
1000
0000
0000
0100
0000
0000
1000
0000
,
0100
0000
0010
0001
0010
0000
0100
1000
0100
0000
1000
0000
0010
0000
0100
0000
,
0001
0010
0100
1000
0001
0100
0010
1000
,
0001
0001
1000
0100
0010
0001
1000
0010
,
0100
0000
0001
0000
1001
0000
0000
0000
1000
0000
0000
0100
0000
0000
0010
0000
,
0002
0000
0000
0003
,
1001
0000
1010
0000
,
0110
0000
0101
0000
,
1001
0000
1100
0000
,
0110
0000
0011
0001
,
1001
0000
0000
0000
,
0000
0000
0000
0000
,
1010
0000
0000
0000
,
0110
0000
0110
0000
0000
0101
0000
0000
,
1001
0000
1100
0000
,
0110
0000
0011
0000
,
1001
0000
1010
0000
,
0110
0000
0101
0001
,
1001
0000
0000
0000
,
0000
0000
0000
0000
,
1100
0000
0000
0000
,
0220
0000
0000
0330
0001
1000
0001
0001
,
0010
0000
0100
0000
0000
0000
1000
0000
0000
0000
0010
0000
0100
0000
0001
1000
,
0001
0000
1000
0000
0010
0000
0100
0000
0001
0000
0100
0000
0010
1000
0010
1000
,
0010
0000
1000
0000
0010
0000
0000
0000
1000
0000
0000
0001
0000
0000
0010
0000
,
0100
0000
1000
0100
1000
0000
0001
0010
0001
0000
1000
0000
0001
0000
0001
0000
,
1000
0000
0100
0000
0000
0000
0010
0000
0000
0000
0001
0000
1000
0000
0100
1000
,
0100
0000
1000
0000
0010
0000
0100
0000
0001
0000
1000
0000
0001
1000
0001
1000
,
0001
0000
1000
0000
0010
0000
0000
0000
1000
0000
0000
0100
0000
0000
0010
0000
,
0001
0000
0010
0100
0010
0000
0100
1000
0100
0000
0010
0000
0001
0000
1000
0000
,
0010
0000
0100
0000
0000
0000
0001
0000
0000
0000
0100
0000
0010
0000
1000
0001
,
1000
0000
0001
0000
0100
0000
0010
0000
1000
0000
0010
0000
0100
0001
0100
0001
,
0100
0000
0001
0000
0100
0000
0000
0000
0001
0000
0000
1000
0000
0000
0100
0000
,
0010
0000
0001
0010
0001
0000
1000
0100
1000
0000
0001
0000
1000
0000
1000
0000
,
0001
0000
0010
0000
0000
0000
0100
0000
0000
0000
1000
0000
0001
0000
0010
0001
,
0010
0000
0001
0000
0100
0000
0010
0000
1000
0000
0001
0000
1000
0001
1000
0001
,
1000
0000
0001
0000
0100
0000
0000
0000
0001
0000
0000
0010
0000
0000
0100
0000
,
1000
0000
0000
0M00
0000
00M0
000M
M000
00M0
0M00
0000
0000
,
2002
0000
3003
0000
;
