#TITLE:HOT LIMIT 2;
#SUBTITLE:;
#ARTIST:JOHN DESIRE;
#TITLETRANSLIT:;
#SUBTITLETRANSLIT:;
#ARTISTTRANSLIT:;
#CREDIT:;
#BANNER:hotlimit-bn.png;
#BACKGROUND:hotlimit-bg.png;
#LYRICSPATH:;
#CDTITLE:!b00mbaTitle.png;
#MUSIC:HOT LIMIT.mp3;
#OFFSET:-0.105;
#SAMPLESTART:59.960;
#SAMPLELENGTH:12.000;
#SELECTABLE:YES;
#DISPLAYBPM:156.000;
#BPMS:0.000=155.990;
#STOPS:;
#BGCHANGES:;
// cache tags:
#FIRSTBEAT:4.000;
#LASTBEAT:478.000;
#SONGFILENAME:Songs/Community Keyboard Megapack - Volume 3/(b00mba) Hot Limit v2/HOT LIMIT.sm;
#HASMUSIC:1;
#HASBANNER:1;
#MUSICLENGTH:184.529;
// end cache tags

//---------------dance-single - ----------------
#NOTES:
     dance-single:
     :
     Hard:
     10:
     1.000,1.000,1.000,0.022,1.000,1166.000,338.000,4.000,0.000,0.000:  // measure 1
0000
0000
0000
0000
,  // measure 2
1001
0000
0100
0010
0100
1000
0000
0000
1010
0000
0100
0010
0001
0100
0000
0000
,  // measure 3
0011
0000
1000
0100
1000
0001
0010
0100
1000
0001
0100
0010
0100
0001
1000
0010
,  // measure 4
0000
0000
0000
0000
,  // measure 5
1100
0000
0010
0100
1000
0001
0000
0000
1010
0000
0100
0010
1000
0001
0000
0000
,  // measure 6
1000
0100
0010
0001
0010
0100
1000
0100
0011
0000
1100
0000
0011
0000
0000
0000
,  // measure 7
0000
0000
0000
0000
,  // measure 8
0101
0000
0010
1000
0100
1000
0000
0000
0011
0000
1000
0100
1000
0001
0000
0000
,  // measure 9
1100
0000
1000
0100
0010
0001
0010
0100
0010
0001
0010
0100
1000
0100
0010
0001
,  // measure 10
0000
0000
0000
0000
,  // measure 11
0101
0000
0010
1000
0010
0100
0000
0000
0101
0000
1000
0100
0010
0001
0000
0000
,  // measure 12
0001
0010
0100
1000
0100
0010
0001
0100
1001
0000
0110
0000
1001
0000
0000
0000
,  // measure 13
1010
0010
0110
0100
0101
0001
0011
0010
,  // measure 14
0110
1001
0110
0000
,  // measure 15
1001
0000
0010
0100
1000
0001
0000
0000
0110
0000
0100
0010
1000
0001
0000
0000
,  // measure 16
1100
0000
1000
0100
0010
0001
1000
0100
0010
0001
0010
0100
1000
0100
0010
0001
,  // measure 17
1100
0000
1000
0010
0100
0001
0000
0000
1100
0000
0001
0010
0100
1000
0000
0000
,  // measure 18
0010
1000
0010
0100
0001
0100
0010
1000
0011
0000
1100
0000
1001
0000
0000
0000
,  // measure 19
0110
0000
1000
0001
0010
0100
0000
0000
1100
0000
1000
0001
0010
0100
0000
0000
,  // measure 20
1010
0000
1000
0010
0100
0001
0100
0010
1000
0100
0010
0001
1000
0100
0010
0001
,  // measure 21
0110
0000
1000
0001
1000
0010
0000
0000
0101
0000
1000
0010
1000
0100
0000
0000
,  // measure 22
0001
1000
0100
0010
0001
0010
0100
1000
0011
0000
1100
0000
0101
0000
0000
0000
,  // measure 23
0110
0001
1000
0100
0010
0001
0010
0100
1000
0100
1000
0001
0100
0010
0100
0001
,  // measure 24
1000
0100
0010
0001
1000
0010
0100
0001
1000
0010
0100
0001
0010
0001
0100
0010
,  // measure 25
1000
0100
0010
0001
0010
0100
1000
0010
0100
0001
0100
0010
1000
0001
1000
0100
,  // measure 26
0011
0000
0000
1100
0000
0000
1010
0000
0110
0000
0000
0000
0020
0000
0000
0030
,  // measure 27
1001
0100
0010
0001
0010
0100
1000
0010
0100
0001
1000
0010
1000
0100
0010
0001
,  // measure 28
1000
0010
0100
0001
1000
0001
0010
0100
1000
0001
1000
0010
0100
0001
1000
0010
,  // measure 29
1000
0100
0010
0001
1000
0100
1000
0010
1000
0001
0100
0010
1000
0001
0100
0010
,  // measure 30
1001
0000
0000
0011
0000
0000
1100
0000
1001
0000
0000
0000
0200
0000
0000
0300
,  // measure 31
0011
0000
0000
1100
0000
0000
1010
0000
0110
0000
0000
1001
0000
0000
0101
0000
,  // measure 32
0011
0000
0000
1100
0000
0000
1010
0000
0110
0000
0000
0000
0100
0000
0001
0000
,  // measure 33
1001
0000
0000
0110
0000
0000
1001
0000
1010
0000
0000
0000
0101
0000
0000
0000
,  // measure 34
1001
0100
0010
0000
1001
0100
0010
0000
1001
0100
0011
0000
1000
0100
1000
0100
,  // measure 35
0011
0000
0000
1100
0000
0000
1010
0000
0110
0000
0000
1001
0000
0000
0011
0000
,  // measure 36
0101
0000
0000
0110
0000
0000
1001
0000
0110
0000
0000
0000
1000
0100
0010
0001
,  // measure 37
2100
0000
0000
0000
0000
3000
0001
0000
0101
0000
0000
0000
0000
0000
0000
0000
,  // measure 38
0110
0000
0000
0100
0000
0000
0100
0000
1010
0000
0000
0000
0001
1000
0100
0000
,  // measure 39
0011
0000
0000
1100
0000
0000
1010
0000
0101
0000
0000
0000
0010
0000
0000
0000
,  // measure 40
1001
0000
0100
0000
0011
0000
0100
0000
1010
0000
0001
0110
0000
0000
0100
0000
,  // measure 41
1010
1100
0011
0110
1001
1010
0101
0000
,  // measure 42
1010
0010
0101
0100
0011
0001
0110
1000
,  // measure 43
1010
0000
1010
0000
0110
0000
0001
0110
0000
0100
0001
0100
0010
1000
0001
1000
,  // measure 44
0110
0000
0001
0000
1100
0000
0001
0000
0110
0000
0010
0101
0000
0000
0010
0000
,  // measure 45
0110
0000
0011
0000
1100
0000
1010
0000
0101
0000
0110
1100
0000
0000
0100
0000
,  // measure 46
0011
0010
0110
0100
1100
1000
1010
0010
,  // measure 47
0110
0000
0000
0000
0101
0000
0000
0000
1001
0000
0000
0000
1000
0100
1000
0100
,  // measure 48
0011
0000
0100
0000
1001
0000
0010
0000
0101
0000
0010
1100
0000
0000
0001
0000
,  // measure 49
1010
0000
0101
0000
1010
0000
1001
0000
0110
0000
0011
1100
0000
0000
0000
0000
,  // measure 50
1001
0001
0011
0010
0110
0100
1100
1000
,  // measure 51
0110
0000
0110
0000
0110
0000
0001
0110
0000
1000
0001
0000
1000
0100
0010
0100
,  // measure 52
1001
0000
0100
0000
0011
0000
0100
0000
0101
0000
0010
1001
0000
1000
0100
0010
,  // measure 53
1001
1100
0110
0011
0101
1010
0001
1000
,  // measure 54
0110
0001
0101
0100
0110
0010
1010
1000
,  // measure 55
1100
0000
0000
0000
0110
0000
0000
0000
0011
0000
0000
0000
0100
0010
0100
0000
,  // measure 56
1001
0000
0010
0100
1000
0001
0000
0000
1010
0000
0100
0010
1000
0001
0000
0000
,  // measure 57
1100
0000
1000
0100
0010
0001
1000
0001
0010
0100
1000
0001
0010
0100
1000
0100
,  // measure 58
0011
0000
1000
0010
0100
0001
0000
0000
1010
0000
1000
0100
0010
0001
0000
0000
,  // measure 59
1000
0001
0010
0100
1000
0001
1000
0010
0101
0000
1010
0000
0101
0000
0000
0000
,  // measure 60
1001
0000
0010
0100
1000
0010
0000
0000
1010
0000
0100
0010
1000
0001
0000
0000
,  // measure 61
1100
0000
0100
0010
0001
0010
0100
1000
0100
0010
0001
1000
0100
1000
0010
1000
,  // measure 62
0101
0000
1000
0010
1000
0001
0000
0000
0101
0000
0010
0100
1000
0010
0000
0000
,  // measure 63
1010
0100
0010
0001
0010
0100
0010
0000
1100
0000
0011
0000
1100
0000
0000
0000
,  // measure 64
1001
0100
0010
0001
0010
0100
1000
0010
0100
0001
1000
0010
1000
0001
1000
0100
,  // measure 65
0010
0001
1000
0010
1000
0001
0100
0010
1000
0001
1000
0010
0100
0001
0010
0001
,  // measure 66
0100
0010
1000
0100
0010
0001
1000
0100
1000
0001
1000
0010
1000
0001
0100
0010
,  // measure 67
0101
0000
0000
1010
0000
0000
1001
0000
0000
0000
0000
0000
0020
0000
0000
0030
,  // measure 68
1001
0100
0010
0001
1000
0001
1000
0010
0100
0001
1000
0001
0010
0100
1000
0010
,  // measure 69
0100
0001
1000
0100
0010
0001
1000
0010
0100
0001
0010
0001
0100
0010
1000
0100
,  // measure 70
0010
0001
1000
0100
1000
0001
0010
0100
1000
0010
0100
0001
1000
0010
1000
0001
,  // measure 71
0110
0000
0000
1001
0000
0000
0101
0000
0011
0000
0000
0000
1000
0100
0010
0001
,  // measure 72
0110
0000
0000
1001
0000
0000
0001
0000
0011
0000
0000
0010
0000
0000
1000
0000
,  // measure 73
1100
0000
0000
1001
0000
0000
0100
0000
0110
0000
0000
0000
0000
0000
0000
0000
,  // measure 74
0011
0000
0000
0001
0000
0000
0101
0000
1010
0000
0000
0000
1001
0000
0000
0000
,  // measure 75
1100
0000
0000
0000
0011
0000
0000
0000
0101
0000
0000
0000
0100
0001
0100
0001
,  // measure 76
1100
0001
0010
0100
1000
0001
1000
0010
0100
0001
1000
0010
1000
0100
0010
0001
,  // measure 77
0010
0100
1000
0001
1000
0010
0100
0001
0100
0010
1000
0100
0010
0001
1000
0100
,  // measure 78
1000
0001
0010
0001
1000
0001
0010
0100
1000
0001
1000
0010
0100
0001
1000
0010
,  // measure 79
1000
0100
0010
0001
1000
0010
0100
0001
1000
0100
0010
0001
0010
0100
1000
0001
,  // measure 80
1100
0000
0000
1010
0000
0000
0110
0000
0101
0000
0000
0000
0100
0000
0000
0000
,  // measure 81
0011
0000
0100
0000
1001
0000
0010
0000
1010
0000
0010
0101
0000
1000
0010
1000
,  // measure 82
0110
0011
1100
1010
0101
0110
0101
0010
,  // measure 83
1001
0001
0011
0010
0110
0100
1100
1000
,  // measure 84
0110
0000
0110
0000
0110
0000
0001
0110
0000
1000
0001
1000
0100
0010
0001
0010
,  // measure 85
1100
0000
0001
0000
1010
0000
0001
0000
0110
0000
0001
1100
0000
1000
0100
0010
,  // measure 86
1001
1100
0011
0101
0110
0101
1010
0001
,  // measure 87
1100
0001
0011
0100
0110
0100
1010
0010
,  // measure 88
1001
0000
0100
0000
0011
0000
0000
0000
1100
0000
0100
0000
0010
0000
1001
0100
,  // measure 89
1001
0000
0100
0000
1001
0000
0010
0000
0011
0000
0010
0101
0000
1000
0010
1000
,  // measure 90
0110
0011
1100
0110
0101
1010
0101
0010
,  // measure 91
1001
0001
0011
0010
0110
0100
1100
1000
,  // measure 92
1010
0000
1010
0000
1010
0000
0001
0110
0000
0001
0100
0010
1000
0100
0010
0001
,  // measure 93
1100
0000
0001
0000
0101
0000
0100
0000
0110
0000
0010
1001
0000
1000
0100
0010
,  // measure 94
1001
1100
1010
0101
1010
0101
0001
0010
,  // measure 95
1100
0100
0110
0010
0011
0001
0101
0100
,  // measure 96
0110
0000
1010
0000
1001
0000
1000
0100
,  // measure 97
0011
0000
1000
0100
0010
0001
0000
0000
0100
0000
0100
0010
0001
1000
0000
0000
,  // measure 98
0010
0000
0100
0010
0100
0001
0100
0010
1000
0001
0010
0100
1000
0100
0010
0100
,  // measure 99
1001
0000
1000
0100
1000
0010
0000
0000
0100
0000
0001
0100
0001
0010
0000
0000
,  // measure 100
0001
1000
0100
0010
0001
0010
0100
1000
0101
0000
1010
0000
0101
0000
1000
0010
,  // measure 101
0101
0000
1000
0100
0010
0001
0000
0000
1000
0000
0001
0010
0100
1000
0000
0000
,  // measure 102
0010
0000
1000
0010
0100
0001
1000
0100
1000
0001
0010
0100
1000
0100
1000
0100
,  // measure 103
0011
0000
1000
0100
1000
0010
0000
0000
0100
0000
0001
0010
0100
1000
0000
0000
,  // measure 104
0010
1000
0100
0010
0001
1000
0010
0100
1001
0000
0110
0000
1001
0000
0000
0000
,  // measure 105
1001
0000
0100
0010
0001
1000
0000
0000
1100
0000
0010
0100
0001
1000
0000
0000
,  // measure 106
0011
0000
0100
1000
0001
0010
0100
1000
0010
0100
0001
0100
0010
1000
0100
0010
,  // measure 107
1001
0000
0010
1000
0001
0100
0000
0000
0110
0000
0010
0100
1000
0100
0000
0000
,  // measure 108
0010
1000
0010
1000
0100
0010
0001
1000
0110
0000
1001
0000
0110
0000
0000
0000
,  // measure 109
0101
0000
0010
0100
0001
1000
0000
0000
0011
0000
1000
0100
0010
0001
0000
0000
,  // measure 110
1100
0000
0001
1000
0100
1000
0001
0010
0100
0010
0001
0010
0100
1000
0010
0100
,  // measure 111
1001
0000
0010
1000
0001
0100
0000
0000
1010
0000
1000
0100
0010
0001
0000
0000
,  // measure 112
1001
0110
0011
1100
0110
0101
1010
0000
,  // measure 113
0101
0001
0101
1000
1100
1001
0100
0010
,  // measure 114
1001
0100
1000
1001
0010
0101
0101
0010
,  // measure 115
1001
1010
0110
0010
,  // measure 116
0101
0000
0101
0000
0101
0000
0001
1100
0000
1000
0100
0010
0001
0010
0100
1000
,  // measure 117
0101
0000
0010
0000
0101
0000
0010
0000
0101
0000
0010
1001
0000
1000
0010
0100
,  // measure 118
1001
0110
0001
0110
0001
0101
0010
1000
,  // measure 119
1100
0110
0011
0110
1001
1010
0101
0110
,  // measure 120
0100
0001
1000
0000
;
