#TITLE:My Name Is Acid;
#SUBTITLE:;
#ARTIST:Immersion;
#TITLETRANSLIT:;
#SUBTITLETRANSLIT:;
#ARTISTTRANSLIT:;
#CREDIT:Owem;
#BANNER:../Banner.png;
#BACKGROUND:../BG.png;
#LYRICSPATH:;
#CDTITLE:../CDTitleOwem.png;
#MUSIC:Immersion - My Name Is Acid.ogg;
#OFFSET:-0.751;
#SAMPLESTART:53.763;
#SAMPLELENGTH:29.999;
#SELECTABLE:YES;
#DISPLAYBPM:144.844;
#BPMS:0.000=144.843,9.000=144.851,10.000=144.843,25.000=144.851,26.000=144.843,41.000=144.851,42.000=144.843,56.000=144.851,57.000=144.843,64.000=144.851,65.000=144.843,72.000=144.851,73.000=144.843,76.000=144.883,77.000=144.875,78.000=144.883,79.000=144.875,81.000=144.883,82.000=144.875,84.000=144.883,85.000=144.875,87.000=144.883,88.000=144.875,90.000=144.883,91.000=144.875,93.000=144.883,94.000=144.875,95.000=144.883,96.000=144.875,98.000=144.883,99.000=144.875,101.000=144.883,102.000=144.875,104.000=144.883,105.000=144.875,107.000=144.883,108.000=144.875,109.000=144.883,110.000=144.875,112.000=144.883,113.000=144.875,115.000=144.883,116.000=144.875,118.000=144.883,119.000=144.875,121.000=144.883,122.000=144.875,124.000=144.883,125.000=144.875,126.000=144.883,127.000=144.875,129.000=144.883,130.000=144.875,132.000=144.883,133.000=144.875,135.000=144.883,136.000=144.875,138.000=144.883,139.000=144.875,140.000=144.883,141.000=144.875,143.000=144.883,144.000=144.875,146.000=144.883,147.000=144.875,149.000=144.883,150.000=144.875,152.000=144.883,153.000=144.875,155.000=144.883,156.000=144.875,157.000=144.883,158.000=144.875,160.000=144.883,161.000=144.875,163.000=144.883,164.000=144.875,166.000=144.883,167.000=144.875,168.000=144.883,169.000=144.875,171.000=144.883,172.000=144.875,174.000=144.883,175.000=144.875,177.000=144.883,178.000=144.875,180.000=144.883,181.000=144.875,183.000=144.883,184.000=144.875,185.000=144.883,186.000=144.875,188.000=144.883,189.000=144.875,191.000=144.883,192.000=144.875,193.000=144.883,194.000=144.875,196.000=144.883,197.000=144.875,199.000=144.883,200.000=144.875,202.000=144.883,203.000=144.875,205.000=144.883,206.000=144.875,208.000=144.883,209.000=144.875,210.000=144.883,211.000=144.875,213.000=144.883,214.000=144.875,216.000=144.883,217.000=144.875,218.000=144.883,219.000=144.875,222.000=144.883,223.000=144.875,224.000=144.820,226.000=144.828,227.000=144.812,228.000=144.820,232.000=144.812,233.000=144.820,237.000=144.812,238.000=144.820,241.000=144.812,242.000=144.820,246.000=144.812,247.000=144.820,251.000=144.812,252.000=144.820,255.000=144.812,256.000=144.820,260.000=144.812,261.000=144.820,265.000=144.812,266.000=144.820,270.000=144.812,271.000=144.820,275.000=144.812,276.000=144.820,279.000=144.812,280.000=144.820,284.000=144.812,285.000=144.820,289.000=144.812,290.000=144.820,293.000=144.812,294.000=144.820,298.000=144.812,299.000=144.820,303.000=144.812,304.000=144.820,308.000=144.812,309.000=144.820,312.000=144.812,313.000=144.820,318.000=144.812,319.000=144.820,322.000=144.812,323.000=144.820,327.000=144.812,328.000=144.820,332.000=144.812,333.000=144.820,337.000=144.812,338.000=144.820,341.000=144.812,342.000=144.820,345.000=144.812,346.000=144.820,351.000=144.812,352.000=144.820,356.000=144.812,357.000=144.820,360.000=144.812,361.000=144.820,365.000=144.812,366.000=144.820,369.000=144.812,370.000=144.820,375.000=144.812,376.000=144.820,379.000=144.812,380.000=144.820,384.000=144.812,385.000=144.820,388.000=144.812,389.000=144.820,394.000=144.812,395.000=144.820,398.000=144.812,399.000=144.820,403.000=144.812,404.000=144.820,407.000=144.812,408.000=144.820,413.000=144.812,414.000=144.820,418.000=144.812,419.000=144.820,422.000=144.812,423.000=144.820,427.000=144.812,428.000=144.820,432.000=144.812,433.000=144.820,437.000=144.812,438.000=144.820,441.000=144.812,442.000=144.820,447.000=144.812,448.000=144.820,450.000=144.812,451.000=144.828,452.000=144.812,453.000=144.820,455.000=144.812,456.000=144.828,457.000=144.812,458.000=144.820,460.000=144.812,461.000=144.820,465.000=144.812,466.000=144.820,470.000=144.812,471.000=144.820,473.000=144.812,474.000=144.820,478.000=144.812,479.000=144.820,483.000=144.812,484.000=144.820,486.000=144.812,487.000=144.828,488.000=144.812,489.000=144.828,490.000=144.812,492.000=144.828,493.000=144.812,494.000=144.828,495.000=144.812,496.000=144.820,498.000=144.812,499.000=144.820,503.000=144.812,504.000=144.820,508.000=144.812,509.000=144.820,511.000=144.812,512.000=144.828,513.000=144.812,514.000=144.820,516.000=144.812,517.000=144.820,521.000=144.812,522.000=144.820,526.000=144.812,527.000=144.828,528.000=144.812,530.000=144.828,531.000=144.812,532.000=144.828,533.000=144.812,535.000=144.828,536.000=144.812,537.000=144.828,538.000=144.812,539.000=144.820,541.000=144.812,542.000=144.820,546.000=144.812,547.000=144.820,551.000=144.812,552.000=144.820,554.000=144.812,555.000=144.828,556.000=144.812,557.000=144.820,559.000=144.812,560.000=144.820,564.000=144.812,565.000=144.820,569.000=144.812,570.000=144.828,571.000=144.812,573.000=144.828,574.000=144.812,575.000=144.828,576.000=144.812,577.000=144.820,579.000=144.812,580.000=144.828,581.000=144.812,582.000=144.820,584.000=144.812,585.000=144.820,589.000=144.812,590.000=144.820,594.000=144.812,595.000=144.820,597.000=144.812,598.000=144.820,602.000=144.812,603.000=144.820,607.000=144.812,608.000=144.828,609.000=144.812,611.000=144.828,612.000=144.812,613.000=144.828,614.000=144.812,616.000=144.828,617.000=144.812,618.000=144.828,619.000=144.812,620.000=144.820,622.000=144.812,623.000=144.820,627.000=144.812,628.000=144.820,632.000=144.812,633.000=144.820,635.000=144.812,636.000=144.828,637.000=144.812,638.000=144.820,640.000=144.867,645.000=144.875,646.000=144.867,655.000=144.875,656.000=144.867,666.000=144.875,667.000=144.867,676.000=144.875,677.000=144.867,686.000=144.875,687.000=144.867,697.000=144.875,698.000=144.867,706.000=144.875,707.000=144.859,708.000=144.875,709.000=144.867,717.000=144.875,718.000=144.867,726.000=144.875,727.000=144.859,728.000=144.875,729.000=144.867,737.000=144.875,738.000=144.867,748.000=144.875,749.000=144.867,757.000=144.875,758.000=144.859,759.000=144.875,760.000=144.867,768.000=143.851,769.000=144.820,771.000=144.764,772.000=144.772,773.000=144.764,774.000=144.772,775.000=144.764,776.000=144.772,777.000=144.764,778.000=144.772,779.000=144.764,780.000=144.772,781.000=144.764,782.000=144.772,783.000=144.764,784.000=144.772,785.000=144.764,786.000=144.772,787.000=144.764,788.000=144.772,789.000=144.764,790.000=144.772,791.000=144.764,792.000=144.772,793.000=144.764,794.000=144.772,795.000=144.764,797.000=144.772,798.000=144.764,799.000=144.772,800.000=144.764,801.000=144.772,802.000=144.764,803.000=144.772,804.000=144.764,805.000=144.772,806.000=144.764,807.000=144.772,808.000=144.764,809.000=144.772,810.000=144.764,811.000=144.772,812.000=144.764,813.000=144.772,814.000=144.764,815.000=144.772,816.000=144.764,817.000=144.772,818.000=144.764,819.000=144.772,820.000=144.764,822.000=144.772,823.000=144.764,824.000=144.772,825.000=144.764,826.000=144.772,827.000=144.764,828.000=144.772,829.000=144.764,830.000=144.772,831.000=144.764,832.000=144.843,839.000=144.851,840.000=144.843,849.000=144.836,850.000=144.843,853.000=144.851,854.000=144.843,863.000=144.836,864.000=144.843,866.000=144.851,867.000=144.843,876.000=144.836,877.000=144.843,881.000=144.851,882.000=144.843,891.000=144.836,892.000=144.843,895.000=144.851,896.000=144.843,905.000=144.836,906.000=144.843,910.000=144.851,911.000=144.843,928.000=144.828,929.000=144.843,933.000=144.970,936.000=144.955,937.000=144.970,942.000=144.955,943.000=144.970,949.000=144.955,950.000=144.970,956.000=144.955,957.000=144.970,962.000=144.955,963.000=144.970,969.000=144.955,970.000=144.970,975.000=144.955,976.000=144.970,982.000=144.955,983.000=144.970,988.000=144.955,989.000=144.970,995.000=144.955,996.000=144.970,1002.000=144.955,1003.000=144.970,1008.000=144.955,1009.000=144.970,1015.000=144.955,1016.000=144.970,1021.000=144.955,1022.000=144.970,1028.000=144.955,1029.000=144.970,1034.000=144.955,1035.000=144.970,1041.000=144.955,1042.000=144.970,1047.000=144.955,1048.000=144.970,1055.000=144.955,1056.000=144.970,1061.000=144.955,1062.000=144.970,1068.000=144.955,1069.000=144.970,1074.000=144.955,1075.000=144.970,1081.000=144.955,1082.000=144.970,1087.000=144.955,1088.000=144.970,1095.000=144.955,1096.000=144.970,1100.000=144.955,1101.000=144.970,1107.000=144.955,1108.000=144.970,1113.000=144.955,1114.000=144.970,1121.000=144.955,1122.000=144.970,1126.000=144.955,1127.000=144.970,1134.000=144.955,1135.000=144.970,1139.000=144.955,1140.000=144.970,1147.000=144.955,1148.000=144.970,1152.000=145.098,1154.000=145.082,1155.000=145.098,1158.000=145.082,1159.000=145.098,1163.000=145.082,1164.000=145.098,1167.000=145.082,1168.000=145.098,1171.000=145.082,1172.000=145.098,1176.000=145.082,1177.000=145.098,1180.000=145.082,1181.000=145.098,1185.000=145.082,1186.000=145.098,1189.000=145.082,1190.000=145.098,1193.000=145.082,1194.000=145.098,1198.000=145.082,1199.000=145.098,1202.000=145.082,1203.000=145.098,1207.000=145.082,1208.000=145.098,1211.000=145.082,1212.000=145.098,1215.000=145.082,1216.000=145.098,1220.000=145.082,1221.000=145.098,1224.000=145.082,1225.000=145.098,1229.000=145.082,1230.000=145.098,1233.000=145.082,1234.000=145.098,1238.000=145.082,1239.000=145.098,1242.000=145.082,1243.000=145.098,1246.000=145.082,1247.000=145.098,1251.000=145.082,1252.000=145.098,1255.000=145.082,1256.000=145.098,1259.000=145.082,1260.000=145.098,1264.000=145.082,1265.000=145.098,1268.000=145.082,1269.000=145.098,1273.000=145.082,1274.000=145.098,1277.000=145.082,1278.000=145.098,1280.000=144.843,1294.000=144.859,1295.000=144.843;
#STOPS:;
#BGCHANGES:;
// cache tags:
#FIRSTBEAT:0.000;
#LASTBEAT:1303.000;
#SONGFILENAME:Songs/Owem's Simfiles 08 1.1/My Name Is Acid - [Owem] v1.0.1/My Name Is Acid.sm;
#HASMUSIC:1;
#HASBANNER:1;
#MUSICLENGTH:540.468;
// end cache tags

//---------------dance-single - 14-3-16/80/113/2----------------
#NOTES:
     dance-single:
     14-3-16/80/113/2:
     Hard:
     15:
     1.000,1.000,0.000,0.002,1.000,4731.000,0.000,1.000,0.000,0.000:
1000
0100
0010
0000
0001
0100
0000
0010
0000
1000
0001
0000
1000
0100
0000
0010
,
0000
0001
1000
0000
0010
1000
0000
0001
0000
0010
0100
0000
1000
0001
0000
0100
,
0000
0001
0010
0000
0100
1000
0000
0001
0000
1000
0010
0000
0100
0001
0000
1000
,
0000
0100
0010
0000
0001
1000
0000
0001
0000
0010
0100
0000
1000
0100
0000
0010
,
0000
0001
1000
0000
0010
0100
0000
0001
0000
0010
0001
0000
1000
0001
0000
0100
,
0000
0010
1000
0000
0010
0100
0000
0001
0000
1000
0100
0000
0010
0001
0000
1000
,
0000
0010
1000
0000
0001
1000
0000
0100
0000
0010
0001
0000
1000
0010
0000
0100
,
0000
0001
1000
0000
0100
1000
0000
0010
0000
0100
0001
0000
1000
0100
0000
0010
,
0000
0001
0010
0000
0001
1000
0000
0010
0000
1000
0100
0000
0010
0001
0000
1000
,
0000
0010
1000
0000
0001
0010
0000
0100
0000
1000
0001
0000
0100
0001
0000
0010
,
0000
0100
1000
0000
0100
1000
0000
0010
0000
0100
0001
0000
1000
0001
0000
0010
,
0000
0100
1000
0000
0001
1000
0000
0010
0000
0100
0001
0000
1000
0010
0000
0100
,
0000
0001
0010
0000
0001
0100
0000
0010
0000
1000
0001
0000
0100
0010
0000
1000
,
0000
0001
0010
0000
0100
1000
0000
0001
0000
1000
0001
0000
0100
0010
0000
0100
,
0000
0001
0010
0000
0100
1000
0000
0001
0000
1000
0010
0000
0100
0001
0000
1000
,
0000
0001
0010
0000
0100
1000
0000
0001
0000
0100
0001
0000
1000
0010
0000
0100
,
0001
1000
0001
0000
0010
0100
0000
1000
0001
1000
0010
0000
0100
0001
0000
1000
,
0100
1000
0010
0000
0100
0001
0000
0010
0100
1000
0001
0000
0100
0001
0000
1000
,
0010
1000
0001
0000
0010
0100
0000
1000
0001
1000
0010
0000
0100
0001
0000
1000
,
0100
1000
0010
0000
0100
0001
0000
1000
0001
0010
0001
0000
0100
0010
0000
1000
,
0001
1000
0100
0000
0010
0001
0000
1000
0010
0100
0010
0000
1000
0001
0000
0010
,
0100
1000
0001
0000
0100
0001
0000
1000
0010
1000
0001
0000
0010
0100
0000
1000
,
0100
1000
0001
0000
0100
0010
0000
1000
0001
0010
0100
0000
1000
0010
0000
0100
,
0001
1000
0001
0000
0100
0010
0000
1000
0100
1000
0010
0000
0100
0001
0000
1000
,
0100
0010
0001
0000
1000
0100
0000
0010
0001
1000
0001
0000
0100
0010
0000
1000
,
0010
0100
0001
0000
1000
0001
0000
0010
0100
1000
0001
0000
0010
0100
0000
1000
,
0001
1000
0010
0000
0100
0001
0000
1000
0100
1000
0010
0000
0100
0001
0000
0010
,
0001
1000
0001
0000
0010
0100
0000
1000
0100
1000
0001
0000
0100
0001
0000
1000
,
0010
1000
0001
0000
0100
0010
0000
1000
0100
1000
0001
0000
0010
0100
0000
1000
,
0001
1000
0100
0000
0010
0001
0000
1000
0001
1000
0010
0000
0100
0001
0000
1000
,
0010
0100
0010
1000
0001
0100
0001
0010
0100
1000
0100
0010
0001
1000
0001
0100
,
0010
0000
0000
1000
0000
0000
0010
0000
0000
0100
0000
0000
0001
0000
0000
1000
0000
0000
0100
0000
0010
0000
0001
0000
1000
0000
0001
0000
0100
0000
0010
0000
1000
0000
0010
0000
0100
0000
0001
0000
1000
0000
0100
0000
1000
0000
0010
0000
,
0100
0001
1000
0010
1000
0100
0010
0001
1000
0100
1000
0001
0100
0010
0100
0001
,
1000
0010
1000
0100
0010
0001
1000
0100
1000
0001
0010
0001
0100
0010
1000
0010
,
0100
0001
1000
0001
0010
0100
1000
0001
0010
0001
1000
0001
0100
0010
1000
0010
,
0100
0001
1000
0100
1000
0010
0100
0010
1000
0001
0010
0100
1000
0001
1000
0010
,
0100
0001
1000
0100
1000
0001
1000
0010
0100
0001
0100
0010
1000
0001
1000
0100
,
0010
0001
0100
0001
0010
0100
1000
0001
0010
0001
0100
0010
0100
0001
1000
0100
,
0010
0100
1000
0001
1000
0010
0100
0001
0100
0010
1000
0001
1000
0010
0100
0010
,
1000
0001
0010
0100
0010
0001
1000
0010
1000
0100
0010
0001
1000
0100
1000
0001
,
0100
0010
1000
0010
0100
0001
1000
0100
0010
0001
1000
0100
1000
0010
0100
0010
,
1000
0001
0010
0100
0010
0001
1000
0010
1000
0100
0010
0001
1000
0100
1000
0001
,
0100
0010
0100
0001
1000
0010
1000
0001
1000
0100
0010
0001
1000
0100
1000
0010
,
0100
0001
0100
0010
1000
0010
1000
0100
0010
0001
1000
0100
1000
0001
0010
0100
,
1000
0001
0010
0001
0100
0010
1000
0010
0100
0001
1000
0000
0001
0010
0100
1000
,
0001
0010
0001
0100
0010
1000
0010
0100
0001
1000
0010
1000
0100
0010
0001
1000
,
0100
1000
0001
0100
0001
0010
0100
1000
0001
0010
0001
0100
0010
1000
0010
0100
,
0001
1000
0100
0010
0001
1000
0100
1000
0001
0100
0010
1000
0100
0010
0000
0010
,
0001
1000
0001
0100
0010
1000
0010
0100
0001
1000
0100
0010
0001
1000
0100
1000
,
0001
0010
0001
0100
0010
1000
0010
1000
0100
0010
0001
1000
0001
1000
0100
0010
,
0001
1000
0100
1000
0001
0010
0100
0010
0001
1000
0010
1000
0001
0010
0001
0100
,
0010
1000
0010
0100
0001
1000
0100
1000
0010
0100
0001
1000
0100
1000
0001
0010
,
0001
0100
0010
1000
0010
0100
0001
1000
0100
1000
0001
0010
0001
0100
0010
1000
,
0010
0100
0001
1000
0100
0010
0001
1000
0100
1000
0001
0010
0001
0100
0010
1000
,
0010
0100
0001
1000
0100
1000
0001
0010
0001
0100
0010
1000
0010
0100
0010
1000
,
0001
0100
0001
0010
0100
1000
0001
0010
0001
0100
0010
1000
0010
0100
0001
1000
,
0100
0010
0001
1000
0100
1000
0010
0100
0001
0100
0010
1000
0001
1000
0100
0010
,
0001
1000
0100
1000
0001
0010
0001
1000
0100
1000
0001
0010
0100
1000
0100
0010
,
0001
1000
0100
1000
0001
0010
0100
0010
0001
0100
0010
1000
0010
0100
0001
1000
,
0001
0100
0010
1000
0100
1000
0001
0010
0001
1000
0100
0010
0100
1000
0001
0010
,
0001
0100
0001
1000
0010
1000
0100
0010
0001
1000
0100
1000
0010
0100
0001
1000
,
0001
0100
0010
1000
0010
0100
0001
1000
0100
0010
0001
1000
0100
1000
0010
0100
,
0001
1000
0010
0100
0010
1000
0001
0010
0100
1000
0001
1000
0010
0100
0001
1000
,
0001
0010
0100
1000
0001
0010
0001
1000
0100
0010
0100
1000
0001
1000
0010
1000
,
0001
0010
0100
0000
1000
0010
0000
0100
0001
1000
0001
0000
0010
0100
0000
1000
,
0001
1000
0010
0000
0100
0001
0000
1000
0100
1000
0010
0000
0100
0001
0000
1000
,
0001
0010
0001
0000
0100
0010
0000
1000
0010
0100
0001
0000
1000
0100
0000
0010
,
0001
1000
0001
0000
0100
0010
0000
1000
0100
1000
0001
0000
0010
0100
0000
1000
,
0001
1000
0100
0000
0010
0001
0000
1000
0100
1000
0010
0000
0100
0001
0000
1000
,
0001
1000
0010
0000
0100
0001
0000
0100
0010
1000
0010
0000
0100
0001
0000
1000
,
0100
0010
0001
0000
1000
0001
0000
0010
0001
1000
0001
0000
0100
0010
0000
1000
,
0010
0100
0010
0000
1000
0100
0000
1000
0001
0010
0100
0000
1000
0100
0000
0010
,
0001
1000
0001
0000
0010
0100
0000
1000
0001
0100
0010
0000
0100
0001
0000
1000
,
0001
0010
0001
0000
0100
0010
0000
1000
0010
0100
0001
0000
1000
0100
0000
0010
,
0001
1000
0100
0000
0010
0001
0000
1000
0001
1000
0010
0000
0100
0001
0000
1000
,
0100
1000
0010
0000
0100
0001
0000
0010
0001
1000
0001
0000
0010
0100
0000
1000
,
0001
1000
0010
0000
0100
0001
0000
1000
0010
1000
0100
0000
0010
0001
0000
1000
,
0001
1000
0010
0000
0100
0001
0000
1000
0100
1000
0001
0000
0010
0100
0000
1000
,
0001
1000
0010
0000
0100
0001
0000
1000
0100
1000
0010
0000
0100
0001
0000
1000
,
0100
1000
0001
0000
0010
0100
0000
1000
0001
1000
0010
0000
0100
0001
0000
1000
,
0100
0010
0001
1000
0100
1000
0001
0100
0010
1000
0010
0100
0001
1000
0100
1000
,
0001
0010
0001
0100
0010
1000
0010
0100
0001
1000
0100
0010
0001
1000
0100
1000
,
0001
0010
0100
0010
0001
1000
0100
1000
0001
0010
0001
0100
0010
1000
0010
0100
,
0010
1000
0001
0100
0001
1000
0100
0010
0001
1000
0100
1000
0001
0010
0100
0010
,
0001
1000
0010
1000
0001
0100
0001
1000
0010
0100
0010
1000
0100
0010
0001
1000
,
0100
0010
0100
1000
0001
0010
0001
1000
0100
0010
0001
1000
0100
1000
0001
0100
,
0010
1000
0010
0100
0001
1000
0010
0100
0010
1000
0001
0100
0010
0100
0001
1000
,
0010
1000
0001
0100
0001
1000
0100
1000
0001
0010
0100
0010
0001
1000
0100
1000
,
0001
0100
0001
0010
0100
1000
0001
1000
0010
0100
0001
0100
0010
1000
0001
1000
,
0100
0010
0001
1000
0100
1000
0001
0010
0100
0010
0001
1000
0010
1000
0100
0010
,
0001
1000
0100
1000
0001
0100
0010
1000
0010
0100
0010
1000
0001
0010
0100
1000
,
0001
1000
0010
0100
0010
1000
0001
0100
0001
0010
0100
1000
0001
0010
0001
0100
,
0010
1000
0010
0100
0001
1000
0010
1000
0100
0010
0001
1000
0100
1000
0001
0100
,
0001
0010
0001
0100
0010
1000
0010
0100
0001
1000
0100
0010
0001
1000
0010
0100
,
0001
1000
0001
0010
0100
1000
0010
1000
0001
0100
0010
0100
0001
1000
0010
1000
,
0100
0010
0001
1000
0010
0100
0001
1000
0100
1000
0001
0100
0010
1000
0010
0100
,
0001
1000
0100
1000
0010
0100
0001
1000
0010
1000
0100
0010
0001
1000
0100
1000
,
0001
0010
0001
0100
0010
1000
0010
0100
0001
1000
0010
1000
0100
0010
0001
1000
,
0001
0100
0010
1000
0010
0100
0001
1000
0100
1000
0001
0010
0100
1000
0001
0010
,
0001
0100
0010
1000
0010
0100
0001
1000
0010
1000
0100
0010
0001
1000
0100
1000
,
0001
0010
0001
0100
0010
1000
0010
0100
0001
1000
0100
1000
0001
0100
0010
1000
,
0010
0100
0001
1000
0100
0010
0001
1000
0100
1000
0001
0010
0001
0100
0010
1000
,
0010
0100
0001
1000
0010
1000
0100
0010
0001
1000
0100
1000
0010
0100
0001
0100
,
0010
1000
0001
1000
0100
0010
0001
1000
0100
0010
0100
1000
0001
0010
0001
1000
,
0001
0100
0010
0100
0001
1000
0010
1000
0001
0010
0001
0100
0010
1000
0001
0010
,
0100
1000
0001
0010
0001
0100
0010
1000
0010
0100
0001
1000
0010
1000
0100
0010
,
0001
1000
0100
1000
0010
0100
0010
1000
0001
0100
0001
0010
0100
1000
0001
0100
,
0001
1000
0010
0100
0010
1000
0001
1000
0100
0010
0001
1000
0100
1000
0001
0010
,
0001
0100
0010
1000
0010
0100
0001
1000
0100
1000
0001
0010
0001
0100
0010
1000
,
0010
0100
0010
1000
0001
0100
0001
0010
0100
1000
0001
0010
0001
1000
0100
1000
,
0010
0100
0001
1000
0100
0010
0001
0010
0100
1000
0001
0010
0001
0100
0010
1000
,
0010
0100
0001
1000
0010
1000
0100
0010
0001
1000
0100
1000
0001
0100
0001
0010
,
0100
1000
0001
0010
0001
0100
0010
1000
0010
0100
0001
1000
0010
1000
0100
1000
,
0001
0100
0010
1000
0010
0100
0001
1000
0100
0010
0001
1000
0100
1000
0001
0010
,
0001
0100
0010
1000
0010
1000
0100
0010
0001
1000
0001
1000
0100
0010
0001
1000
,
0100
1000
0001
0010
0100
0010
0001
1000
0010
1000
0001
0010
0001
0100
0010
1000
,
0010
0100
0001
1000
0100
1000
0010
0100
0001
1000
0100
1000
0001
0010
0001
0100
,
0010
1000
0010
0100
0001
1000
0100
1000
0001
0010
0001
0100
0010
1000
0010
0100
,
0001
1000
0100
0010
0001
1000
0100
1000
0001
0010
0001
0100
0010
1000
0010
0100
,
0001
1000
0100
1000
0001
0010
0001
0100
0010
1000
0010
0100
0010
1000
0001
0100
,
0001
0010
0100
1000
0001
0010
0001
0100
0010
1000
0010
0100
0001
1000
0100
0010
,
0001
1000
0100
1000
0010
0100
0001
0100
0010
1000
0001
1000
0100
0010
0001
1000
,
0100
1000
0001
0010
0001
1000
0100
1000
0001
0010
0100
1000
0100
0010
0001
1000
,
0100
1000
0001
0010
0100
0010
0001
0100
0010
1000
0010
0100
0001
1000
0001
0100
,
0010
1000
0100
1000
0001
0010
0001
1000
0100
0010
0100
1000
0001
0010
0001
0100
,
0001
1000
0010
1000
0100
0010
0001
1000
0100
1000
0010
0100
0001
1000
0001
0100
,
0010
1000
0010
0100
0001
1000
0100
0010
0001
1000
0100
1000
0010
0100
0001
1000
,
0010
0100
0010
1000
0001
0010
0100
1000
0001
1000
0010
0100
0001
1000
0001
0010
,
0100
1000
0001
0010
0001
1000
0100
0010
0100
1000
0001
1000
0010
1000
0001
0100
,
0001
1000
0010
1000
0100
0010
0001
1000
0001
1000
0100
0010
0001
1000
0100
1000
,
0001
0010
0100
0010
0001
1000
0010
1000
0001
0010
0001
0100
0010
1000
0010
0100
,
0001
1000
0100
1000
0010
0100
0001
1000
0100
1000
0001
0010
0001
0100
0010
1000
,
0010
0100
0001
1000
0100
1000
0001
0010
0001
0100
0010
1000
0010
0100
0001
1000
,
0100
0010
0001
1000
0100
1000
0001
0010
0001
0100
0010
1000
0010
0100
0001
1000
,
0100
1000
0001
0010
0001
0100
0010
1000
0010
0100
0010
1000
0001
0100
0001
0010
,
0100
1000
0001
0010
0001
0100
0010
1000
0010
0100
0001
1000
0100
0010
0001
1000
,
0100
1000
0010
0100
0001
0100
0010
1000
0001
1000
0100
0010
0001
1000
0100
1000
,
0001
0010
0001
1000
0100
1000
0001
0010
0100
1000
0100
0010
0001
1000
0100
1000
,
0001
0010
0100
0010
0001
0100
0010
1000
0010
0100
0001
1000
0001
0100
0010
1000
,
0100
1000
0001
0010
0001
1000
0100
0010
0100
1000
0001
0010
0001
0100
0001
1000
,
0010
1000
0100
0010
0001
1000
0100
1000
0010
0100
0001
1000
0001
0100
0010
1000
,
0010
0100
0001
1000
0100
0010
0001
1000
0100
1000
0010
0100
0001
1000
0010
0100
,
0001
1000
0010
1000
0100
0010
0001
1000
0001
1000
0100
0010
0001
1000
0100
1000
,
0001
0010
0100
0010
0001
1000
0010
1000
0001
0010
0001
0100
0010
1000
0010
0100
,
0001
1000
0100
1000
0010
0100
0001
1000
0100
1000
0001
0010
0001
0100
0010
1000
,
0010
0100
0001
1000
0100
1000
0001
0010
0001
0100
0010
1000
0010
0100
0001
1000
,
0100
0010
0001
1000
0100
1000
0001
0010
0001
0100
0010
1000
0010
0100
0001
1000
,
0100
1000
0001
0010
0001
0100
0010
1000
0010
0100
0010
1000
0001
0100
0001
0010
,
0100
1000
0001
0010
0001
0100
0010
1000
0010
0100
0001
1000
0100
0010
0001
1000
,
0100
1000
0010
0100
0001
0100
0010
1000
0001
1000
0100
0010
0001
1000
0100
1000
,
0001
0010
0001
1000
0100
1000
0001
0010
0100
1000
0100
0010
0001
1000
0100
1000
,
0001
0010
0100
0010
0001
0100
0010
1000
0010
0100
0001
1000
0001
0100
0010
1000
,
0100
1000
0001
0010
0001
1000
0100
0010
0100
1000
0001
0010
0001
0100
0001
1000
,
0010
1000
0100
0010
0001
1000
0100
1000
0010
0100
0001
1000
0001
0100
0010
1000
,
0010
0100
0001
1000
0100
0010
0001
1000
0100
1000
0010
0100
0001
1000
0010
0100
,
0010
1000
0001
0010
0100
1000
0001
1000
0010
0100
0001
1000
0001
0010
0100
1000
,
0001
0010
0001
1000
0100
0010
0100
1000
0001
1000
0010
1000
0001
0100
0001
0010
,
0100
1000
0001
1000
0010
0100
0010
1000
0100
0010
0100
1000
0001
0010
0001
1000
,
0010
1000
0100
0010
0001
1000
0100
1000
0001
0100
0010
1000
0001
0010
0001
0100
,
0010
1000
0010
0100
0001
1000
0100
0010
0001
1000
0100
1000
0010
0100
0001
1000
,
0001
0100
0001
0000
0010
0100
0000
1000
0010
1000
0001
0000
0010
0001
0000
1000
,
0010
1000
0100
0000
0010
0001
0000
0010
0100
1000
0001
0000
0100
0001
0000
1000
,
0010
1000
0001
0000
0010
0100
0000
1000
0001
1000
0010
0000
0100
0001
0000
1000
,
0100
1000
0010
0000
0100
0001
0000
1000
0001
0010
0001
0000
0100
0010
0000
1000
,
0001
1000
0100
0000
0010
0001
0000
1000
0010
0100
0010
0000
1000
0001
0000
0010
,
0100
1000
0001
0000
0100
0001
0000
1000
0010
1000
0001
0000
0010
0100
0000
1000
,
0100
1000
0001
0000
0100
0010
0000
1000
0001
0010
0100
0000
1000
0010
0000
0100
,
0001
1000
0001
0000
0100
0010
0000
1000
0100
1000
0010
0000
0100
0001
0000
1000
,
0100
0010
0001
0000
1000
0100
0000
0010
0001
1000
0001
0000
0100
0010
0000
1000
,
0010
0100
0001
0000
1000
0001
0000
0010
0100
1000
0001
0000
0010
0100
0000
1000
,
0001
1000
0010
0000
0100
0001
0000
1000
0100
1000
0010
0000
0100
0001
0000
0010
,
0001
1000
0001
0000
0010
0100
0000
1000
0100
1000
0001
0000
0100
0001
0000
1000
,
0010
1000
0001
0000
0100
0010
0000
1000
0100
1000
0001
0000
0010
0100
0000
1000
,
0001
1000
0100
0000
0010
0001
0000
1000
0001
1000
0010
0000
0100
0001
0000
1000
,
0001
1000
0010
0000
0100
0001
0000
0100
0010
1000
0001
0000
0010
0001
0000
1000
,
0010
0100
0001
0000
1000
0001
0000
0010
0100
1000
0001
0000
0100
0001
0000
1000
,
0010
1000
0001
0000
0010
0100
0000
1000
0001
1000
0010
0000
0100
0001
0000
1000
,
0100
1000
0010
0000
0100
0001
0000
1000
0001
0010
0001
0000
0100
0010
0000
1000
,
0001
1000
0100
0000
0010
0001
0000
1000
0010
0100
0010
0000
1000
0001
0000
0010
,
0100
1000
0001
0000
0100
0001
0000
1000
0010
1000
0001
0000
0010
0100
0000
1000
,
0100
1000
0001
0000
0100
0010
0000
1000
0001
0010
0100
0000
1000
0010
0000
0100
,
0001
1000
0001
0000
0100
0010
0000
1000
0100
1000
0010
0000
0100
0001
0000
1000
,
0100
0010
0001
0000
1000
0100
0000
0010
0001
1000
0001
0000
0100
0010
0000
1000
,
0010
0100
0001
0000
1000
0001
0000
0010
0100
1000
0001
0000
0010
0100
0000
1000
,
0001
1000
0010
0000
0100
0001
0000
1000
0100
1000
0010
0000
0100
0001
0000
0010
,
0001
1000
0001
0000
0010
0100
0000
1000
0100
1000
0001
0000
0100
0001
0000
1000
,
0010
1000
0001
0000
0100
0010
0000
1000
0100
1000
0001
0000
0010
0100
0000
1000
,
0001
1000
0100
0000
0010
0001
0000
1000
0001
1000
0010
0000
0100
0001
0000
0100
,
0001
1000
0001
0000
0010
0100
0000
1000
0001
1000
0010
0000
0100
0001
0000
1000
,
0100
1000
0010
0000
0100
0001
0000
0010
0100
1000
0001
0000
0100
0001
0000
1000
,
0010
1000
0001
0000
0010
0100
0000
1000
0001
0100
0001
1000
0010
0100
0010
1000
,
0001
0010
0001
1000
0100
0010
0001
1000
0100
1000
0010
0100
0001
0100
0010
1000
,
0001
0100
0010
0100
0001
1000
0010
1000
0100
0010
0001
0010
0100
1000
0001
1000
,
0100
0010
0001
1000
0010
1000
0100
0010
0001
1000
0010
0100
0001
0100
0010
1000
,
0001
1000
0100
1000
0001
0010
0001
0100
0010
1000
0010
0100
0001
1000
0100
0010
,
0001
1000
0100
1000
0001
0010
0001
0100
0010
1000
0010
0100
0001
1000
0010
1000
,
0100
0010
0001
1000
0100
1000
0001
0010
0100
0010
0001
1000
0100
1000
0010
1000
,
0001
0100
0010
0100
0001
1000
0010
1000
0001
0010
0001
0100
0010
0100
0001
1000
,
0010
1000
0100
0010
0001
1000
0001
0100
0001
0010
0100
1000
0010
1000
0100
0010
,
0100
1000
0001
0010
0001
1000
0001
0100
0010
0100
0001
1000
0100
0010
0001
1000
,
0100
1000
0001
0010
0001
0100
0010
1000
0010
0100
0001
1000
0100
0010
0001
1000
,
0100
1000
0001
0010
0001
0100
0010
1000
0010
0100
0001
1000
0010
1000
0100
0010
,
0001
1000
0100
1000
0001
0010
0001
0100
0010
0100
0001
1000
0010
1000
0001
0100
,
0010
0100
0001
1000
0100
0010
0100
1000
0001
0010
0001
1000
0100
0010
0100
1000
,
0001
0010
0001
0100
0010
1000
0010
0100
0001
1000
0010
1000
0100
0010
0001
0010
,
0100
1000
0001
0010
0001
0100
0010
1000
0010
0100
0001
1000
0010
1000
0100
0010
,
0001
1000
0100
1000
0001
0010
0001
0100
0010
1000
0010
0100
0001
1000
0010
1000
,
0100
0010
0001
0100
0001
1000
0100
1000
0001
0010
0100
1000
0001
1000
0010
0100
,
0001
1000
0100
1000
0010
0100
0001
1000
0010
1000
0010
0100
0001
1000
0010
1000
,
0100
0010
0001
0100
0001
1000
0010
1000
0100
0010
0001
1000
0100
1000
0001
0100
,
0010
1000
0010
0100
0001
0100
0010
1000
0001
1000
0100
0010
0001
1000
0100
1000
,
0001
0010
0001
0100
0010
1000
0010
0100
0001
1000
0001
0010
0001
0100
0010
1000
,
0010
0100
0001
1000
0010
1000
0001
1000
0010
0100
0010
1000
0001
0010
0001
0100
,
0010
1000
0010
0100
0001
1000
0100
0010
0001
1000
0100
1000
0010
0100
0001
0100
,
0010
1000
0001
1000
0100
0010
0001
1000
0100
1000
0010
0100
0001
0100
0010
1000
,
0100
1000
0001
0010
0001
0100
0010
1000
0010
0100
0001
1000
0100
0010
0001
1000
,
0100
1000
0010
0100
0001
0100
0010
1000
0001
1000
0100
0010
0001
1000
0100
1000
,
0001
0010
0001
0100
0010
1000
0010
0100
0001
1000
0100
0010
0001
1000
0100
1000
,
0001
0010
0001
0100
0010
1000
0010
0100
0001
1000
0100
0010
0001
1000
0100
1000
,
0001
0100
0010
1000
0010
0100
0010
1000
0001
0010
0100
0010
0001
1000
0100
1000
,
0001
0010
0001
1000
0010
1000
0100
0010
0001
1000
0100
1000
0001
0010
0001
0100
,
0010
1000
0010
0100
0010
1000
0001
0100
0001
0010
0100
1000
0001
0010
0001
0100
,
0010
1000
0010
0100
0001
1000
0100
0010
0001
1000
0100
1000
0010
0100
0001
0100
,
0010
1000
0100
0010
0001
0100
0001
1000
0010
0100
0010
1000
0001
0010
0100
1000
,
0010
1000
0010
0100
0001
1000
0100
1000
0001
0010
0001
0100
0010
1000
0010
0100
,
0001
1000
0100
0010
0001
1000
0100
1000
0001
0010
0100
0010
0001
1000
0100
1000
,
0001
0010
0001
0100
0010
1000
0010
0100
0010
1000
0001
0100
0001
1000
0100
0010
,
0001
1000
0100
1000
0001
0010
0100
0010
0001
1000
0010
1000
0001
0100
0001
1000
,
0010
0100
0010
1000
0100
0010
0001
1000
0100
0010
0100
1000
0001
0010
0001
1000
,
0100
0010
0001
1000
0100
1000
0001
0100
0010
1000
0010
0100
0001
1000
0010
0100
,
0010
1000
0001
0100
0010
0100
0001
1000
0010
1000
0001
0100
0001
1000
0100
1000
,
0001
0010
0100
0010
0001
1000
0100
1000
0001
0100
0001
0010
0100
1000
0001
1000
,
0010
0100
0001
0100
0010
1000
0001
1000
0100
0010
0001
1000
0100
1000
0001
0010
,
0100
0010
0001
1000
0010
1000
0100
0010
0001
1000
0100
1000
0001
0100
0010
1000
,
0010
0100
0010
1000
0001
0010
0100
1000
0001
1000
0010
0100
0010
1000
0001
0100
,
0001
0010
0100
1000
0001
0010
0001
0100
0010
1000
0010
0100
0001
1000
0010
1000
,
0100
0010
0001
1000
0100
1000
0001
0100
0001
0010
0001
0100
0010
1000
0010
0100
,
0001
1000
0100
0010
0001
1000
0010
0100
0001
1000
0001
0010
0100
1000
0010
1000
,
0001
0100
0010
0100
0001
1000
0010
1000
0100
0010
0001
1000
0010
0100
0001
1000
,
0100
1000
0001
0100
0010
1000
0010
0100
0001
1000
0100
1000
0010
0100
0001
1000
,
0010
1000
0100
0010
0001
1000
0100
1000
0001
0010
0001
0100
0010
1000
0010
0100
,
0001
1000
0010
1000
0100
0010
0001
1000
0001
0100
0010
1000
0010
0100
0001
1000
,
0100
1000
0001
0010
0100
1000
0001
0010
0001
0100
0010
1000
0010
0100
0001
1000
,
0010
1000
0100
0010
0001
1000
0100
1000
0001
0010
0001
0100
0010
1000
0010
0100
,
0001
1000
0100
1000
0001
0100
0010
1000
0010
0100
0001
1000
0100
0010
0001
1000
,
0100
1000
0001
0010
0001
0100
0010
1000
0010
0100
0001
1000
0010
1000
0100
0010
,
0001
1000
0100
1000
0010
0100
0001
0100
0010
1000
0001
1000
0100
0010
0001
1000
,
0100
0010
0100
1000
0001
0010
0001
1000
0001
0100
0010
0100
0001
1000
0010
1000
,
0001
0010
0001
0100
0010
1000
0001
0010
0100
1000
0001
0010
0001
0100
0010
1000
,
0010
0100
0001
1000
0010
1000
0100
0010
0001
1000
0100
1000
0010
0100
0010
1000
,
0001
0100
0001
0010
0100
1000
0001
0100
0001
1000
0010
0100
0010
1000
0001
1000
,
0100
0010
0001
1000
0100
1000
0001
0010
0001
0100
0010
1000
0010
0100
0001
1000
,
0100
1000
0001
0010
0001
0100
0010
1000
0010
0100
0010
1000
0001
0100
0001
0010
,
0100
1000
0001
0010
0001
1000
0100
1000
0010
0100
0001
1000
0100
0010
0001
0010
,
0100
1000
0001
0010
0001
0100
0010
1000
0010
0100
0001
1000
0010
1000
0100
0010
,
0001
1000
0001
0100
0010
1000
0010
0100
0001
1000
0010
1000
0100
0010
0001
1000
,
0100
1000
0001
0010
0001
0100
0010
1000
0010
0100
0001
1000
0010
1000
0100
0010
,
0001
1000
0100
1000
0001
0010
0001
1000
0100
0010
0001
0010
0100
1000
0001
0010
,
0001
0100
0010
1000
0010
0100
0010
1000
0001
0100
0001
0010
0100
1000
0001
0010
,
0001
0100
0010
1000
0010
0100
0001
1000
0100
1000
0010
0100
0010
1000
0001
0100
,
0001
0010
0100
1000
0100
0010
0001
1000
0010
1000
0100
0010
0001
1000
0100
1000
,
0001
0100
0010
1000
0010
0100
0001
1000
0010
1000
0100
0010
0001
1000
0100
1000
,
0001
0010
0001
0100
0010
1000
0010
0100
0001
1000
0100
0010
0001
1000
0100
1000
,
0001
0010
0001
0100
0010
1000
0010
0100
0001
1000
0010
1000
0100
0010
0001
1000
,
0100
1000
0010
0100
0010
1000
0001
0010
0001
0100
0010
1000
0010
0100
0001
1000
,
0100
1000
0010
0100
0010
1000
0001
0010
0100
0010
0001
1000
0010
1000
0100
0010
,
0001
1000
0010
1000
0100
0010
0001
1000
0001
0100
0010
1000
0010
0100
0001
1000
,
0100
1000
0001
0010
0001
0100
0010
1000
0010
0100
0001
1000
0100
1000
0010
0100
,
0010
1000
0001
0010
0100
0010
0001
1000
0010
1000
0001
0100
0010
1000
0010
0100
,
0001
1000
0100
1000
0001
1000
0100
0010
0001
1000
0100
1000
0010
0100
0010
1000
,
0001
0010
0001
0100
0010
1000
0010
0100
0001
1000
0100
0010
0100
1000
0001
1000
,
0010
0100
0001
1000
0001
0100
0010
1000
0001
0010
0001
1000
0100
0010
0001
1000
,
0010
0100
0001
0010
0001
1000
0100
1000
0001
0010
0001
0100
0010
1000
0010
0100
,
0001
1000
0100
0010
0001
1000
0100
1000
0001
0010
0100
0010
0001
1000
0100
1000
,
0001
0010
0001
0100
0010
1000
0010
0100
0010
1000
0001
0100
0001
1000
0100
0010
,
0001
1000
0100
1000
0001
0010
0100
0010
0001
1000
0010
1000
0001
0100
0001
1000
,
0010
0100
0010
1000
0100
0010
0001
1000
0100
0010
0100
1000
0001
0010
0001
1000
,
0100
0010
0001
1000
0100
1000
0001
0100
0010
1000
0010
0100
0001
1000
0010
0100
,
0010
1000
0001
0100
0010
0100
0001
1000
0010
1000
0001
0100
0001
1000
0100
1000
,
0001
0010
0100
0010
0001
1000
0100
1000
0001
0100
0001
0010
0100
1000
0001
1000
,
0010
0100
0001
0100
0010
1000
0001
1000
0100
0010
0001
1000
0100
1000
0001
0010
,
0100
0010
0001
1000
0010
1000
0100
0010
0001
1000
0100
1000
0001
0100
0010
1000
,
0010
0100
0010
1000
0001
0010
0100
1000
0001
1000
0010
0100
0010
1000
0001
0100
,
0001
0010
0100
1000
0001
0010
0001
0100
0010
1000
0010
0100
0001
1000
0010
1000
,
0100
0010
0001
1000
0100
1000
0001
0100
0001
0010
0001
0100
0010
1000
0010
0100
,
0001
1000
0100
0010
0001
1000
0010
0100
0001
1000
0001
0010
0100
1000
0010
1000
,
0001
0100
0010
0100
0001
1000
0010
1000
0100
0010
0001
1000
0010
0100
0001
1000
,
0100
1000
0001
0100
0010
1000
0010
0100
0001
1000
0100
1000
0010
0100
0001
1000
,
0010
1000
0100
0010
0001
1000
0100
1000
0001
0010
0001
0100
0010
1000
0010
0100
,
0001
1000
0010
1000
0100
0010
0001
1000
0001
0100
0010
1000
0010
0100
0001
1000
,
0100
1000
0001
0010
0100
1000
0001
0010
0001
0100
0010
1000
0010
0100
0001
1000
,
0010
1000
0100
0010
0001
1000
0100
1000
0001
0010
0001
0100
0010
1000
0010
0100
,
0001
1000
0100
1000
0001
0100
0010
1000
0010
0100
0001
1000
0100
0010
0001
1000
,
0100
1000
0001
0010
0001
0100
0010
1000
0010
0100
0001
1000
0010
1000
0100
0010
,
0001
1000
0100
1000
0010
0100
0001
0100
0010
1000
0001
1000
0100
0010
0001
1000
,
0100
0010
0100
1000
0001
0010
0001
1000
0001
0100
0010
0100
0001
1000
0010
1000
,
0001
0010
0001
0100
0010
1000
0001
0010
0100
1000
0001
0010
0001
0100
0010
1000
,
0010
0100
0001
1000
0010
1000
0100
0010
0001
1000
0100
1000
0010
0100
0010
1000
,
0001
0100
0001
0010
0100
1000
0001
0100
0001
1000
0010
0100
0010
1000
0001
1000
,
0100
0010
0001
1000
0100
1000
0001
0010
0001
0100
0010
1000
0010
0100
0001
1000
,
0100
1000
0001
0010
0001
0100
0010
1000
0010
0100
0010
1000
0001
0100
0001
0010
,
0100
1000
0001
0010
0001
1000
0100
1000
0010
0100
0001
1000
0100
0010
0001
0010
,
0100
1000
0001
0010
0001
0100
0010
1000
0010
0100
0001
1000
0010
1000
0100
0010
,
0001
1000
0010
1000
0100
0010
0001
1000
0100
1000
0001
0100
0010
1000
0010
0100
,
0001
1000
0001
0000
1000
0010
0000
0100
0010
1000
0001
0000
0100
0001
0000
1000
,
0010
1000
0100
0000
0010
0001
0000
0010
0100
1000
0001
0000
0100
0001
0000
1000
,
0010
1000
0001
0000
0010
0100
0000
1000
0001
1000
0010
0000
0100
0001
0000
1000
,
0100
1000
0010
0000
0100
0001
0000
1000
0001
0010
0001
0000
0100
0010
0000
1000
,
0001
1000
0100
0000
0010
0001
0000
1000
0010
0100
0010
0000
1000
0001
0000
0010
,
0100
1000
0001
0000
0100
0001
0000
1000
0010
1000
0001
0000
0010
0100
0000
1000
,
0100
1000
0001
0000
0100
0010
0000
1000
0001
0010
0100
0000
1000
0010
0000
0100
,
0001
1000
0001
0000
0100
0010
0000
1000
0100
1000
0010
0000
0100
0001
0000
1000
,
0100
0010
0001
0000
1000
0100
0000
0010
0001
1000
0001
0000
0100
0010
0000
1000
,
0010
0100
0001
0000
1000
0001
0000
0010
0100
1000
0001
0000
0010
0100
0000
1000
,
0001
1000
0010
0000
0100
0001
0000
1000
0100
1000
0010
0000
0100
0001
0000
0010
,
0001
1000
0001
0000
0010
0100
0000
1000
0100
1000
0001
0000
0100
0001
0000
1000
,
0010
1000
0001
0000
0100
0010
0000
1000
0100
1000
0001
0000
0010
0100
0000
1000
,
0001
1000
0100
0000
0010
0001
0000
1000
0001
1000
0010
0000
0100
0001
0000
1000
,
0100
0010
0001
1000
0001
0100
0010
1000
0010
0100
0001
1000
0100
1000
0001
0010
,
0001
0100
0010
1000
0010
0100
0001
1000
0100
0010
0100
1000
0001
1000
0010
0100
,
0002
0000
0000
0000
,
0000
0000
0000
0000
,
0000
0000
0000
0000
,
0000
0000
0000
0000
,
0000
0000
0000
0000
,
0000
0000
0000
0003
;

//---------------dance-single - 18-16/31-48/113/2----------------
#NOTES:
     dance-single:
     18-16/31-48/113/2:
     Challenge:
     21:
     1.000,1.000,0.000,0.002,1.000,6488.000,0.000,1.000,0.000,0.000:
1000
0100
0010
0000
0001
0100
0000
0010
0000
1000
0001
0000
1000
0100
0000
0010
,
0000
0001
1000
0000
0010
1000
0000
0001
0000
0010
0100
0000
1000
0001
0000
0100
,
0000
0001
0010
0000
0100
1000
0000
0001
0000
1000
0010
0000
0100
0001
0000
1000
,
0000
0100
0010
0000
0001
1000
0000
0001
0000
0010
0100
0000
1000
0100
0000
0010
,
0000
0001
1000
0000
0010
0100
0000
0001
0000
0010
0001
0000
1000
0001
0000
0100
,
0000
0010
1000
0000
0010
0100
0000
0001
0000
1000
0100
0000
0010
0001
0000
1000
,
0000
0010
1000
0000
0001
1000
0000
0100
0000
0010
0001
0000
1000
0010
0000
0100
,
0000
0001
1000
0000
0100
1000
0000
0010
0000
0100
0001
0000
1000
0100
0000
0010
,
0000
0001
0010
0000
0001
1000
0000
0010
0000
1000
0100
0000
0010
0001
0000
1000
,
0000
0010
1000
0000
0001
0010
0000
0100
0000
1000
0001
0000
0100
0001
0000
0010
,
0000
0100
1000
0000
0100
1000
0000
0010
0000
0100
0001
0000
1000
0001
0000
0010
,
0000
0100
1000
0000
0001
1000
0000
0010
0000
0100
0001
0000
1000
0010
0000
0100
,
0000
0001
0010
0000
0001
0100
0000
0010
0000
1000
0001
0000
0100
0010
0000
1000
,
0000
0001
0010
0000
0100
1000
0000
0001
0000
1000
0001
0000
0100
0010
0000
0100
,
0000
0001
0010
0000
0100
1000
0000
0001
0000
1000
0010
0000
0100
0001
0000
1000
,
0000
0001
0010
0000
0100
1000
0000
0001
0000
0100
0001
0000
1000
0010
0000
0100
,
0001
1000
0001
0000
0010
0100
0000
1000
0001
1000
0010
0000
0100
0001
0000
1000
,
0100
1000
0010
0000
0100
0001
0000
0010
0100
1000
0001
0000
0100
0001
0000
1000
,
0010
1000
0001
0000
0010
0100
0000
1000
0001
1000
0010
0000
0100
0001
0000
1000
,
0100
1000
0010
0000
0100
0001
0000
1000
0001
0010
0001
0000
0100
0010
0000
1000
,
0001
1000
0100
0000
0010
0001
0000
1000
0010
0100
0010
0000
1000
0001
0000
0010
,
0100
1000
0001
0000
0100
0001
0000
1000
0010
1000
0001
0000
0010
0100
0000
1000
,
0100
1000
0001
0000
0100
0010
0000
1000
0001
0010
0100
0000
1000
0010
0000
0100
,
0001
1000
0001
0000
0100
0010
0000
1000
0100
1000
0010
0000
0100
0001
0000
1000
,
0100
0010
0001
0000
1000
0100
0000
0010
0001
1000
0001
0000
0100
0010
0000
1000
,
0010
0100
0001
0000
1000
0001
0000
0010
0100
1000
0001
0000
0010
0100
0000
1000
,
0001
1000
0010
0000
0100
0001
0000
1000
0100
1000
0010
0000
0100
0001
0000
0010
,
0001
1000
0001
0000
0010
0100
0000
1000
0100
1000
0001
0000
0100
0001
0000
1000
,
0010
1000
0001
0000
0100
0010
0000
1000
0100
1000
0001
0000
0010
0100
0000
1000
,
0001
1000
0100
0000
0010
0001
0000
1000
0001
1000
0010
0000
0100
0001
0000
1000
,
0010
0100
0010
1000
0001
0100
0001
0010
0100
1000
0100
0010
0001
1000
0001
0100
,
0010
0000
0000
1000
0000
0000
0010
0000
0000
0100
0000
0000
0001
0000
0000
1000
0000
0000
0100
0000
0010
0000
0001
0000
1000
0000
0001
0000
0100
0000
0010
0000
1000
0000
0010
0000
0100
0000
0001
0000
1000
0000
0100
0000
1000
0000
0010
0000
,
0100
0001
1000
0001
0010
0100
1000
0001
0010
0001
0100
0010
1000
0010
0100
0001
1000
0100
1000
0001
0010
0001
1000
0010
,
0100
0001
0100
0010
1000
0001
1000
0100
0010
0001
1000
0100
1000
0010
0100
0010
1000
0001
0010
0100
1000
0001
1000
0010
,
0100
0001
0100
0010
1000
0001
1000
0100
0010
0001
1000
0100
1000
0010
0100
0001
0100
0010
1000
0001
1000
0001
0010
0100
,
1000
0001
0100
0001
1000
0010
0100
0001
1000
0100
1000
0001
0010
0100
1000
0100
0010
0001
1000
0010
1000
0100
0010
0001
,
1000
0100
1000
0001
0100
0010
1000
0010
0100
0001
1000
0100
0010
0100
1000
0001
0010
0001
0100
0010
1000
0010
0100
0001
,
1000
0001
0010
0100
1000
0001
0010
0001
0100
0010
1000
0010
0100
0001
1000
0100
1000
0001
0010
0001
0100
0010
1000
0010
,
0100
0001
1000
0100
1000
0010
0100
0001
0100
0010
1000
0001
1000
0100
0010
0001
1000
0100
1000
0001
0010
0001
0100
0010
,
1000
0010
0100
0001
1000
0001
0010
0100
1000
0001
0010
0001
0100
0010
1000
0010
0100
0001
1000
0100
1000
0010
0100
0010
,
1000
0001
0010
0001
0100
0010
1000
0010
0100
0001
1000
0100
0010
0001
1000
0001
0010
0100
1000
0100
0010
0001
1000
0100
,
1000
0001
1000
0010
0100
0010
1000
0001
0010
0001
0100
0010
1000
0010
0100
0001
1000
0100
1000
0001
0010
0001
0100
0010
,
1000
0010
0100
0001
1000
0100
1000
0001
0010
0001
0100
0010
1000
0010
0100
0001
1000
0100
1000
0001
0010
0001
0100
0010
,
1000
0010
0100
0001
1000
0100
1000
0010
0100
0010
1000
0001
0010
0001
0100
0010
1000
0010
0100
0001
1000
0100
0010
0001
,
1000
0100
1000
0001
0010
0001
0100
0010
1000
0010
0100
0001
1000
0100
1000
0001
0010
0001
0100
0010
1000
0010
0100
0001
,
1000
0100
1000
0001
0010
0100
1000
0001
0010
0001
0100
0010
1000
0010
0100
0001
1000
0100
1000
0001
1000
0010
0100
0010
,
1000
0001
0010
0001
0100
0010
1000
0100
1000
0001
1000
0010
0100
0010
1000
0001
0100
0001
1000
0010
0100
0001
0100
0010
,
1000
0000
0001
0000
0010
0000
0100
0000
0010
0000
0001
0000
1000
0000
0100
0000
1000
0000
0001
0000
0100
0000
0010
0000
1000
0000
0010
0000
0100
0000
0001
0000
1000
0000
0010
0000
1000
0000
0000
0100
0000
0000
0000
0000
0000
0010
0000
0000
,
0001
1000
0001
0100
0010
1000
0010
0100
0001
1000
0100
1000
0010
0100
0010
1000
0001
0100
0001
0010
0100
1000
0100
0010
,
0001
1000
0100
1000
0001
0100
0010
1000
0010
0100
0001
1000
0100
0010
0001
1000
0100
1000
0001
0010
0001
0100
0010
1000
,
0010
0100
0001
1000
0100
1000
0010
0100
0010
1000
0001
0100
0001
0010
0100
1000
0001
0010
0001
0100
0010
1000
0010
0100
,
0001
1000
0100
1000
0010
0100
0010
1000
0001
0010
0001
0100
0010
1000
0010
0100
0001
1000
0100
0010
0100
1000
0001
1000
,
0010
0100
0010
1000
0001
0100
0001
0010
0100
1000
0001
0010
0001
0100
0010
1000
0010
0100
0001
1000
0100
1000
0010
0100
,
0001
0100
0010
1000
0001
1000
0100
0010
0001
1000
0100
1000
0010
0100
0001
1000
0100
1000
0001
0010
0001
0100
0010
1000
,
0010
0100
0001
1000
0001
0100
0001
0010
0100
1000
0001
1000
0010
0100
0010
1000
0010
0100
0001
1000
0100
1000
0010
0100
,
0001
0100
0010
1000
0001
1000
0100
0010
0001
1000
0100
0010
0100
1000
0001
1000
0010
0100
0001
1000
0100
1000
0001
0010
,
0001
0100
0010
1000
0001
0100
0001
1000
0010
0100
0010
1000
0001
0010
0001
0100
0010
1000
0001
0100
0001
0010
0100
1000
,
0100
1000
0001
0010
0001
0100
0010
1000
0010
0100
0001
1000
0100
1000
0001
0100
0010
1000
0010
0100
0001
1000
0100
0010
,
0001
1000
0100
1000
0001
0010
0001
0100
0010
1000
0010
0100
0001
1000
0100
1000
0001
0010
0001
0100
0010
1000
0010
0100
,
0001
1000
0100
1000
0001
0010
0001
0100
0010
1000
0010
0100
0001
1000
0100
1000
0001
0010
0001
1000
0001
0100
0010
1000
,
0010
0100
0001
1000
0100
0010
0001
1000
0100
1000
0001
0010
0001
0100
0010
1000
0010
0100
0010
1000
0001
0100
0001
0010
,
0100
1000
0001
0010
0001
0100
0010
1000
0010
0100
0001
1000
0100
1000
0001
0010
0001
0100
0010
1000
0001
1000
0100
0010
,
0001
0000
0000
1000
0000
0000
0010
0000
0000
0100
0000
0000
0010
0000
0000
1000
0000
0000
0001
0000
0000
0010
0000
0000
0100
0000
1000
0000
0001
0000
1000
0000
0010
0000
0100
0000
0010
0000
1000
0000
0001
0000
0100
0000
0001
0000
0010
0000
,
0100
1000
0100
0010
0001
1000
0100
1000
0001
0100
0010
1000
0010
0100
0001
1000
0100
1000
0001
0010
0001
0100
0010
1000
,
0001
0010
0100
0000
1000
0010
0000
0100
0001
1000
0001
0000
0010
0100
0000
1000
,
0001
1000
0010
0000
0100
0001
0000
1000
0100
1000
0010
0000
0100
0001
0000
1000
,
0001
0010
0001
0000
0100
0010
0000
1000
0010
0100
0001
0000
1000
0100
0000
0010
,
0001
1000
0001
0000
0100
0010
0000
1000
0100
1000
0001
0000
0010
0100
0000
1000
,
0001
1000
0100
0000
0010
0001
0000
1000
0100
1000
0010
0000
0100
0001
0000
1000
,
0001
1000
0010
0000
0100
0001
0000
0100
0010
1000
0010
0000
0100
0001
0000
1000
,
0100
0010
0001
0000
1000
0001
0000
0010
0001
1000
0001
0000
0100
0010
0000
1000
,
0010
0100
0010
0000
1000
0100
0000
1000
0001
0010
0100
0000
1000
0100
0000
0010
,
0001
1000
0001
0000
0010
0100
0000
1000
0001
0100
0010
0000
0100
0001
0000
1000
,
0001
0010
0001
0000
0100
0010
0000
1000
0010
0100
0001
0000
1000
0100
0000
0010
,
0001
1000
0100
0000
0010
0001
0000
1000
0001
1000
0010
0000
0100
0001
0000
1000
,
0100
1000
0010
0000
0100
0001
0000
0010
0001
1000
0001
0000
0010
0100
0000
1000
,
0001
1000
0010
0000
0100
0001
0000
1000
0010
1000
0100
0000
0010
0001
0000
1000
,
0001
1000
0010
0000
0100
0001
0000
1000
0100
1000
0001
0000
0010
0100
0000
1000
,
0001
1000
0010
0000
0100
0001
0000
1000
0100
1000
0010
0000
0100
0001
0000
1000
,
0100
1000
0001
0000
0010
0100
0000
1000
0001
1000
0010
0000
0100
0001
0000
1000
,
0100
0010
0001
1000
0001
0100
0010
1000
0010
0100
0001
1000
0100
1000
0010
0100
0010
1000
0001
0010
0001
0100
0010
1000
,
0010
0100
0001
1000
0100
1000
0001
0010
0001
0100
0010
1000
0010
0100
0001
1000
0100
1000
0001
0010
0100
1000
0001
0010
,
0001
0100
0010
1000
0010
0100
0001
1000
0010
1000
0001
1000
0010
0100
0010
1000
0001
0010
0001
0100
0010
1000
0010
0100
,
0001
1000
0100
1000
0001
0010
0001
0100
0010
0100
0001
1000
0010
1000
0100
0010
0001
1000
0100
1000
0001
0010
0100
0010
,
0001
1000
0100
1000
0001
0010
0001
0100
0010
1000
0010
0100
0001
1000
0001
1000
0010
0100
0010
1000
0010
0100
0001
1000
,
0100
1000
0001
0010
0001
0100
0010
1000
0010
0100
0001
1000
0001
0010
0100
1000
0001
1000
0010
0100
0010
1000
0001
0010
,
0001
1000
0100
0010
0100
1000
0001
0010
0001
0100
0010
1000
0001
0100
0001
1000
0010
1000
0100
0010
0001
1000
0100
1000
,
0001
0010
0001
0100
0010
1000
0010
0100
0001
1000
0100
1000
0001
0010
0001
0100
0010
1000
0010
0100
0001
1000
0100
1000
,
0010
0100
0010
1000
0001
0010
0001
0100
0010
1000
0100
1000
0001
1000
0010
0100
0001
1000
0001
0010
0100
1000
0001
0010
,
0001
0100
0010
1000
0010
0100
0001
1000
0100
1000
0001
1000
0100
0010
0001
1000
0100
1000
0001
0010
0001
0100
0010
1000
,
0010
0100
0001
1000
0100
1000
0001
0010
0001
0100
0010
1000
0010
0100
0001
1000
0100
1000
0010
0100
0010
1000
0001
0010
,
0001
0100
0010
1000
0010
0100
0001
1000
0100
1000
0001
0010
0001
0100
0010
1000
0010
0100
0001
1000
0100
0010
0001
1000
,
0001
0100
0010
1000
0010
0100
0001
1000
0100
1000
0001
0010
0001
1000
0100
1000
0010
0100
0010
1000
0001
0010
0001
1000
,
0100
0010
0001
1000
0100
1000
0001
0010
0001
0100
0010
1000
0010
0100
0001
1000
0100
1000
0001
0100
0001
1000
0010
0100
,
0001
0000
0000
1000
0000
0000
0001
0000
0000
0010
0000
0000
0100
0000
0000
1000
0000
0000
0010
0000
0000
1000
0000
0000
0001
0000
0100
0000
0001
0000
1000
0000
0010
0000
0100
0000
0010
0000
1000
0000
0001
0000
0010
0000
0100
0000
1000
0000
,
0001
0000
1000
0000
0100
0000
0010
0000
0001
0000
1000
0000
0010
0000
0000
0100
0000
0000
0001
0000
1000
0000
0001
0000
0010
0000
0100
0000
1000
0000
0010
0000
1000
0000
0001
0000
0100
0000
0010
0000
0100
0000
0001
0000
1000
0000
0100
0000
,
0010
0001
1000
0010
1000
0001
0100
0001
1000
0100
1000
0010
0100
0001
0100
0010
1000
0001
1000
0100
0010
0001
1000
0100
,
0010
0100
1000
0001
0010
0001
1000
0001
0100
0010
1000
0010
0100
0001
1000
0100
1000
0010
0100
0010
1000
0001
0010
0001
,
0100
0010
1000
0001
0010
0100
1000
0100
0010
0001
1000
0001
0100
0010
1000
0010
0100
0001
1000
0100
0010
0100
1000
0001
,
0010
0100
1000
0001
0010
0001
0100
0010
1000
0010
0100
0001
1000
0100
1000
0010
0100
0001
0100
0010
1000
0001
1000
0100
,
0010
0001
1000
0100
1000
0001
0010
0001
0100
0010
1000
0010
0100
0001
1000
0001
0100
0001
0010
0100
1000
0001
0010
0001
,
0100
0010
1000
0010
0100
0001
1000
0010
1000
0001
1000
0100
0010
0001
1000
0100
1000
0001
0010
0100
0010
0001
1000
0100
,
1000
0010
0100
0010
1000
0001
0010
0001
0100
0010
1000
0010
0100
0001
1000
0100
0010
0001
1000
0100
1000
0010
0100
0010
,
1000
0001
0010
0100
1000
0100
0010
0001
1000
0100
1000
0001
0010
0001
0100
0010
1000
0010
0100
0001
1000
0100
1000
0001
,
0010
0001
0100
0010
1000
0010
0100
0001
1000
0100
1000
0010
0100
0010
1000
0001
0010
0001
0100
0010
1000
0010
0100
0001
,
1000
0100
0010
0001
1000
0100
1000
0001
0010
0001
0100
0010
1000
0010
0100
0001
1000
0100
1000
0010
0100
0010
1000
0001
,
0010
0001
0100
0010
1000
0010
0100
0001
1000
0100
0010
0001
1000
0100
1000
0010
0100
0010
1000
0001
0010
0100
1000
0100
,
0010
0001
1000
0100
1000
0001
1000
0010
0100
0010
1000
0001
0010
0001
0100
0010
1000
0010
0100
0001
1000
0100
0010
0001
,
1000
0100
1000
0001
0010
0001
0100
0010
1000
0010
0100
0001
1000
0100
1000
0001
0010
0001
0100
0010
0100
0001
1000
0100
,
0010
0100
1000
0001
1000
0100
0010
0001
1000
0100
1000
0001
1000
0010
0100
0010
1000
0001
0010
0100
0010
0001
1000
0100
,
1000
0001
0010
0001
0100
0010
1000
0010
0100
0001
1000
0100
1000
0001
0010
0001
1000
0010
1000
0100
0010
0001
1000
0100
,
1000
0001
0010
0001
0100
0010
1000
0010
0100
0001
1000
0001
0010
0000
0000
0100
0000
0000
0000
0000
0000
1000
0000
0000
,
0001
0100
0010
0100
0001
1000
0010
0100
0001
0010
0001
1000
0100
1000
0010
0100
0010
1000
0001
0010
0001
0100
0010
1000
,
0010
0100
0001
1000
0100
1000
0001
0010
0001
0100
0010
1000
0010
0100
0001
1000
0100
1000
0001
0010
0100
1000
0001
0010
,
0001
0100
0010
1000
0010
0100
0001
1000
0010
1000
0001
1000
0010
0100
0010
1000
0001
0010
0001
0100
0010
1000
0010
0100
,
0001
1000
0100
1000
0001
0010
0001
0100
0010
0100
0001
1000
0010
1000
0100
0010
0001
1000
0100
1000
0001
0010
0100
0010
,
0001
1000
0100
1000
0001
0010
0001
0100
0010
1000
0010
0100
0001
1000
0001
1000
0010
0100
0010
1000
0010
0100
0001
1000
,
0100
1000
0001
0010
0001
0100
0010
1000
0010
0100
0001
1000
0001
0010
0100
1000
0001
1000
0010
0100
0010
1000
0001
0010
,
0001
1000
0100
0010
0100
1000
0001
0010
0001
0100
0010
1000
0001
0100
0001
1000
0010
1000
0100
0010
0001
1000
0100
1000
,
0001
0010
0001
0100
0010
1000
0010
0100
0001
1000
0100
1000
0001
0010
0001
0100
0010
1000
0010
0100
0001
1000
0100
1000
,
0010
0100
0010
1000
0001
0010
0001
0100
0010
1000
0100
1000
0001
1000
0010
0100
0001
1000
0001
0010
0100
1000
0001
0010
,
0001
0100
0010
1000
0010
0100
0001
1000
0100
1000
0001
1000
0100
0010
0001
1000
0100
1000
0001
0010
0001
0100
0010
1000
,
0010
0100
0001
1000
0100
1000
0001
0010
0001
0100
0010
1000
0010
0100
0001
1000
0100
1000
0010
0100
0010
1000
0001
0010
,
0001
0100
0010
1000
0010
0100
0001
1000
0100
1000
0001
0010
0001
0100
0010
1000
0010
0100
0001
1000
0100
0010
0001
1000
,
0001
0100
0010
1000
0010
0100
0001
1000
0100
1000
0001
0010
0001
1000
0100
1000
0010
0100
0010
1000
0001
0010
0001
1000
,
0100
0010
0001
1000
0100
1000
0001
0010
0001
0100
0010
1000
0010
0100
0001
1000
0100
1000
0001
0100
0001
1000
0010
0100
,
0001
1000
0010
1000
0100
0010
0001
1000
0100
1000
0010
0100
0010
1000
0001
0010
0001
0100
0010
1000
0010
0100
0001
1000
,
0100
1000
0001
0010
0001
1000
0100
0010
0001
0010
0100
1000
0001
0010
0100
0010
0001
1000
0100
0010
0100
1000
0001
0010
,
0001
0100
0010
1000
0010
0100
0001
1000
0100
1000
0001
1000
0010
0100
0010
1000
0001
0010
0001
0100
0010
1000
0010
0100
,
0001
1000
0100
0010
0001
1000
0100
1000
0001
0010
0001
0100
0010
1000
0010
0100
0001
1000
0100
1000
0001
0010
0001
0100
,
0010
1000
0010
0100
0001
1000
0100
1000
0010
0100
0010
1000
0001
0010
0001
0100
0010
1000
0010
0100
0001
1000
0100
0010
,
0001
1000
0100
1000
0001
0010
0001
0100
0010
1000
0010
0100
0001
1000
0100
1000
0001
0010
0001
0100
0010
1000
0010
0100
,
0001
1000
0100
1000
0010
0100
0010
1000
0001
0010
0001
0100
0010
1000
0010
0100
0001
1000
0100
0010
0001
1000
0100
1000
,
0010
0100
0001
1000
0100
1000
0001
0010
0001
0100
0010
1000
0010
0100
0001
1000
0100
0010
0001
0100
0010
1000
0001
0100
,
0010
1000
0010
0100
0001
1000
0100
1000
0010
0100
0010
1000
0001
0010
0001
0100
0010
1000
0010
0100
0001
1000
0100
1000
,
0001
0010
0001
0100
0010
1000
0010
0100
0001
1000
0100
1000
0001
0010
0100
1000
0001
0010
0001
0100
0010
1000
0010
0100
,
0001
1000
0010
1000
0001
1000
0010
0100
0010
1000
0001
0010
0001
0100
0010
1000
0010
0100
0001
1000
0100
1000
0001
0010
,
0001
0100
0010
0100
0001
1000
0010
1000
0100
0010
0001
1000
0100
1000
0001
0010
0100
0010
0001
1000
0100
1000
0001
0010
,
0001
0100
0010
1000
0010
0100
0001
1000
0001
1000
0010
0100
0010
1000
0010
0100
0001
1000
0100
1000
0001
0010
0001
0100
,
0010
1000
0010
0100
0001
1000
0001
0010
0100
1000
0001
1000
0010
0100
0010
1000
0001
0010
0001
1000
0100
0010
0100
1000
,
0001
0010
0001
0100
0010
1000
0001
0100
0001
1000
0010
1000
0100
0010
0001
1000
0100
1000
0001
0010
0001
0100
0010
1000
,
0010
0100
0001
1000
0100
1000
0001
0010
0001
0100
0010
1000
0010
0100
0001
1000
0100
1000
0010
0100
0010
1000
0001
0010
,
0001
0100
0010
1000
0100
1000
0001
1000
0010
0100
0001
1000
0001
0010
0100
1000
0001
0010
0001
0100
0010
1000
0010
0100
,
0001
1000
0100
1000
0001
1000
0100
0010
0001
1000
0100
1000
0001
0010
0001
0100
0010
1000
0010
0100
0001
1000
0100
1000
,
0001
0010
0001
0100
0010
1000
0010
0100
0001
1000
0100
1000
0010
0100
0010
1000
0001
0010
0001
0100
0010
1000
0010
0100
,
0001
1000
0100
1000
0001
0010
0001
0100
0010
1000
0010
0100
0001
1000
0100
0010
0001
1000
0001
0100
0010
1000
0010
0100
,
0001
1000
0100
1000
0001
0010
0001
1000
0100
1000
0010
0100
0010
1000
0001
0010
0001
1000
0100
0010
0001
1000
0100
1000
,
0001
0010
0001
0100
0010
1000
0010
0100
0001
1000
0100
1000
0001
0100
0001
1000
0010
0100
0001
0100
0010
1000
0010
0100
,
0001
1000
0100
0010
0001
1000
0100
1000
0001
0010
0001
0100
0010
1000
0010
0100
0001
1000
0100
1000
0001
0010
0001
0100
,
0010
1000
0010
0100
0001
1000
0100
1000
0010
0100
0010
1000
0001
0010
0001
0100
0010
1000
0010
0100
0001
1000
0100
0010
,
0001
1000
0100
1000
0001
0010
0001
0100
0010
1000
0010
0100
0001
1000
0100
1000
0001
0010
0001
0100
0010
1000
0010
0100
,
0001
1000
0100
1000
0010
0100
0010
1000
0001
0010
0001
0100
0010
1000
0010
0100
0001
1000
0100
0010
0001
1000
0100
1000
,
0010
0100
0001
1000
0100
1000
0001
0010
0001
0100
0010
1000
0010
0100
0001
1000
0100
0010
0001
0100
0010
1000
0001
0100
,
0010
1000
0010
0100
0001
1000
0100
1000
0010
0100
0010
1000
0001
0010
0001
0100
0010
1000
0010
0100
0001
1000
0100
1000
,
0001
0010
0001
0100
0010
1000
0010
0100
0001
1000
0100
1000
0001
0010
0100
1000
0001
0010
0001
0100
0010
1000
0010
0100
,
0001
1000
0010
1000
0001
1000
0010
0100
0010
1000
0001
0010
0001
0100
0010
1000
0010
0100
0001
1000
0100
1000
0001
0010
,
0001
0100
0010
0100
0001
1000
0010
1000
0100
0010
0001
1000
0100
1000
0001
0010
0100
0010
0001
1000
0100
1000
0001
0010
,
0001
0100
0010
1000
0010
0100
0001
1000
0001
1000
0010
0100
0010
1000
0010
0100
0001
1000
0100
1000
0001
0010
0001
0100
,
0010
1000
0010
0100
0001
1000
0001
0010
0100
1000
0001
1000
0010
0100
0010
1000
0001
0010
0001
1000
0100
0010
0100
1000
,
0001
0010
0001
0100
0010
1000
0001
0100
0001
1000
0010
1000
0100
0010
0001
1000
0100
1000
0001
0010
0001
0100
0010
1000
,
0001
0100
0001
0000
0010
0100
0000
1000
0010
1000
0001
0000
0010
0001
0000
1000
,
0010
1000
0100
0000
0010
0001
0000
0010
0100
1000
0001
0000
0100
0001
0000
1000
,
0010
1000
0001
0000
0010
0100
0000
1000
0001
1000
0010
0000
0100
0001
0000
1000
,
0100
1000
0010
0000
0100
0001
0000
1000
0001
0010
0001
0000
0100
0010
0000
1000
,
0001
1000
0100
0000
0010
0001
0000
1000
0010
0100
0010
0000
1000
0001
0000
0010
,
0100
1000
0001
0000
0100
0001
0000
1000
0010
1000
0001
0000
0010
0100
0000
1000
,
0100
1000
0001
0000
0100
0010
0000
1000
0001
0010
0100
0000
1000
0010
0000
0100
,
0001
1000
0001
0000
0100
0010
0000
1000
0100
1000
0010
0000
0100
0001
0000
1000
,
0100
0010
0001
0000
1000
0100
0000
0010
0001
1000
0001
0000
0100
0010
0000
1000
,
0010
0100
0001
0000
1000
0001
0000
0010
0100
1000
0001
0000
0010
0100
0000
1000
,
0001
1000
0010
0000
0100
0001
0000
1000
0100
1000
0010
0000
0100
0001
0000
0010
,
0001
1000
0001
0000
0010
0100
0000
1000
0100
1000
0001
0000
0100
0001
0000
1000
,
0010
1000
0001
0000
0100
0010
0000
1000
0100
1000
0001
0000
0010
0100
0000
1000
,
0001
1000
0100
0000
0010
0001
0000
1000
0001
1000
0010
0000
0100
0001
0000
1000
,
0001
1000
0010
0000
0100
0001
0000
0100
0010
1000
0001
0000
0010
0001
0000
1000
,
0010
0100
0001
0000
1000
0001
0000
0010
0100
1000
0001
0000
0100
0001
0000
1000
,
0010
1000
0001
0000
0010
0100
0000
1000
0001
1000
0010
0000
0100
0001
0000
1000
,
0100
1000
0010
0000
0100
0001
0000
1000
0001
0010
0001
0000
0100
0010
0000
1000
,
0001
1000
0100
0000
0010
0001
0000
1000
0010
0100
0010
0000
1000
0001
0000
0010
,
0100
1000
0001
0000
0100
0001
0000
1000
0010
1000
0001
0000
0010
0100
0000
1000
,
0100
1000
0001
0000
0100
0010
0000
1000
0001
0010
0100
0000
1000
0010
0000
0100
,
0001
1000
0001
0000
0100
0010
0000
1000
0100
1000
0010
0000
0100
0001
0000
1000
,
0100
0010
0001
0000
1000
0100
0000
0010
0001
1000
0001
0000
0100
0010
0000
1000
,
0010
0100
0001
0000
1000
0001
0000
0010
0100
1000
0001
0000
0010
0100
0000
1000
,
0001
1000
0010
0000
0100
0001
0000
1000
0100
1000
0010
0000
0100
0001
0000
0010
,
0001
1000
0001
0000
0010
0100
0000
1000
0100
1000
0001
0000
0100
0001
0000
1000
,
0010
1000
0001
0000
0100
0010
0000
1000
0100
1000
0001
0000
0010
0100
0000
1000
,
0001
1000
0100
0000
0010
0001
0000
1000
0001
1000
0010
0000
0100
0001
0000
0100
,
0001
1000
0001
0000
0010
0100
0000
1000
0001
1000
0010
0000
0100
0001
0000
1000
,
0100
1000
0010
0000
0100
0001
0000
0010
0100
1000
0001
0000
0100
0001
0000
1000
,
0010
1000
0001
0000
0010
0100
0000
1000
0001
0100
0001
1000
0010
0100
0010
1000
,
0001
0010
0001
1000
0100
0010
0001
1000
0100
1000
0010
0100
0001
0100
0010
1000
,
0001
0010
0001
0100
0010
1000
0010
0100
0001
1000
0010
1000
0100
0010
0001
1000
0100
1000
0001
0010
0001
0100
0010
1000
,
0010
0100
0001
1000
0100
1000
0010
0100
0010
1000
0001
0010
0001
0100
0010
1000
0010
0100
0001
1000
0100
0010
0001
1000
,
0100
1000
0001
0010
0001
0100
0010
1000
0010
0100
0001
1000
0010
1000
0100
0010
0001
1000
0100
1000
0001
0010
0001
0100
,
0010
1000
0010
0100
0001
1000
0100
1000
0001
0010
0001
0100
0010
1000
0010
0100
0001
1000
0100
1000
0001
0010
0001
0100
,
0010
1000
0010
0100
0001
1000
0100
0010
0001
1000
0001
0100
0010
1000
0010
0100
0001
1000
0010
1000
0100
0010
0001
1000
,
0100
1000
0001
0010
0001
0100
0010
1000
0010
0100
0001
1000
0001
0100
0010
0100
0001
1000
0010
0100
0010
1000
0001
1000
,
0100
0010
0001
1000
0100
1000
0001
0010
0001
0100
0010
1000
0010
0100
0001
1000
0100
1000
0001
0010
0001
0100
0001
1000
,
0010
0100
0010
1000
0001
0010
0001
0100
0010
1000
0010
0100
0001
1000
0100
0010
0001
1000
0100
1000
0001
0010
0001
0100
,
0010
1000
0010
0100
0001
1000
0100
1000
0001
0010
0001
0100
0010
0100
0001
1000
0100
1000
0001
0010
0100
1000
0001
1000
,
0100
0010
0001
1000
0100
1000
0001
0010
0001
0100
0010
1000
0010
0100
0001
1000
0100
1000
0010
0100
0010
1000
0001
0010
,
0001
0100
0010
1000
0010
0100
0001
1000
0100
1000
0010
0100
0010
1000
0001
0010
0001
0100
0010
1000
0010
0100
0001
1000
,
0001
0010
0100
1000
0001
0010
0001
0100
0010
1000
0010
0100
0001
1000
0100
0010
0001
1000
0001
0100
0010
0100
0001
1000
,
0100
1000
0010
1000
0001
0100
0001
0010
0100
1000
0001
0010
0001
0100
0010
1000
0010
0100
0001
1000
0100
1000
0001
0010
,
0001
0100
0010
1000
0010
0100
0001
1000
0100
1000
0001
0010
0001
1000
0001
0100
0010
0100
0001
1000
0100
1000
0010
0100
,
0010
1000
0001
0100
0001
1000
0001
0010
0100
1000
0001
0010
0001
0100
0010
1000
0010
0100
0001
1000
0100
1000
0010
0100
,
0010
0000
1000
0000
0001
0000
0010
0000
0001
0000
0100
0000
0010
0000
0100
0000
0001
0000
1000
0000
0010
0000
1000
0000
0100
0000
0010
0000
0001
0000
1000
0000
0001
0000
0100
0000
0010
0000
0000
1000
0000
0000
0010
0000
0000
0100
0000
0000
,
0001
1000
0100
1000
0010
0100
0001
0100
0010
1000
0001
1000
0001
0010
0100
1000
0001
0100
0001
1000
0010
0100
0001
1000
,
0100
1000
0001
0010
0100
1000
0100
0010
0001
1000
0010
1000
0100
0010
0001
1000
0100
1000
0001
0100
0010
1000
0010
0100
,
0001
1000
0100
0010
0100
1000
0001
0010
0001
0100
0010
1000
0010
0100
0001
1000
0001
0010
0100
1000
0001
0010
0001
0100
,
0010
1000
0010
0100
0001
1000
0100
1000
0001
0010
0001
0100
0010
1000
0010
0100
0001
1000
0100
1000
0010
0100
0001
0100
,
0010
1000
0001
1000
0100
0010
0001
1000
0100
1000
0001
0010
0001
0100
0010
1000
0010
0100
0001
1000
0001
0010
0100
1000
,
0001
0010
0001
0100
0010
1000
0010
0100
0001
1000
0100
1000
0010
0100
0010
1000
0001
0010
0001
0100
0010
1000
0010
0100
,
0001
1000
0100
0010
0001
1000
0001
0010
0100
1000
0100
0010
0001
1000
0100
1000
0001
1000
0010
0100
0010
1000
0001
0010
,
0001
0100
0010
1000
0010
0100
0001
1000
0100
1000
0001
0010
0001
0100
0010
1000
0010
0100
0001
1000
0100
1000
0001
0010
,
0001
0100
0010
1000
0010
0100
0001
1000
0100
1000
0001
0010
0001
0100
0010
1000
0010
0100
0001
1000
0100
1000
0010
0100
,
0010
1000
0001
0010
0001
0100
0010
1000
0010
0100
0001
1000
0100
0010
0001
1000
0100
1000
0001
0010
0001
0100
0010
1000
,
0010
0100
0001
1000
0100
1000
0001
0010
0001
0100
0010
1000
0010
0100
0001
1000
0100
1000
0001
0010
0100
1000
0001
0010
,
0001
0100
0010
1000
0010
0100
0001
1000
0100
1000
0001
1000
0010
0100
0010
1000
0001
0010
0001
0100
0010
1000
0100
1000
,
0001
1000
0010
0100
0010
1000
0001
0100
0001
1000
0010
0100
0001
0100
0010
1000
0001
0010
0100
0010
0001
1000
0100
1000
,
0001
0100
0010
1000
0010
0100
0001
1000
0010
1000
0100
0010
0001
0100
0010
0100
0001
1000
0001
0010
0001
0100
0010
1000
,
0010
0100
0001
1000
0100
1000
0010
0100
0010
1000
0001
0010
0100
0010
0001
1000
0001
0010
0100
1000
0100
0010
0001
1000
,
0100
0000
1000
0000
0010
0000
0100
0000
0010
0000
1000
0000
0001
0000
0000
0100
0000
0000
0001
0000
0000
1000
0000
0000
0010
0000
0000
0100
0000
0000
0010
0000
0000
1000
0000
0000
0001
0000
0000
0010
0000
0000
0100
0000
0000
1000
0000
0000
,
0001
0100
0001
1000
0010
0100
0001
0010
0100
1000
0010
1000
0001
0010
0100
1000
0001
0100
0001
1000
0010
0100
0001
1000
,
0100
1000
0001
0010
0100
1000
0100
0010
0001
1000
0010
1000
0100
0010
0001
1000
0100
1000
0001
0100
0010
1000
0010
0100
,
0001
1000
0100
0010
0100
1000
0001
0010
0001
0100
0010
1000
0010
0100
0001
1000
0001
0010
0100
1000
0001
0010
0001
0100
,
0010
1000
0010
0100
0001
1000
0100
1000
0001
0010
0001
0100
0010
1000
0010
0100
0001
1000
0100
1000
0010
0100
0001
0100
,
0010
1000
0001
1000
0100
0010
0001
1000
0100
1000
0001
0010
0001
0100
0010
1000
0010
0100
0001
1000
0001
0010
0100
1000
,
0001
0010
0001
0100
0010
1000
0010
0100
0001
1000
0100
1000
0010
0100
0010
1000
0001
0010
0001
0100
0010
1000
0010
0100
,
0001
1000
0100
0010
0001
1000
0001
0010
0100
1000
0100
0010
0001
1000
0100
1000
0001
1000
0010
0100
0010
1000
0001
0010
,
0001
0100
0010
1000
0010
0100
0001
1000
0100
1000
0001
0010
0001
0100
0010
1000
0010
0100
0001
1000
0100
1000
0001
0010
,
0001
0100
0010
1000
0010
0100
0001
1000
0100
1000
0001
0010
0001
0100
0010
1000
0010
0100
0001
1000
0100
1000
0010
0100
,
0010
1000
0001
0010
0001
0100
0010
1000
0010
0100
0001
1000
0100
0010
0001
1000
0100
1000
0001
0010
0001
0100
0010
1000
,
0010
0100
0001
1000
0100
1000
0001
0010
0001
0100
0010
1000
0010
0100
0001
1000
0100
1000
0001
0010
0100
1000
0001
0010
,
0001
0100
0010
1000
0010
0100
0001
1000
0100
1000
0001
1000
0010
0100
0010
1000
0001
0010
0001
0100
0010
1000
0100
1000
,
0001
1000
0010
0100
0010
1000
0001
0100
0001
1000
0010
0100
0001
0100
0010
1000
0001
0010
0100
0010
0001
1000
0100
1000
,
0001
0100
0010
1000
0010
0100
0001
1000
0010
1000
0100
0010
0001
0100
0010
0100
0001
1000
0001
0010
0001
0100
0010
1000
,
0010
0100
0001
1000
0100
1000
0010
0100
0010
1000
0001
0010
0100
0010
0001
1000
0001
0010
0100
1000
0100
0010
0001
1000
,
0100
1000
0010
0100
0001
1000
0100
1000
0010
0100
0001
0100
0010
1000
0001
1000
0001
0010
0100
1000
0001
0100
0001
1000
,
0010
0100
0001
1000
0100
1000
0001
0010
0100
1000
0100
0010
0001
1000
0010
1000
0100
0010
0001
1000
0100
1000
0001
0100
,
0010
1000
0010
0100
0001
1000
0100
0010
0100
1000
0001
0010
0001
0100
0010
1000
0010
0100
0001
1000
0001
0010
0100
1000
,
0001
0010
0001
0100
0010
1000
0010
0100
0001
1000
0100
1000
0001
0010
0001
0100
0010
1000
0010
0100
0001
1000
0100
1000
,
0010
0100
0001
0100
0010
1000
0001
1000
0100
0010
0001
1000
0100
1000
0001
0010
0001
0100
0010
1000
0010
0100
0001
1000
,
0001
0010
0100
1000
0001
0010
0001
0100
0010
1000
0010
0100
0001
1000
0100
1000
0010
0100
0010
1000
0001
0010
0001
0100
,
0010
1000
0010
0100
0001
1000
0100
0010
0001
1000
0001
0010
0100
1000
0100
0010
0001
1000
0100
1000
0001
1000
0010
0100
,
0010
1000
0001
0010
0001
0100
0010
1000
0010
0100
0001
1000
0100
1000
0001
0010
0001
0100
0010
1000
0010
0100
0001
1000
,
0100
1000
0001
0010
0001
0100
0010
1000
0010
0100
0001
1000
0100
1000
0001
0010
0001
0100
0010
1000
0010
0100
0001
1000
,
0100
1000
0010
0100
0010
1000
0001
0010
0001
0100
0010
1000
0010
0100
0001
1000
0100
0010
0001
1000
0100
1000
0001
0010
,
0001
0100
0010
1000
0010
0100
0001
1000
0100
1000
0001
0010
0001
0100
0010
1000
0010
0100
0001
1000
0100
1000
0001
0010
,
0100
1000
0001
0010
0001
0100
0010
1000
0010
0100
0001
1000
0100
1000
0001
1000
0010
0100
0010
1000
0001
0010
0001
0100
,
0010
1000
0100
1000
0001
1000
0010
0100
0010
1000
0001
0100
0001
1000
0010
0100
0001
0100
0010
1000
0001
0010
0100
0010
,
0001
1000
0100
1000
0001
0100
0010
1000
0010
0100
0001
1000
0010
1000
0100
0010
0001
0100
0010
0100
0001
1000
0001
0010
,
0001
0100
0010
1000
0010
0100
0001
1000
0100
1000
0010
0100
0010
1000
0001
0010
0100
0010
0001
1000
0001
0010
0100
1000
,
0100
0010
0001
1000
0100
0010
0001
1000
0100
1000
0010
0100
0001
0100
0010
1000
0001
1000
0001
0010
0100
1000
0001
0100
,
0001
1000
0010
0100
0001
1000
0100
1000
0001
0010
0100
1000
0100
0010
0001
1000
0010
1000
0100
0010
0001
1000
0100
1000
,
0001
0100
0010
1000
0010
0100
0001
1000
0100
0010
0100
1000
0001
0010
0001
0100
0010
1000
0010
0100
0001
1000
0001
0010
,
0100
1000
0001
0010
0001
0100
0010
1000
0010
0100
0001
1000
0100
1000
0001
0010
0001
0100
0010
1000
0010
0100
0001
1000
,
0100
1000
0010
0100
0001
0100
0010
1000
0001
1000
0100
0010
0001
1000
0100
1000
0001
0010
0001
0100
0010
1000
0010
0100
,
0001
1000
0001
0010
0100
1000
0001
0010
0001
0100
0010
1000
0010
0100
0001
1000
0100
1000
0010
0100
0010
1000
0001
0010
,
0001
0100
0010
1000
0010
0100
0001
1000
0100
0010
0001
1000
0001
0010
0100
1000
0100
0010
0001
1000
0100
1000
0001
1000
,
0010
0100
0010
1000
0001
0010
0001
0100
0010
1000
0010
0100
0001
1000
0100
1000
0001
0010
0001
0100
0010
1000
0010
0100
,
0001
1000
0100
1000
0001
0010
0001
0100
0010
1000
0010
0100
0001
1000
0100
1000
0001
0010
0001
0100
0010
1000
0010
0100
,
0001
1000
0100
1000
0010
0100
0010
1000
0001
0010
0001
0100
0010
1000
0010
0100
0001
1000
0100
0010
0001
1000
0100
1000
,
0001
0010
0001
0100
0010
1000
0010
0100
0001
1000
0100
1000
0001
0010
0001
0100
0010
1000
0010
0100
0001
1000
0100
1000
,
0001
0010
0100
1000
0001
0010
0001
0100
0010
1000
0010
0100
0001
1000
0100
1000
0001
1000
0010
0100
0010
1000
0001
0010
,
0001
0100
0010
1000
0100
1000
0001
1000
0010
0100
0010
1000
0001
0100
0001
1000
0010
0100
0001
0100
0010
1000
0001
0010
,
0100
0010
0001
1000
0100
1000
0001
0100
0010
1000
0010
0100
0001
1000
0010
1000
0100
0010
0001
0100
0010
0100
0001
1000
,
0001
0010
0001
0100
0010
1000
0010
0100
0001
1000
0100
1000
0010
0100
0010
1000
0001
0010
0100
0010
0001
1000
0001
0010
,
0100
1000
0100
0010
0001
1000
0100
1000
0010
0100
0010
1000
0001
0010
0001
0100
0010
1000
0010
0100
0001
1000
0100
1000
,
0010
0100
0010
1000
0001
0010
0100
1000
0100
0010
0001
1000
0100
1000
0001
0010
0001
0100
0010
1000
0010
0100
0001
1000
,
0010
0100
0001
1000
0001
0100
0010
1000
0001
0010
0001
1000
0100
0010
0001
1000
,
0001
0100
0010
1000
0010
0100
0001
1000
0100
1000
0001
0010
0001
0100
0010
0100
0001
1000
0100
0010
0001
1000
0100
0010
,
0100
1000
0001
0010
0100
0010
0001
1000
0001
1000
0100
0010
0001
1000
0100
1000
0010
0100
0001
1000
0100
1000
0010
0100
,
0001
0100
0010
1000
0001
1000
0001
0010
0100
1000
0001
0100
0001
1000
0010
0100
0001
1000
0100
1000
0001
0010
0100
1000
,
0100
0010
0001
1000
0010
1000
0100
0010
0001
1000
0100
1000
0001
0100
0010
1000
0010
0100
0001
1000
0100
0010
0100
1000
,
0001
0010
0001
0100
0010
1000
0010
0100
0001
1000
0001
0010
0100
1000
0001
0010
0001
0100
0010
1000
0010
0100
0001
1000
,
0100
1000
0001
0010
0001
0100
0010
1000
0010
0100
0001
1000
0100
1000
0010
0100
0001
0100
0010
1000
0001
1000
0100
0010
,
0001
1000
0100
1000
0001
0010
0001
0100
0010
1000
0010
0100
0001
1000
0001
0010
0100
1000
0001
0010
0001
0100
0010
1000
,
0010
0100
0001
1000
0100
1000
0010
0100
0010
1000
0001
0010
0001
0100
0010
1000
0010
0100
0001
1000
0100
0010
0001
1000
,
0001
0010
0100
1000
0100
0010
0001
1000
0100
1000
0001
1000
0010
0100
0010
1000
0001
0010
0001
0100
0010
1000
0010
0100
,
0001
1000
0100
1000
0001
0010
0001
0100
0010
1000
0010
0100
0001
1000
0100
1000
0001
0010
0001
0100
0010
1000
0010
0100
,
0001
1000
0100
1000
0001
0010
0001
0100
0010
1000
0010
0100
0001
1000
0100
1000
0010
0100
0010
1000
0001
0010
0001
0100
,
0010
1000
0010
0100
0001
1000
0100
0010
0001
1000
0100
1000
0001
0010
0001
0100
0010
1000
0010
0100
0001
1000
0100
1000
,
0001
0010
0001
0100
0010
1000
0010
0100
0001
1000
0100
1000
0001
0010
0100
1000
0001
0010
0001
0100
0010
1000
0010
0100
,
0001
1000
0100
1000
0001
1000
0010
0100
0010
1000
0001
0010
0001
0100
0010
1000
0100
1000
0001
1000
0010
0100
0010
1000
,
0001
0100
0001
1000
0010
0100
0001
0100
0010
1000
0001
0010
0100
0010
0001
1000
0100
1000
0001
0100
0010
1000
0010
0100
,
0001
1000
0010
1000
0100
0010
0001
0100
0010
0100
0001
1000
0001
0010
0001
0100
0010
1000
0010
0100
0001
1000
0100
1000
,
0010
0100
0010
1000
0001
0010
0100
0010
0001
1000
0001
0010
0100
1000
0100
0010
0001
1000
0100
1000
0010
0100
0010
1000
,
0001
0100
0010
1000
0010
0100
0001
0100
0010
1000
0001
1000
0001
0010
0100
1000
0001
0100
0001
1000
0010
0100
0001
1000
,
0100
1000
0001
0010
0100
1000
0100
0010
0001
1000
0010
1000
0100
0010
0001
1000
0100
1000
0001
0100
0010
1000
0010
0100
,
0001
1000
0100
0010
0100
1000
0001
0010
0001
0100
0010
1000
0010
0100
0001
1000
0001
0010
0100
1000
0001
0010
0001
0100
,
0010
1000
0010
0100
0001
1000
0100
1000
0001
0010
0001
0100
0010
1000
0010
0100
0001
1000
0100
1000
0010
0100
0001
0100
,
0010
1000
0001
1000
0100
0010
0001
1000
0100
1000
0001
0010
0001
0100
0010
1000
0010
0100
0001
1000
0001
0010
0100
1000
,
0001
0010
0001
0100
0010
1000
0010
0100
0001
1000
0100
1000
0010
0100
0010
1000
0001
0010
0001
0100
0010
1000
0010
0100
,
0001
1000
0100
0010
0001
1000
0001
0010
0100
1000
0100
0010
0001
1000
0100
1000
0001
1000
0010
0100
0010
1000
0001
0010
,
0001
0100
0010
1000
0010
0100
0001
1000
0100
1000
0001
0010
0001
0100
0010
1000
0010
0100
0001
1000
0100
1000
0001
0010
,
0001
0100
0010
1000
0010
0100
0001
1000
0100
1000
0001
0010
0001
0100
0010
1000
0010
0100
0001
1000
0100
1000
0010
0100
,
0010
1000
0001
0010
0001
0100
0010
1000
0010
0100
0001
1000
0100
0010
0001
1000
0100
1000
0001
0010
0001
0100
0010
1000
,
0010
0100
0001
1000
0100
1000
0001
0010
0001
0100
0010
1000
0010
0100
0001
1000
0100
1000
0001
0010
0100
1000
0001
0010
,
0001
0100
0010
1000
0010
0100
0001
1000
0100
1000
0001
1000
0010
0100
0010
1000
0001
0010
0001
0100
0010
1000
0100
1000
,
0001
1000
0010
0100
0010
1000
0001
0100
0001
1000
0010
0100
0001
0100
0010
1000
0001
0010
0100
0010
0001
1000
0100
1000
,
0001
0100
0010
1000
0010
0100
0001
1000
0010
1000
0100
0010
0001
0100
0010
0100
0001
1000
0001
0010
0001
0100
0010
1000
,
0010
0100
0001
1000
0100
1000
0010
0100
0010
1000
0001
0010
0100
0010
0001
1000
0001
0010
0100
1000
0100
0010
0001
1000
,
0010
0100
0001
0000
1000
0010
0000
0100
0010
1000
0001
0000
0100
0001
0000
1000
,
0010
1000
0100
0000
0010
0001
0000
0010
0100
1000
0001
0000
0100
0001
0000
1000
,
0010
1000
0001
0000
0010
0100
0000
1000
0001
1000
0010
0000
0100
0001
0000
1000
,
0100
1000
0010
0000
0100
0001
0000
1000
0001
0010
0001
0000
0100
0010
0000
1000
,
0001
1000
0100
0000
0010
0001
0000
1000
0010
0100
0010
0000
1000
0001
0000
0010
,
0100
1000
0001
0000
0100
0001
0000
1000
0010
1000
0001
0000
0010
0100
0000
1000
,
0100
1000
0001
0000
0100
0010
0000
1000
0001
0010
0100
0000
1000
0010
0000
0100
,
0001
1000
0001
0000
0100
0010
0000
1000
0100
1000
0010
0000
0100
0001
0000
1000
,
0100
0010
0001
0000
1000
0100
0000
0010
0001
1000
0001
0000
0100
0010
0000
1000
,
0010
0100
0001
0000
1000
0001
0000
0010
0100
1000
0001
0000
0010
0100
0000
1000
,
0001
1000
0010
0000
0100
0001
0000
1000
0100
1000
0010
0000
0100
0001
0000
0010
,
0001
1000
0001
0000
0010
0100
0000
1000
0100
1000
0001
0000
0100
0001
0000
1000
,
0010
1000
0001
0000
0100
0010
0000
1000
0100
1000
0001
0000
0010
0100
0000
1000
,
0001
1000
0100
0000
0010
0001
0000
1000
0001
1000
0010
0000
0100
0001
0000
1000
,
0100
0010
0001
1000
0001
0100
0010
1000
0010
0100
0001
1000
0100
1000
0001
0010
,
0001
0100
0010
1000
0010
0100
0001
1000
0100
0010
0100
1000
0001
1000
0010
0100
,
0002
0000
0000
0000
,
0000
0000
0000
0000
,
0000
0000
0000
0000
,
0000
0000
0000
0000
,
0000
0000
0000
0000
,
0000
0000
0000
0003
;

//---------------dance-single - 18-16/80/113/2----------------
#NOTES:
     dance-single:
     18-16/80/113/2:
     Edit:
     34:
     1.000,1.000,0.000,0.002,1.000,8239.000,0.000,1.000,0.000,0.000:
1000
0100
0010
0000
0001
0100
0000
0010
0000
1000
0001
0000
1000
0100
0000
0010
,
0000
0001
1000
0000
0010
1000
0000
0001
0000
0010
0100
0000
1000
0001
0000
0100
,
0000
0001
0010
0000
0100
1000
0000
0001
0000
1000
0010
0000
0100
0001
0000
1000
,
0000
0100
0010
0000
0001
1000
0000
0001
0000
0010
0100
0000
1000
0100
0000
0010
,
0000
0001
1000
0000
0010
0100
0000
0001
0000
0010
0001
0000
1000
0001
0000
0100
,
0000
0010
1000
0000
0010
0100
0000
0001
0000
1000
0100
0000
0010
0001
0000
1000
,
0000
0010
1000
0000
0001
1000
0000
0100
0000
0010
0001
0000
1000
0010
0000
0100
,
0000
0001
1000
0000
0100
1000
0000
0010
0000
0100
0001
0000
1000
0100
0000
0010
,
0000
0001
0010
0000
0001
1000
0000
0010
0000
1000
0100
0000
0010
0001
0000
1000
,
0000
0010
1000
0000
0001
0010
0000
0100
0000
1000
0001
0000
0100
0001
0000
0010
,
0000
0100
1000
0000
0100
1000
0000
0010
0000
0100
0001
0000
1000
0001
0000
0010
,
0000
0100
1000
0000
0001
1000
0000
0010
0000
0100
0001
0000
1000
0010
0000
0100
,
0000
0001
0010
0000
0001
0100
0000
0010
0000
1000
0001
0000
0100
0010
0000
1000
,
0000
0001
0010
0000
0100
1000
0000
0001
0000
1000
0001
0000
0100
0010
0000
0100
,
0000
0001
0010
0000
0100
1000
0000
0001
0000
1000
0010
0000
0100
0001
0000
1000
,
0000
0001
0010
0000
0100
1000
0000
0001
0000
0100
0001
0000
1000
0010
0000
0100
,
0001
1000
0001
0000
0010
0100
0000
1000
0001
1000
0010
0000
0100
0001
0000
1000
,
0100
1000
0010
0000
0100
0001
0000
0010
0100
1000
0001
0000
0100
0001
0000
1000
,
0010
1000
0001
0000
0010
0100
0000
1000
0001
1000
0010
0000
0100
0001
0000
1000
,
0100
1000
0010
0000
0100
0001
0000
1000
0001
0010
0001
0000
0100
0010
0000
1000
,
0001
1000
0100
0000
0010
0001
0000
1000
0010
0100
0010
0000
1000
0001
0000
0010
,
0100
1000
0001
0000
0100
0001
0000
1000
0010
1000
0001
0000
0010
0100
0000
1000
,
0100
1000
0001
0000
0100
0010
0000
1000
0001
0010
0100
0000
1000
0010
0000
0100
,
0001
1000
0001
0000
0100
0010
0000
1000
0100
1000
0010
0000
0100
0001
0000
1000
,
0100
0010
0001
0000
1000
0100
0000
0010
0001
1000
0001
0000
0100
0010
0000
1000
,
0010
0100
0001
0000
1000
0001
0000
0010
0100
1000
0001
0000
0010
0100
0000
1000
,
0001
1000
0010
0000
0100
0001
0000
1000
0100
1000
0010
0000
0100
0001
0000
0010
,
0001
1000
0001
0000
0010
0100
0000
1000
0100
1000
0001
0000
0100
0001
0000
1000
,
0010
1000
0001
0000
0100
0010
0000
1000
0100
1000
0001
0000
0010
0100
0000
1000
,
0001
1000
0100
0000
0010
0001
0000
1000
0001
1000
0010
0000
0100
0001
0000
1000
,
0010
0100
0010
1000
0001
0100
0001
0010
0100
1000
0100
0010
0001
1000
0001
0100
,
0010
0000
0000
1000
0000
0000
0010
0000
0000
0100
0000
0000
0001
0000
0000
1000
0000
0000
0100
0000
0010
0000
0001
0000
1000
0000
0001
0000
0100
0000
0010
0000
1000
0000
0010
0000
0100
0000
0001
0000
1000
0000
0100
0000
1000
0000
0010
0000
,
0100
0001
1000
0010
1000
0100
0010
0001
1000
0100
1000
0001
0100
0010
1000
0001
0100
0001
0010
0100
1000
0001
0010
0001
0100
0010
1000
0001
0100
0010
0100
0001
,
1000
0100
0010
0001
1000
0010
0100
0001
1000
0010
1000
0001
0100
0001
0010
0100
1000
0001
0010
0001
0100
0010
1000
0001
0100
0010
0100
0001
1000
0100
0010
0001
,
1000
0100
1000
0001
0100
0010
1000
0001
0100
0001
0010
0100
1000
0001
0010
0001
0100
0010
1000
0001
0100
0010
0100
0001
1000
0100
0010
0100
1000
0001
1000
0100
,
0010
0001
1000
0010
0100
0001
1000
0100
0010
0001
0100
0001
1000
0010
0100
0001
1000
0100
1000
0001
0100
0001
0010
0100
1000
0001
0010
0001
0100
0010
1000
0001
,
0100
0010
0100
0001
1000
0100
0010
0001
0100
0001
1000
0100
1000
0001
0010
0001
0100
0010
1000
0001
0100
0010
0100
0001
1000
0100
0010
0001
1000
0100
1000
0001
,
0010
0001
0100
0010
1000
0001
0100
0001
0010
0100
1000
0001
0010
0001
0100
0010
1000
0001
0100
0010
0100
0001
1000
0100
0010
0001
1000
0001
0010
0100
1000
0010
,
0100
0001
1000
0100
0010
0001
0100
0001
0010
0100
1000
0001
0010
0001
0100
0010
1000
0001
0100
0001
1000
0010
0100
0001
1000
0100
1000
0001
0100
0010
0100
0001
,
1000
0100
0010
0001
1000
0100
1000
0001
0010
0001
0100
0010
1000
0001
0100
0001
0010
0100
1000
0001
0010
0001
0100
0010
1000
0001
0100
0001
0010
0100
1000
0100
,
0010
0001
1000
0010
0100
0001
1000
0010
1000
0001
0100
0001
0010
0100
1000
0001
0010
0001
0100
0010
1000
0001
0100
0001
0010
0100
1000
0001
0010
0001
0100
0010
,
1000
0001
0100
0010
0100
0001
1000
0100
0010
0100
1000
0001
0010
0001
0100
0010
1000
0001
0100
0001
0010
0100
1000
0001
0100
0010
1000
0001
0100
0001
1000
0100
,
0010
0001
1000
0010
0100
0001
0010
0100
1000
0001
0010
0001
0100
0010
1000
0001
0100
0010
0100
0001
1000
0100
0010
0001
1000
0010
0100
0001
1000
0100
1000
0001
,
0010
0001
0100
0010
1000
0001
0100
0001
1000
0100
0010
0001
1000
0010
0100
0001
1000
0100
1000
0001
0010
0001
0100
0010
1000
0001
0100
0010
0100
0001
1000
0100
,
0010
0001
1000
0100
1000
0001
0010
0001
0100
0010
1000
0001
0100
0001
1000
0100
0010
0001
1000
0010
0100
0001
0100
0010
1000
0001
0100
0001
0010
0100
1000
0001
,
0010
0001
0100
0010
1000
0001
0100
0010
0100
0001
1000
0100
0010
0001
1000
0100
1000
0010
0100
0001
1000
0100
0010
0001
1000
0010
0100
0001
0100
0010
1000
0001
,
1000
0100
0010
0001
1000
0001
0010
0100
1000
0001
0100
0001
0010
0100
1000
0001
1000
0010
0100
0001
1000
0100
0010
0001
1000
0010
0100
0001
1000
0100
1000
0001
,
0100
0010
0100
0001
1000
0100
0010
0001
1000
0100
1000
0001
0100
0010
1000
0001
0100
0001
0010
0100
1000
0010
0100
0001
1000
0000
0100
0000
0000
0000
0010
0000
,
0001
1000
0010
0100
0001
1000
0100
1000
0001
0100
0010
1000
0001
0100
0010
0100
0001
1000
0100
0010
0100
1000
0001
1000
0100
0010
0001
1000
0010
0100
0001
1000
,
0100
0010
0001
1000
0010
0100
0001
1000
0100
1000
0001
0100
0001
0010
0100
1000
0001
0010
0001
0100
0010
1000
0001
0100
0001
1000
0010
0100
0001
1000
0100
0010
,
0001
1000
0010
0100
0001
1000
0100
1000
0001
1000
0100
0010
0001
1000
0010
0100
0001
1000
0001
0010
0100
1000
0001
0010
0001
0100
0010
1000
0001
0100
0010
0100
,
0001
1000
0100
0010
0001
1000
0010
0100
0001
1000
0100
1000
0001
0100
0001
0010
0100
1000
0001
0010
0001
0100
0010
1000
0001
0100
0001
1000
0010
0100
0001
1000
,
0100
0010
0001
0100
0001
1000
0100
0010
0001
1000
0010
0100
0001
0100
0010
1000
0001
0010
0100
1000
0100
0010
0001
1000
0100
1000
0001
0100
0010
1000
0001
0100
,
0001
0010
0100
1000
0001
0010
0001
0100
0010
1000
0001
0100
0010
0100
0001
1000
0100
0010
0001
1000
0100
1000
0001
0100
0010
1000
0001
0100
0001
0010
0100
1000
,
0100
0010
0001
1000
0100
1000
0001
0010
0001
0100
0010
1000
0001
0010
0100
1000
0001
0010
0001
1000
0100
0010
0100
1000
0001
0010
0001
0100
0010
1000
0001
0100
,
0001
1000
0100
0010
0100
1000
0001
0010
0001
0100
0010
1000
0001
0100
0001
1000
0100
0010
0001
1000
0010
0100
0001
1000
0100
0010
0100
1000
0001
0010
0001
0100
,
0010
1000
0001
0100
0010
0100
0001
1000
0100
0010
0001
1000
0100
1000
0001
0010
0100
0010
0001
1000
0100
1000
0001
0100
0010
1000
0001
0100
0010
0100
0001
1000
,
0100
0010
0001
1000
0010
0100
0001
1000
0001
0100
0010
1000
0001
0010
0100
1000
0001
0010
0001
0100
0010
1000
0001
0100
0001
1000
0100
0010
0001
1000
0010
0100
,
0001
1000
0100
0010
0001
1000
0010
0100
0001
1000
0100
0010
0001
1000
0100
1000
0001
0010
0001
0100
0010
1000
0001
0100
0001
0010
0100
1000
0001
0100
0010
1000
,
0001
0100
0001
1000
0100
0010
0001
0100
0001
0010
0100
1000
0001
0010
0001
0100
0010
1000
0001
0100
0010
0100
0001
1000
0100
0010
0001
1000
0010
0100
0001
1000
,
0100
1000
0010
0100
0001
1000
0100
1000
0001
0010
0001
0100
0010
1000
0001
0100
0001
1000
0100
0010
0100
1000
0001
0010
0001
0100
0010
1000
0001
0100
0001
0010
,
0100
1000
0001
0010
0001
1000
0100
0010
0001
1000
0100
1000
0001
0010
0001
0100
0010
1000
0001
0100
0001
0010
0100
1000
0001
1000
0010
0100
0001
1000
0100
0010
,
0001
0000
0000
1000
0000
0000
0010
0000
0000
0100
0000
0000
0010
0000
0000
1000
0000
0000
0001
0000
0000
0010
0000
0000
0100
0000
1000
0000
0001
0000
1000
0000
0010
0000
0100
0000
0010
0000
1000
0000
0001
0000
0100
0000
0001
0000
0010
0000
,
0100
1000
0100
0010
0001
1000
0100
1000
0001
0100
0010
1000
0010
0100
0001
1000
0100
1000
0001
0010
0001
0100
0010
1000
,
0001
0010
0100
0000
1000
0010
0000
0100
0001
1000
0001
0000
0010
0100
0000
1000
,
0001
1000
0010
0000
0100
0001
0000
1000
0100
1000
0010
0000
0100
0001
0000
1000
,
0001
0010
0001
0000
0100
0010
0000
1000
0010
0100
0001
0000
1000
0100
0000
0010
,
0001
1000
0001
0000
0100
0010
0000
1000
0100
1000
0001
0000
0010
0100
0000
1000
,
0001
1000
0100
0000
0010
0001
0000
1000
0100
1000
0010
0000
0100
0001
0000
1000
,
0001
1000
0010
0000
0100
0001
0000
0100
0010
1000
0010
0000
0100
0001
0000
1000
,
0100
0010
0001
0000
1000
0001
0000
0010
0001
1000
0001
0000
0100
0010
0000
1000
,
0010
0100
0010
0000
1000
0100
0000
1000
0001
0010
0100
0000
1000
0100
0000
0010
,
0001
1000
0001
0000
0010
0100
0000
1000
0001
0100
0010
0000
0100
0001
0000
1000
,
0001
0010
0001
0000
0100
0010
0000
1000
0010
0100
0001
0000
1000
0100
0000
0010
,
0001
1000
0100
0000
0010
0001
0000
1000
0001
1000
0010
0000
0100
0001
0000
1000
,
0100
1000
0010
0000
0100
0001
0000
0010
0001
1000
0001
0000
0010
0100
0000
1000
,
0001
1000
0010
0000
0100
0001
0000
1000
0010
1000
0100
0000
0010
0001
0000
1000
,
0001
1000
0010
0000
0100
0001
0000
1000
0100
1000
0001
0000
0010
0100
0000
1000
,
0001
1000
0010
0000
0100
0001
0000
1000
0100
1000
0010
0000
0100
0001
0000
1000
,
0100
1000
0001
0000
0010
0100
0000
1000
0001
1000
0010
0000
0100
0001
0000
1000
,
0100
0010
0001
0100
0010
1000
0001
0100
0001
0010
0100
1000
0001
0010
0001
0100
0010
1000
0001
0100
0010
0100
0001
1000
0100
0010
0001
1000
0010
0100
0001
1000
,
0010
1000
0001
0100
0001
0010
0100
1000
0001
0010
0001
0100
0010
1000
0001
0100
0010
0100
0001
1000
0100
0010
0001
1000
0100
1000
0001
0100
0010
1000
0001
0100
,
0001
0010
0100
1000
0001
0010
0001
0100
0010
1000
0001
0100
0010
0100
0001
1000
0100
0010
0100
1000
0001
1000
0100
0010
0001
1000
0010
0100
0001
1000
0100
0010
,
0001
0100
0001
1000
0010
0100
0001
1000
0100
1000
0001
0100
0001
0010
0100
1000
0001
0010
0001
0100
0010
1000
0001
0100
0010
0100
0001
1000
0100
0010
0001
0100
,
0001
1000
0100
1000
0001
0010
0001
0100
0010
1000
0001
0100
0010
0100
0001
1000
0100
0010
0001
1000
0100
1000
0001
0010
0001
0100
0010
1000
0001
0100
0001
0010
,
0100
1000
0001
0010
0001
0100
0010
1000
0001
0100
0010
0100
0001
1000
0100
0010
0001
1000
0001
0010
0100
1000
0010
0100
0001
1000
0100
0010
0001
0100
0001
0010
,
0100
1000
0001
0010
0001
0100
0010
1000
0001
0100
0001
1000
0010
0100
0001
1000
0100
1000
0001
0100
0010
0100
0001
1000
0100
0010
0001
1000
0100
1000
0001
0010
,
0001
0100
0010
1000
0001
0100
0001
0010
0100
1000
0001
0010
0001
0100
0010
1000
0001
0100
0001
0010
0100
1000
0100
0010
0001
1000
0010
0100
0001
1000
0010
1000
,
0001
0100
0001
0010
0100
1000
0001
0010
0001
0100
0010
1000
0001
0100
0001
0010
0100
1000
0001
0010
0001
0100
0010
1000
0001
0100
0010
0100
0001
1000
0100
0010
,
0100
1000
0001
0010
0001
0100
0010
1000
0001
0100
0001
0010
0100
1000
0001
0100
0010
1000
0001
0100
0001
1000
0100
0010
0001
1000
0010
0100
0001
0010
0100
1000
,
0001
0010
0001
0100
0010
1000
0001
0100
0010
0100
0001
1000
0100
0010
0001
1000
0010
0100
0001
1000
0100
1000
0001
0010
0001
0100
0010
1000
0001
0100
0001
1000
,
0100
0010
0001
1000
0010
0100
0001
1000
0100
1000
0001
0010
0001
0100
0010
1000
0001
0100
0010
0100
0001
1000
0100
0010
0001
1000
0100
1000
0001
0010
0001
0100
,
0010
1000
0001
0100
0001
1000
0100
0010
0001
1000
0010
0100
0001
0100
0010
1000
0001
0100
0001
0010
0100
1000
0001
0010
0001
0100
0010
1000
0001
0100
0010
0100
,
0001
1000
0100
0010
0001
1000
0100
1000
0010
0100
0001
1000
0100
0010
0001
1000
0010
0100
0001
0100
0010
1000
0001
1000
0100
0010
0001
1000
0001
0010
0100
1000
,
0001
0000
0000
1000
0000
0000
0001
0000
0000
0010
0000
0000
0100
0000
0000
1000
0000
0000
0010
0000
0000
1000
0000
0000
0001
0000
0100
0000
0001
0000
1000
0000
0010
0000
0100
0000
0010
0000
1000
0000
0001
0000
0010
0000
0100
0000
1000
0000
,
0001
0000
1000
0000
0100
0000
0010
0000
0001
0000
1000
0000
0010
0000
0000
0100
0000
0000
0001
0000
1000
0000
0001
0000
0010
0000
0100
0000
1000
0000
0010
0000
1000
0000
0001
0000
0100
0000
0010
0000
0100
0000
0001
0000
1000
0000
0100
0000
,
0010
0001
1000
0001
0100
0010
1000
0001
0100
0001
1000
0100
0010
0001
1000
0010
0100
0001
0100
0010
1000
0001
0100
0001
1000
0100
0010
0001
1000
0010
0100
0001
,
1000
0100
1000
0001
0100
0010
1000
0001
0100
0001
0010
0100
1000
0001
0010
0001
0100
0010
1000
0001
0100
0010
0100
0001
1000
0100
0010
0001
1000
0010
0100
0001
,
1000
0010
1000
0001
0100
0001
0010
0100
1000
0001
0010
0001
0100
0010
1000
0001
0100
0010
0100
0001
1000
0100
0010
0001
1000
0100
1000
0001
0100
0010
1000
0001
,
0100
0001
0010
0100
1000
0001
0010
0001
0100
0010
1000
0001
0100
0010
0100
0001
1000
0100
0010
0100
1000
0001
1000
0100
0010
0001
1000
0010
0100
0001
1000
0100
,
0010
0001
0100
0001
1000
0010
0100
0001
1000
0100
1000
0001
0100
0001
0010
0100
1000
0001
0010
0001
0100
0010
1000
0001
0100
0010
0100
0001
1000
0100
0010
0001
,
0100
0001
1000
0100
1000
0001
0010
0001
0100
0010
1000
0001
0100
0010
0100
0001
1000
0100
0010
0001
1000
0100
1000
0001
0010
0001
0100
0010
1000
0001
0100
0001
,
0010
0100
1000
0001
0010
0001
0100
0010
1000
0001
0100
0010
0100
0001
1000
0100
0010
0001
1000
0001
0010
0100
1000
0010
0100
0001
1000
0100
0010
0001
0100
0001
,
0010
0100
1000
0001
0010
0001
0100
0010
1000
0001
0100
0001
1000
0010
0100
0001
1000
0100
1000
0001
0100
0010
0100
0001
1000
0100
0010
0001
1000
0100
1000
0001
,
0010
0001
0100
0010
1000
0001
0100
0001
0010
0100
1000
0001
0010
0001
0100
0010
1000
0001
0100
0001
0010
0100
1000
0100
0010
0001
1000
0010
0100
0001
1000
0010
,
1000
0001
0100
0001
0010
0100
1000
0001
0010
0001
0100
0010
1000
0001
0100
0001
0010
0100
1000
0001
0010
0001
0100
0010
1000
0001
0100
0010
0100
0001
1000
0100
,
0010
0100
1000
0001
0010
0001
0100
0010
1000
0001
0100
0001
0010
0100
1000
0001
0100
0010
1000
0001
0100
0001
1000
0100
0010
0001
1000
0010
0100
0001
0010
0100
,
1000
0001
0010
0001
0100
0010
1000
0001
0100
0010
0100
0001
1000
0100
0010
0001
1000
0010
0100
0001
1000
0100
1000
0001
0010
0001
0100
0010
1000
0001
0100
0001
,
1000
0100
0010
0001
1000
0010
0100
0001
1000
0100
1000
0001
0010
0001
0100
0010
1000
0001
0100
0010
0100
0001
1000
0100
0010
0001
1000
0100
1000
0001
0010
0001
,
0100
0010
1000
0001
0100
0001
1000
0100
0010
0001
1000
0010
0100
0001
0100
0010
1000
0001
0100
0001
0010
0100
1000
0001
0010
0001
0100
0010
1000
0001
0100
0010
,
0100
0001
1000
0100
0010
0001
1000
0100
1000
0010
0100
0001
1000
0100
0010
0001
1000
0010
0100
0001
0100
0010
1000
0001
1000
0100
0010
0001
1000
0001
0010
0100
,
1000
0001
0100
0001
0010
0100
1000
0001
1000
0010
0100
0001
1000
0100
0010
0001
1000
0010
0100
0001
1000
0001
0100
0010
1000
0100
0010
0001
1000
0100
1000
0001
,
0100
0010
1000
0001
0100
0001
0010
0100
1000
0001
0010
0001
0100
0010
1000
0001
0100
0010
0100
0001
1000
0100
0010
0001
1000
0010
0100
0001
1000
0010
1000
0001
,
0100
0001
0010
0100
1000
0001
0010
0001
0100
0010
1000
0001
0100
0010
0100
0001
1000
0100
0010
0001
1000
0100
1000
0001
0100
0010
1000
0001
0100
0001
0010
0100
,
1000
0001
0010
0001
0100
0010
1000
0001
0100
0010
0100
0001
1000
0100
0010
0100
1000
0001
1000
0100
0010
0001
1000
0010
0100
0001
1000
0100
0010
0001
0100
0001
,
1000
0010
0100
0001
1000
0100
1000
0001
0100
0001
0010
0100
1000
0001
0010
0001
0100
0010
1000
0001
0100
0010
0100
0001
1000
0100
0010
0001
0100
0001
1000
0100
,
1000
0001
0010
0001
0100
0010
1000
0001
0100
0010
0100
0001
1000
0100
0010
0001
1000
0100
1000
0001
0010
0001
0100
0010
1000
0001
0100
0001
0010
0100
1000
0001
,
0010
0001
0100
0010
1000
0001
0100
0010
0100
0001
1000
0100
0010
0001
1000
0001
0010
0100
1000
0010
0100
0001
1000
0100
0010
0001
0100
0001
0010
0100
1000
0001
,
0010
0001
0100
0010
1000
0001
0100
0001
1000
0010
0100
0001
1000
0100
1000
0001
0100
0010
0100
0001
1000
0100
0010
0001
1000
0100
1000
0001
0010
0001
0100
0010
,
1000
0001
0100
0001
0010
0100
1000
0001
0010
0001
0100
0010
1000
0001
0100
0001
0010
0100
1000
0100
0010
0001
1000
0010
0100
0001
1000
0010
1000
0001
0100
0001
,
0010
0100
1000
0001
0010
0001
0100
0010
1000
0001
0100
0001
0010
0100
1000
0001
0010
0001
0100
0010
1000
0001
0100
0010
0100
0001
1000
0100
0010
0100
1000
0001
,
0010
0001
0100
0010
1000
0001
0100
0001
0010
0100
1000
0001
0100
0010
1000
0001
0100
0001
1000
0100
0010
0001
1000
0010
0100
0001
0010
0100
1000
0001
0010
0001
,
0100
0010
1000
0001
0100
0010
0100
0001
1000
0100
0010
0001
1000
0010
0100
0001
1000
0100
1000
0001
0010
0001
0100
0010
1000
0001
0100
0001
1000
0100
0010
0001
,
1000
0010
0100
0001
1000
0100
1000
0001
0010
0001
0100
0010
1000
0001
0100
0010
0100
0001
1000
0100
0010
0001
1000
0100
1000
0001
0010
0001
0100
0010
1000
0001
,
0100
0001
1000
0100
0010
0001
1000
0010
0100
0001
0100
0010
1000
0001
0100
0001
0010
0100
1000
0001
0010
0001
0100
0010
1000
0001
0100
0010
0100
0001
1000
0100
,
0010
0001
1000
0100
1000
0010
0100
0001
1000
0100
0010
0001
1000
0010
0100
0001
0100
0010
1000
0001
1000
0100
0010
0001
1000
0001
0010
0100
1000
0001
0100
0001
,
0010
0100
1000
0001
1000
0010
0100
0001
1000
0100
0010
0001
1000
0010
0100
0001
1000
0100
1000
0001
0100
0010
0100
0001
1000
0100
0010
0001
1000
0100
1000
0001
,
0100
0010
1000
0001
0100
0001
0010
0100
1000
0010
0100
0001
1000
0010
1000
0001
0100
0010
1000
0001
0100
0001
1000
0100
0010
0001
1000
0010
0100
0001
0100
0010
,
1000
0001
0100
0001
1000
0100
0010
0001
1000
0010
0100
0001
1000
0100
1000
0001
0100
0010
1000
0001
0100
0001
0010
0100
1000
0001
0010
0001
0100
0010
1000
0001
,
0100
0010
0100
0001
1000
0100
0010
0001
1000
0010
0100
0001
1000
0010
1000
0001
0100
0001
0010
0100
1000
0001
0010
0001
0100
0010
1000
0001
0100
0010
0100
0001
,
1000
0100
0010
0001
1000
0100
1000
0001
0100
0010
1000
0001
0100
0001
0010
0100
1000
0001
0010
0001
0100
0010
1000
0001
0100
0010
0100
0001
1000
0100
0010
0100
,
1000
0001
1000
0100
0010
0001
1000
0010
0100
0001
1000
0100
0010
0001
0100
0001
1000
0010
0100
0001
1000
0100
1000
0001
0100
0001
0010
0100
1000
0001
0010
0001
,
0100
0010
1000
0001
0100
0010
0100
0001
1000
0100
0010
0001
0100
0001
1000
0100
1000
0001
0010
0001
0100
0010
1000
0001
0100
0010
0100
0001
1000
0100
0010
0001
,
1000
0100
1000
0001
0010
0001
0100
0010
1000
0001
0100
0001
0010
0100
1000
0001
0010
0001
0100
0010
1000
0001
0100
0010
0100
0001
1000
0100
0010
0001
1000
0001
,
0010
0100
1000
0010
0100
0001
1000
0100
0010
0001
0100
0001
0010
0100
1000
0001
0010
0001
0100
0010
1000
0001
0100
0001
1000
0010
0100
0001
1000
0100
1000
0001
,
0100
0010
0100
0001
1000
0100
0010
0001
1000
0100
1000
0001
0010
0001
0100
0010
1000
0001
0100
0001
0010
0100
1000
0001
0010
0001
0100
0010
1000
0001
0100
0001
,
0010
0100
1000
0100
0010
0001
1000
0010
0100
0001
1000
0010
1000
0001
0100
0001
0010
0100
1000
0001
0010
0001
0100
0010
1000
0001
0100
0001
0010
0100
1000
0001
,
0010
0001
0100
0010
1000
0001
0100
0010
0100
0001
1000
0100
0010
0100
1000
0001
0010
0001
0100
0010
1000
0001
0100
0001
0010
0100
1000
0001
0100
0010
1000
0001
,
0100
0001
1000
0100
0010
0001
1000
0010
0100
0001
0010
0100
1000
0001
0010
0001
0100
0010
1000
0001
0100
0010
0100
0001
1000
0100
0010
0001
1000
0010
0100
0001
,
1000
0100
1000
0001
0010
0001
0100
0010
1000
0001
0100
0001
1000
0100
0010
0001
1000
0010
0100
0001
1000
0100
1000
0001
0010
0001
0100
0010
1000
0001
0100
0010
,
0100
0001
1000
0100
0010
0001
1000
0100
1000
0001
0010
0001
0100
0010
1000
0001
0100
0001
1000
0100
0010
0001
1000
0010
0100
0001
0100
0010
1000
0001
0100
0001
,
0010
0100
1000
0001
0010
0001
0100
0010
1000
0001
0100
0010
0100
0001
1000
0100
0010
0001
1000
0100
1000
0010
0100
0001
1000
0100
0010
0001
1000
0010
0100
0001
,
0100
0010
1000
0001
1000
0100
0010
0001
1000
0001
0010
0100
1000
0001
0100
0001
0010
0100
1000
0001
1000
0010
0100
0001
1000
0100
0010
0001
1000
0010
0100
0001
,
1000
0001
0100
0010
1000
0100
0010
0001
1000
0100
1000
0001
0100
0010
1000
0001
0100
0001
0010
0100
1000
0001
0010
0001
0100
0010
1000
0001
0100
0010
0100
0001
,
1000
0100
0010
0001
1000
0010
0100
0001
1000
0010
1000
0001
0100
0001
0010
0100
1000
0001
0010
0001
0100
0010
1000
0001
0100
0010
0100
0001
1000
0100
0010
0001
,
1000
0100
1000
0001
0100
0010
1000
0001
0100
0001
0010
0100
1000
0001
0010
0001
0100
0010
1000
0001
0100
0010
0100
0001
1000
0100
0010
0100
1000
0001
1000
0100
,
0010
0001
1000
0010
0100
0001
1000
0100
0010
0001
0100
0001
1000
0010
0100
0001
1000
0100
1000
0001
0100
0001
0010
0100
1000
0001
0010
0001
0100
0010
1000
0001
,
0100
0010
0100
0001
1000
0100
0010
0001
0100
0001
1000
0100
1000
0001
0010
0001
0100
0010
1000
0001
0100
0010
0100
0001
1000
0100
0010
0001
1000
0100
1000
0001
,
0010
0001
0100
0010
1000
0001
0100
0001
0010
0100
1000
0001
0010
0001
0100
0010
1000
0001
0100
0010
0100
0001
1000
0100
0010
0001
1000
0001
0010
0100
1000
0010
,
0100
0001
1000
0100
0010
0001
0100
0001
0010
0100
1000
0001
0010
0001
0100
0010
1000
0001
0100
0001
1000
0010
0100
0001
1000
0100
1000
0001
0100
0010
0100
0001
,
1000
0100
0010
0001
1000
0100
1000
0001
0010
0001
0100
0010
1000
0001
0100
0001
0010
0100
1000
0001
0010
0001
0100
0010
1000
0001
0100
0001
0010
0100
1000
0100
,
0010
0001
1000
0010
0100
0001
1000
0010
1000
0001
0100
0001
0010
0100
1000
0001
0010
0001
0100
0010
1000
0001
0100
0001
0010
0100
1000
0001
0010
0001
0100
0010
,
1000
0001
0100
0010
0100
0001
1000
0100
0010
0100
1000
0001
0010
0001
0100
0010
1000
0001
0100
0001
0010
0100
1000
0001
0100
0010
1000
0001
0100
0001
1000
0100
,
0010
0001
1000
0010
0100
0001
0010
0100
1000
0001
0010
0001
0100
0010
1000
0001
0100
0010
0100
0001
1000
0100
0010
0001
1000
0010
0100
0001
1000
0100
1000
0001
,
0010
0001
0100
0010
1000
0001
0100
0001
1000
0100
0010
0001
1000
0010
0100
0001
1000
0100
1000
0001
0010
0001
0100
0010
1000
0001
0100
0010
0100
0001
1000
0100
,
0010
0001
1000
0100
1000
0001
0010
0001
0100
0010
1000
0001
0100
0001
1000
0100
0010
0001
1000
0010
0100
0001
0100
0010
1000
0001
0100
0001
0010
0100
1000
0001
,
0010
0001
0100
0010
1000
0001
0100
0010
0100
0001
1000
0100
0010
0001
1000
0100
1000
0010
0100
0001
1000
0100
0010
0001
1000
0010
0100
0001
0100
0010
1000
0001
,
1000
0100
0010
0001
1000
0001
0010
0100
1000
0001
0100
0001
0010
0100
1000
0001
1000
0010
0100
0001
1000
0100
0010
0001
1000
0010
0100
0001
1000
0100
1000
0001
,
0100
0010
0100
0001
1000
0100
0010
0001
1000
0100
1000
0001
0100
0010
1000
0001
0100
0001
0010
0100
1000
0010
0100
0001
1000
0100
0010
0001
1000
0010
0100
0001
,
0100
0010
1000
0001
0100
0001
0010
0100
1000
0100
0010
0001
1000
0100
1000
0001
0010
0001
0100
0010
1000
0001
0100
0001
1000
0100
0010
0001
1000
0010
0100
0001
,
1000
0010
0100
0000
0100
0001
0000
1000
0010
1000
0001
0000
0010
0001
0000
1000
,
0010
1000
0100
0000
0010
0001
0000
0010
0100
1000
0001
0000
0100
0001
0000
1000
,
0010
1000
0001
0000
0010
0100
0000
1000
0001
1000
0010
0000
0100
0001
0000
1000
,
0100
1000
0010
0000
0100
0001
0000
1000
0001
0010
0001
0000
0100
0010
0000
1000
,
0001
1000
0100
0000
0010
0001
0000
1000
0010
0100
0010
0000
1000
0001
0000
0010
,
0100
1000
0001
0000
0100
0001
0000
1000
0010
1000
0001
0000
0010
0100
0000
1000
,
0100
1000
0001
0000
0100
0010
0000
1000
0001
0010
0100
0000
1000
0010
0000
0100
,
0001
1000
0001
0000
0100
0010
0000
1000
0100
1000
0010
0000
0100
0001
0000
1000
,
0100
0010
0001
0000
1000
0100
0000
0010
0001
1000
0001
0000
0100
0010
0000
1000
,
0010
0100
0001
0000
1000
0001
0000
0010
0100
1000
0001
0000
0010
0100
0000
1000
,
0001
1000
0010
0000
0100
0001
0000
1000
0100
1000
0010
0000
0100
0001
0000
0010
,
0001
1000
0001
0000
0010
0100
0000
1000
0100
1000
0001
0000
0100
0001
0000
1000
,
0010
1000
0001
0000
0100
0010
0000
1000
0100
1000
0001
0000
0010
0100
0000
1000
,
0001
1000
0100
0000
0010
0001
0000
1000
0001
1000
0010
0000
0100
0001
0000
1000
,
0001
1000
0010
0000
0100
0001
0000
0100
0010
1000
0001
0000
0010
0001
0000
1000
,
0010
0100
0001
0000
1000
0001
0000
0010
0100
1000
0001
0000
0100
0001
0000
1000
,
0010
1000
0001
0000
0010
0100
0000
1000
0001
1000
0010
0000
0100
0001
0000
1000
,
0100
1000
0010
0000
0100
0001
0000
1000
0001
0010
0001
0000
0100
0010
0000
1000
,
0001
1000
0100
0000
0010
0001
0000
1000
0010
0100
0010
0000
1000
0001
0000
0010
,
0100
1000
0001
0000
0100
0001
0000
1000
0010
1000
0001
0000
0010
0100
0000
1000
,
0100
1000
0001
0000
0100
0010
0000
1000
0001
0010
0100
0000
1000
0010
0000
0100
,
0001
1000
0001
0000
0100
0010
0000
1000
0100
1000
0010
0000
0100
0001
0000
1000
,
0100
0010
0001
0000
1000
0100
0000
0010
0001
1000
0001
0000
0100
0010
0000
1000
,
0010
0100
0001
0000
1000
0001
0000
0010
0100
1000
0001
0000
0010
0100
0000
1000
,
0001
1000
0010
0000
0100
0001
0000
1000
0100
1000
0010
0000
0100
0001
0000
0010
,
0001
1000
0001
0000
0010
0100
0000
1000
0100
1000
0001
0000
0100
0001
0000
1000
,
0010
1000
0001
0000
0100
0010
0000
1000
0100
1000
0001
0000
0010
0100
0000
1000
,
0001
1000
0100
0000
0010
0001
0000
1000
0001
1000
0010
0000
0100
0001
0000
0100
,
0001
1000
0001
0000
0010
0100
0000
1000
0001
1000
0010
0000
0100
0001
0000
1000
,
0100
1000
0010
0000
0100
0001
0000
0010
0100
1000
0001
0000
0100
0001
0000
1000
,
0010
1000
0001
0000
0010
0100
0000
1000
0001
0100
0001
1000
0010
0100
0010
1000
,
0001
0010
0001
1000
0100
0010
0001
1000
0100
1000
0010
0100
0001
0100
0010
1000
,
0001
0010
0100
1000
0010
1000
0001
0100
0001
0010
0100
1000
0001
0010
0001
0100
0010
1000
0001
0100
0010
0100
0001
1000
0100
0010
0001
1000
0010
0100
0001
1000
,
0010
1000
0001
0100
0001
0010
0100
1000
0001
0010
0001
0100
0010
1000
0001
0100
0010
0100
0001
1000
0100
0010
0001
1000
0100
1000
0001
0100
0010
1000
0001
0100
,
0001
0010
0100
1000
0001
0010
0001
0100
0010
1000
0001
0100
0010
0100
0001
1000
0100
0010
0100
1000
0001
1000
0100
0010
0001
1000
0010
0100
0001
1000
0100
0010
,
0001
0100
0001
1000
0010
0100
0001
1000
0100
1000
0001
0100
0001
0010
0100
1000
0001
0010
0001
0100
0010
1000
0001
0100
0010
0100
0001
1000
0100
0010
0001
0100
,
0001
1000
0100
1000
0001
0010
0001
0100
0010
1000
0001
0100
0010
0100
0001
1000
0100
0010
0001
1000
0100
1000
0001
0010
0001
0100
0010
1000
0001
0100
0001
0010
,
0100
1000
0001
0010
0001
0100
0010
1000
0001
0100
0010
0100
0001
1000
0100
0010
0001
1000
0001
0010
0100
1000
0010
0100
0001
1000
0100
0010
0001
0100
0001
0010
,
0100
1000
0001
0010
0001
0100
0010
1000
0001
0100
0001
1000
0010
0100
0001
1000
0100
1000
0001
0100
0010
0100
0001
1000
0100
0010
0001
1000
0100
1000
0001
0010
,
0001
0100
0010
1000
0001
0100
0001
0010
0100
1000
0001
0010
0001
0100
0010
1000
0001
0100
0001
0010
0100
1000
0100
0010
0001
1000
0010
0100
0001
1000
0010
1000
,
0001
0100
0001
0010
0100
1000
0001
0010
0001
0100
0010
1000
0001
0100
0001
0010
0100
1000
0001
0010
0001
0100
0010
1000
0001
0100
0010
0100
0001
1000
0100
0010
,
0100
1000
0001
0010
0001
0100
0010
1000
0001
0100
0001
0010
0100
1000
0001
0100
0010
1000
0001
0100
0001
1000
0100
0010
0001
1000
0010
0100
0001
0010
0100
1000
,
0001
0010
0001
0100
0010
1000
0001
0100
0010
0100
0001
1000
0100
0010
0001
1000
0010
0100
0001
1000
0100
1000
0001
0010
0001
0100
0010
1000
0001
0100
0001
1000
,
0100
0010
0001
1000
0010
0100
0001
1000
0100
1000
0001
0010
0001
0100
0010
1000
0001
0100
0010
0100
0001
1000
0100
0010
0001
1000
0100
1000
0001
0010
0001
0100
,
0010
1000
0001
0100
0001
1000
0100
0010
0001
1000
0010
0100
0001
0100
0010
1000
0001
0100
0001
0010
0100
1000
0001
0010
0001
0100
0010
1000
0001
0100
0010
0100
,
0001
1000
0100
0010
0001
1000
0100
1000
0010
0100
0001
1000
0100
0010
0001
1000
0010
0100
0001
0100
0010
1000
0001
1000
0100
0010
0001
1000
0001
0010
0100
1000
,
0001
0100
0010
1000
0001
0100
0001
1000
0100
0010
0001
1000
0010
0100
0001
1000
0100
0010
0001
1000
0100
1000
0010
0100
0001
1000
0001
0100
0010
1000
0001
0100
,
0001
0010
0100
1000
0001
0010
0001
1000
0100
0010
0100
1000
0001
0010
0001
0100
0010
1000
0001
0100
0001
1000
0100
0010
0001
0000
1000
0000
0010
0000
0100
0000
,
0001
1000
0010
0100
0010
1000
0001
0100
0001
0010
0100
1000
0001
0010
0001
0100
0010
1000
0001
0100
0010
0100
0001
1000
0100
0010
0001
1000
0010
0100
0001
1000
,
0010
1000
0001
0100
0001
0010
0100
1000
0001
0010
0001
0100
0010
1000
0001
0100
0010
0100
0001
1000
0100
0010
0001
1000
0100
1000
0001
0100
0010
1000
0001
0100
,
0001
0010
0100
1000
0001
0010
0001
0100
0010
1000
0001
0100
0010
0100
0001
1000
0100
0010
0100
1000
0001
1000
0100
0010
0001
1000
0010
0100
0001
1000
0100
0010
,
0001
0100
0001
1000
0010
0100
0001
1000
0100
1000
0001
0100
0001
0010
0100
1000
0001
0010
0001
0100
0010
1000
0001
0100
0010
0100
0001
1000
0100
0010
0001
0100
,
0001
1000
0100
1000
0001
0010
0001
0100
0010
1000
0001
0100
0010
0100
0001
1000
0100
0010
0001
1000
0100
1000
0001
0010
0001
0100
0010
1000
0001
0100
0001
0010
,
0100
1000
0001
0010
0001
0100
0010
1000
0001
0100
0010
0100
0001
1000
0100
0010
0001
1000
0001
0010
0100
1000
0010
0100
0001
1000
0100
0010
0001
0100
0001
0010
,
0100
1000
0001
0010
0001
0100
0010
1000
0001
0100
0001
1000
0010
0100
0001
1000
0100
1000
0001
0100
0010
0100
0001
1000
0100
0010
0001
1000
0100
1000
0001
0010
,
0001
0100
0010
1000
0001
0100
0001
0010
0100
1000
0001
0010
0001
0100
0010
1000
0001
0100
0001
0010
0100
1000
0100
0010
0001
1000
0010
0100
0001
1000
0010
1000
,
0001
0100
0001
0010
0100
1000
0001
0010
0001
0100
0010
1000
0001
0100
0001
0010
0100
1000
0001
0010
0001
0100
0010
1000
0001
0100
0010
0100
0001
1000
0100
0010
,
0100
1000
0001
0010
0001
0100
0010
1000
0001
0100
0001
0010
0100
1000
0001
0100
0010
1000
0001
0100
0001
1000
0100
0010
0001
1000
0010
0100
0001
0010
0100
1000
,
0001
0010
0001
0100
0010
1000
0001
0100
0010
0100
0001
1000
0100
0010
0001
1000
0010
0100
0001
1000
0100
1000
0001
0010
0001
0100
0010
1000
0001
0100
0001
1000
,
0100
0010
0001
1000
0010
0100
0001
1000
0100
1000
0001
0010
0001
0100
0010
1000
0001
0100
0010
0100
0001
1000
0100
0010
0001
1000
0100
1000
0001
0010
0001
0100
,
0010
1000
0001
0100
0001
1000
0100
0010
0001
1000
0010
0100
0001
0100
0010
1000
0001
0100
0001
0010
0100
1000
0001
0010
0001
0100
0010
1000
0001
0100
0010
0100
,
0001
1000
0100
0010
0001
1000
0100
1000
0010
0100
0001
1000
0100
0010
0001
1000
0010
0100
0001
0100
0010
1000
0001
1000
0100
0010
0001
1000
0001
0010
0100
1000
,
0001
0100
0010
1000
0001
0100
0001
1000
0100
1000
0001
0010
0100
0010
0001
1000
0100
1000
0001
0100
0010
1000
0001
0100
0001
1000
0010
0100
0001
0100
0010
1000
,
0001
1000
0100
0010
0001
1000
0010
0100
0001
0000
0100
0000
0001
0000
1000
0000
0010
0000
0100
0000
0010
0000
1000
0000
0001
0000
0010
0000
0100
0000
1000
0000
,
0001
1000
0010
0100
0001
0100
0010
1000
0001
0100
0001
1000
0100
0010
0001
1000
0010
0100
0001
1000
0100
1000
0001
0100
0010
1000
0001
0100
0001
0010
0100
1000
,
0001
0010
0001
0100
0010
1000
0001
0100
0010
0100
0001
1000
0100
0010
0001
1000
0010
0100
0001
1000
0010
1000
0001
0100
0001
0010
0100
1000
0001
0010
0001
0100
,
0010
1000
0001
0100
0010
0100
0001
1000
0100
0010
0001
1000
0100
1000
0001
0100
0010
1000
0001
0100
0001
0010
0100
1000
0001
0010
0001
0100
0010
1000
0001
0100
,
0010
0100
0001
1000
0100
0010
0100
1000
0001
1000
0100
0010
0001
1000
0010
0100
0001
1000
0100
0010
0001
0100
0001
1000
0010
0100
0001
1000
0100
1000
0001
0100
,
0001
0010
0100
1000
0001
0010
0001
0100
0010
1000
0001
0100
0010
0100
0001
1000
0100
0010
0001
0100
0001
1000
0100
1000
0001
0010
0001
0100
0010
1000
0001
0100
,
0010
0100
0001
1000
0100
0010
0001
1000
0100
1000
0001
0010
0001
0100
0010
1000
0001
0100
0001
0010
0100
1000
0001
0010
0001
0100
0010
1000
0001
0100
0010
0100
,
0001
1000
0100
0010
0001
1000
0001
0010
0100
1000
0010
0100
0001
1000
0100
0010
0001
0100
0001
0010
0100
1000
0001
0010
0001
0100
0010
1000
0001
0100
0001
1000
,
0010
0100
0001
1000
0100
1000
0001
0100
0010
0100
0001
1000
0100
0010
0001
1000
0100
1000
0001
0010
0001
0100
0010
1000
0001
0100
0001
0010
0100
1000
0001
0010
,
0001
0100
0010
1000
0001
0100
0001
0010
0100
1000
0100
0010
0001
1000
0010
0100
0001
1000
0010
1000
0001
0100
0001
0010
0100
1000
0001
0010
0001
0100
0010
1000
,
0001
0100
0001
0010
0100
1000
0001
0010
0001
0100
0010
1000
0001
0100
0010
0100
0001
1000
0100
0010
0100
1000
0001
0010
0001
0100
0010
1000
0001
0100
0001
0010
,
0100
1000
0001
0100
0010
1000
0001
0100
0001
1000
0100
0010
0001
1000
0010
0100
0001
0010
0100
1000
0001
0010
0001
0100
0010
1000
0001
0100
0010
0100
0001
1000
,
0100
0010
0001
1000
0010
0100
0001
1000
0100
1000
0001
0010
0001
0100
0010
1000
0001
0100
0001
1000
0100
0010
0001
1000
0010
0100
0001
1000
0100
1000
0001
0010
,
0001
0100
0010
1000
0001
0100
0010
0100
0001
1000
0100
0010
0001
1000
0100
1000
0001
0010
0001
0100
0010
1000
0001
0100
0001
1000
0100
0010
0001
1000
0010
0100
,
0001
0100
0010
1000
0001
0100
0001
0010
0100
1000
0001
0010
0001
0100
0010
1000
0001
0100
0010
0100
0001
1000
0100
0010
0001
1000
0100
1000
0010
0100
0001
1000
,
0100
0010
0001
1000
0010
0100
0001
0100
0010
1000
0001
1000
0100
0010
0001
1000
0001
0010
0100
1000
0001
0100
0001
0010
0100
1000
0001
1000
0010
0100
0001
1000
,
0100
0010
0001
1000
0010
0100
0001
1000
0001
0100
0010
1000
0100
0010
0001
1000
0100
1000
0001
0100
0010
1000
0001
0100
0001
0010
0100
1000
0001
0010
0001
0100
,
0010
1000
0001
0100
0010
0100
0001
1000
0100
0010
0001
1000
0010
0100
0001
1000
0010
1000
0001
0100
0001
0010
0100
1000
0001
0010
0001
0100
0010
1000
0001
0100
,
0010
0100
0001
1000
0100
0010
0001
1000
0100
1000
0001
0100
0010
1000
0001
0100
0001
0010
0100
1000
0001
0010
0001
0100
0010
1000
0001
0100
0010
0100
0001
1000
,
0100
0010
0100
1000
0001
1000
0100
0010
0001
1000
0010
0100
0001
1000
0100
0010
0001
0100
0001
1000
0010
0100
0001
1000
0100
1000
0001
0100
0001
0010
0100
1000
,
0001
0010
0001
0100
0010
1000
0001
0100
0010
0100
0001
1000
0100
0010
0001
0100
0001
1000
0100
1000
0001
0010
0001
0100
0010
1000
0001
0100
0010
0100
0001
1000
,
0100
0010
0001
1000
0100
1000
0001
0010
0001
0100
0010
1000
0001
0100
0001
0010
0100
1000
0001
0010
0001
0100
0010
1000
0001
0100
0010
0100
0001
1000
0100
0010
,
0001
1000
0001
0010
0100
1000
0010
0100
0001
1000
0100
0010
0001
0100
0001
0010
0100
1000
0001
0010
0001
0100
0010
1000
0001
0100
0001
1000
0010
0100
0001
1000
,
0100
1000
0001
0100
0010
0100
0001
1000
0100
0010
0001
1000
0100
1000
0001
0010
0001
0100
0010
1000
0001
0100
0001
0010
0100
1000
0001
0010
0001
0100
0010
1000
,
0001
0100
0001
0010
0100
1000
0100
0010
0001
1000
0010
0100
0001
1000
0010
1000
0001
0100
0001
0010
0100
1000
0001
0010
0001
0100
0010
1000
0001
0100
0001
0010
,
0100
1000
0001
0010
0001
0100
0010
1000
0001
0100
0010
0100
0001
1000
0100
0010
0100
1000
0001
0010
0001
0100
0010
1000
0001
0100
0001
0010
0100
1000
0001
0100
,
0010
1000
0001
0100
0001
1000
0100
0010
0001
1000
0010
0100
0001
0010
0100
1000
0001
0010
0001
0100
0010
1000
0001
0100
0010
0100
0001
1000
0100
0010
0001
1000
,
0010
0100
0001
1000
0100
1000
0001
0010
0001
0100
0010
1000
0001
0100
0001
1000
0100
0010
0001
1000
0010
0100
0001
1000
0100
1000
0001
0010
0001
0100
0010
1000
,
0001
0100
0010
0100
0001
1000
0100
0010
0001
1000
0100
1000
0001
0010
0001
0100
0010
1000
0001
0100
0001
1000
0100
0010
0001
1000
0010
0100
0001
0100
0010
1000
,
0001
0100
0001
0010
0100
1000
0001
0010
0001
0100
0010
1000
0001
0100
0010
0100
0001
1000
0100
0010
0001
1000
0100
1000
0010
0100
0001
1000
0100
0010
0001
1000
,
0010
0100
0001
0100
0010
1000
0001
1000
0100
0010
0001
1000
0001
0010
0100
1000
0001
0100
0001
0010
0100
1000
0001
1000
0010
0100
0001
1000
0100
0010
0001
1000
,
0010
0100
0001
1000
0100
1000
0001
0100
0010
0100
0001
1000
0100
0010
0001
1000
0100
1000
0001
0100
0010
1000
0001
0100
0001
0010
0100
1000
0010
0100
0001
1000
,
0010
1000
0001
0100
0010
1000
0001
0100
0001
1000
0100
0010
0001
1000
0010
0100
0001
0100
0010
1000
0001
0100
0001
1000
0100
0010
0001
1000
0010
0100
0001
1000
,
0100
1000
0001
0100
0010
1000
0001
0100
0001
0010
0100
1000
0001
0010
0001
0100
0010
1000
0001
0100
0010
0100
0001
1000
0100
0010
0001
1000
0010
0100
0001
1000
,
0010
1000
0001
0100
0001
0010
0100
1000
0001
0010
0001
0100
0010
1000
0001
0100
0010
0100
0001
1000
0100
0010
0001
1000
0100
1000
0001
0100
0010
1000
0001
0100
,
0001
0010
0100
1000
0001
0010
0001
0100
0010
1000
0001
0100
0010
0100
0001
1000
0100
0010
0100
1000
0001
1000
0100
0010
0001
1000
0010
0100
0001
1000
0100
0010
,
0001
0100
0001
1000
0010
0100
0001
1000
0100
1000
0001
0100
0001
0010
0100
1000
0001
0010
0001
0100
0010
1000
0001
0100
0010
0100
0001
1000
0100
0010
0001
0100
,
0001
1000
0100
1000
0001
0010
0001
0100
0010
1000
0001
0100
0010
0100
0001
1000
0100
0010
0001
1000
0100
1000
0001
0010
0001
0100
0010
1000
0001
0100
0001
0010
,
0100
1000
0001
0010
0001
0100
0010
1000
0001
0100
0010
0100
0001
1000
0100
0010
0001
1000
0001
0010
0100
1000
0010
0100
0001
1000
0100
0010
0001
0100
0001
0010
,
0100
1000
0001
0010
0001
0100
0010
1000
0001
0100
0001
1000
0010
0100
0001
1000
0100
1000
0001
0100
0010
0100
0001
1000
0100
0010
0001
1000
0100
1000
0001
0010
,
0001
0100
0010
1000
0001
0100
0001
0010
0100
1000
0001
0010
0001
0100
0010
1000
0001
0100
0001
0010
0100
1000
0100
0010
0001
1000
0010
0100
0001
1000
0010
1000
,
0001
0100
0001
0010
0100
1000
0001
0010
0001
0100
0010
1000
0001
0100
0001
0010
0100
1000
0001
0010
0001
0100
0010
1000
0001
0100
0010
0100
0001
1000
0100
0010
,
0100
1000
0001
0010
0001
0100
0010
1000
0001
0100
0001
0010
0100
1000
0001
0100
0010
1000
0001
0100
0001
1000
0100
0010
0001
1000
0010
0100
0001
0010
0100
1000
,
0001
0010
0001
0100
0010
1000
0001
0100
0010
0100
0001
1000
0100
0010
0001
1000
0010
0100
0001
1000
0100
1000
0001
0010
0001
0100
0010
1000
0001
0100
0001
1000
,
0100
0010
0001
1000
0010
0100
0001
1000
0100
1000
0001
0010
0001
0100
0010
1000
0001
0100
0010
0100
0001
1000
0100
0010
0001
1000
0100
1000
0001
0010
0001
0100
,
0010
1000
0001
0100
0001
1000
0100
0010
0001
1000
0010
0100
0001
0100
0010
1000
0001
0100
0001
0010
0100
1000
0001
0010
0001
0100
0010
1000
0001
0100
0010
0100
,
0001
1000
0100
0010
0001
1000
0100
1000
0010
0100
0001
1000
0100
0010
0001
1000
0010
0100
0001
0100
0010
1000
0001
1000
0100
0010
0001
1000
0001
0010
0100
1000
,
0001
0100
0001
0010
0100
1000
0001
1000
0010
0100
0001
1000
0100
0010
0001
1000
0010
0100
0001
1000
0001
0100
0010
1000
0100
0010
0001
1000
0100
1000
0001
0100
,
0010
0100
0001
1000
0001
0100
0010
1000
0001
0010
0001
1000
0100
0010
0001
1000
,
0001
0010
0100
1000
0001
0010
0001
0100
0010
1000
0001
0100
0010
0100
0001
1000
0100
0010
0001
1000
0100
1000
0001
0100
0010
1000
0001
0100
0001
0010
0100
1000
,
0001
0010
0001
0100
0010
1000
0001
0100
0010
0100
0001
1000
0100
0010
0100
1000
0001
1000
0100
0010
0001
1000
0010
0100
0001
1000
0100
0010
0001
0100
0001
1000
,
0010
0100
0001
1000
0100
1000
0001
0100
0001
0010
0100
1000
0001
0010
0001
0100
0010
1000
0001
0100
0010
0100
0001
1000
0100
0010
0001
0100
0001
1000
0100
1000
,
0001
0010
0001
0100
0010
1000
0001
0100
0010
0100
0001
1000
0100
0010
0001
1000
0100
1000
0001
0010
0001
0100
0010
1000
0001
0100
0001
0010
0100
1000
0001
0010
,
0001
0100
0010
1000
0001
0100
0010
0100
0001
1000
0100
0010
0001
1000
0001
0010
0100
1000
0010
0100
0001
1000
0100
0010
0001
0100
0001
0010
0100
1000
0001
0010
,
0001
0100
0010
1000
0001
0100
0001
1000
0010
0100
0001
1000
0100
1000
0001
0100
0010
0100
0001
1000
0100
0010
0001
1000
0100
1000
0001
0010
0001
0100
0010
1000
,
0001
0100
0001
0010
0100
1000
0001
0010
0001
0100
0010
1000
0001
0100
0001
0010
0100
1000
0100
0010
0001
1000
0010
0100
0001
1000
0010
1000
0001
0100
0001
0010
,
0100
1000
0001
0010
0001
0100
0010
1000
0001
0100
0001
0010
0100
1000
0001
0010
0001
0100
0010
1000
0001
0100
0010
0100
0001
1000
0100
0010
0100
1000
0001
0010
,
0001
0100
0010
1000
0001
0100
0001
0010
0100
1000
0001
0100
0010
1000
0001
0100
0001
1000
0100
0010
0001
1000
0010
0100
0001
0010
0100
1000
0001
0010
0001
0100
,
0010
1000
0001
0100
0010
0100
0001
1000
0100
0010
0001
1000
0010
0100
0001
1000
0100
1000
0001
0010
0001
0100
0010
1000
0001
0100
0001
1000
0100
0010
0001
1000
,
0010
0100
0001
1000
0100
1000
0001
0010
0001
0100
0010
1000
0001
0100
0010
0100
0001
1000
0100
0010
0001
1000
0100
1000
0001
0010
0001
0100
0010
1000
0001
0100
,
0001
1000
0100
0010
0001
1000
0010
0100
0001
0100
0010
1000
0001
0100
0001
0010
0100
1000
0001
0010
0001
0100
0010
1000
0001
0100
0010
0100
0001
1000
0100
0010
,
0001
1000
0100
1000
0010
0100
0001
1000
0100
0010
0001
1000
0010
0100
0001
0100
0010
1000
0001
1000
0100
0010
0001
1000
0001
0010
0100
1000
0001
0100
0001
0010
,
0100
1000
0001
1000
0010
0100
0001
1000
0100
0010
0001
1000
0010
0100
0001
1000
0100
1000
0001
0100
0010
0100
0001
1000
0100
0010
0001
1000
0100
1000
0001
0100
,
0010
1000
0001
0100
0001
0010
0100
1000
0010
0100
0001
1000
0100
0010
0001
1000
0010
0100
0001
0100
0010
1000
0001
0100
0001
0010
0100
1000
0100
0010
0001
1000
,
0100
1000
0001
0010
0001
0100
0010
1000
0001
0100
0001
1000
0100
0010
0001
1000
0010
0100
0001
0010
0100
1000
0001
0010
0001
0100
0010
1000
0001
0100
0010
0100
,
0001
1000
0100
0010
0001
0100
0001
1000
0100
1000
0001
0010
0001
0100
0010
1000
0001
0100
0010
0100
0001
1000
0100
0010
0001
1000
0100
1000
0001
0010
0001
0100
,
0010
1000
0001
0100
0001
0010
0100
1000
0001
0010
0001
0100
0010
1000
0001
0100
0010
0100
0001
1000
0100
0010
0001
1000
0001
0010
0100
1000
0010
0100
0001
1000
,
0100
0010
0001
0100
0001
0010
0100
1000
0001
0010
0001
0100
0010
1000
0001
0100
0001
1000
0010
0100
0001
1000
0100
1000
0001
0100
0010
0100
0001
1000
0100
0010
,
0001
1000
0100
1000
0001
0010
0001
0100
0010
1000
0001
0100
0001
0010
0100
1000
0001
0010
0001
0100
0010
1000
0001
0100
0001
0010
0100
1000
0100
0010
0001
1000
,
0010
0100
0001
1000
0010
1000
0001
0100
0001
0010
0100
1000
0001
0010
0001
0100
0010
1000
0001
0100
0001
0010
0100
1000
0001
0010
0001
0100
0010
1000
0001
0100
,
0010
0100
0001
1000
0100
0010
0100
1000
0001
0010
0001
0100
0010
1000
0001
0100
0001
0010
0100
1000
0001
0100
0010
1000
0001
0100
0001
1000
0100
0010
0001
1000
,
0010
0100
0001
0010
0100
1000
0001
0010
0001
0100
0010
1000
0001
0100
0010
0100
0001
1000
0100
0010
0001
1000
0010
0100
0001
1000
0100
1000
0001
0010
0001
0100
,
0010
1000
0001
0100
0001
1000
0100
0010
0001
1000
0010
0100
0001
1000
0100
1000
0001
0010
0001
0100
0010
1000
0001
0100
0010
0100
0001
1000
0100
0010
0001
1000
,
0100
1000
0001
0010
0001
0100
0010
1000
0001
0100
0001
1000
0100
0010
0001
1000
0010
0100
0001
0100
0010
1000
0001
0100
0001
0010
0100
1000
0001
0010
0001
0100
,
0010
1000
0001
0100
0010
0100
0001
1000
0100
0010
0001
1000
0100
1000
0010
0100
0001
1000
0100
0010
0001
1000
0010
0100
0001
0100
0010
1000
0001
1000
0100
0010
,
0001
1000
0001
0010
0100
1000
0001
0100
0001
0010
0100
1000
0001
1000
0010
0100
0001
1000
0100
0010
0001
1000
0010
0100
0001
1000
0100
1000
0001
0100
0010
0100
,
0001
1000
0100
0010
0001
1000
0100
1000
0001
0100
0010
1000
0001
0100
0001
0010
0100
1000
0010
0100
0001
1000
0100
0010
0001
1000
0010
0100
0001
0100
0010
1000
,
0001
0100
0001
0010
0100
1000
0100
0010
0001
1000
0100
1000
0001
0010
0001
0100
0010
1000
0001
0100
0001
1000
0100
0010
0001
1000
0010
0100
0001
1000
0100
0010
,
0001
1000
0010
0100
0001
0100
0010
1000
0001
0100
0001
1000
0100
0010
0001
1000
0010
0100
0001
0100
0010
1000
0001
0100
0001
0010
0100
1000
0001
0100
0010
1000
,
0001
0010
0100
1000
0010
0100
0001
1000
0100
1000
0001
0100
0010
1000
0001
0100
0001
1000
0001
0010
0100
1000
0001
1000
0010
0100
0001
1000
0100
1000
0001
0100
,
0001
0010
0100
1000
0001
0010
0001
0100
0010
1000
0001
0100
0001
1000
0100
0010
0001
1000
0010
0100
0001
1000
0100
1000
0001
0100
0010
1000
0001
0100
0001
1000
,
0010
0100
0001
0000
1000
0010
0000
0100
0010
1000
0001
0000
0100
0001
0000
1000
,
0010
1000
0100
0000
0010
0001
0000
0010
0100
1000
0001
0000
0100
0001
0000
1000
,
0010
1000
0001
0000
0010
0100
0000
1000
0001
1000
0010
0000
0100
0001
0000
1000
,
0100
1000
0010
0000
0100
0001
0000
1000
0001
0010
0001
0000
0100
0010
0000
1000
,
0001
1000
0100
0000
0010
0001
0000
1000
0010
0100
0010
0000
1000
0001
0000
0010
,
0100
1000
0001
0000
0100
0001
0000
1000
0010
1000
0001
0000
0010
0100
0000
1000
,
0100
1000
0001
0000
0100
0010
0000
1000
0001
0010
0100
0000
1000
0010
0000
0100
,
0001
1000
0001
0000
0100
0010
0000
1000
0100
1000
0010
0000
0100
0001
0000
1000
,
0100
0010
0001
0000
1000
0100
0000
0010
0001
1000
0001
0000
0100
0010
0000
1000
,
0010
0100
0001
0000
1000
0001
0000
0010
0100
1000
0001
0000
0010
0100
0000
1000
,
0001
1000
0010
0000
0100
0001
0000
1000
0100
1000
0010
0000
0100
0001
0000
0010
,
0001
1000
0001
0000
0010
0100
0000
1000
0100
1000
0001
0000
0100
0001
0000
1000
,
0010
1000
0001
0000
0100
0010
0000
1000
0100
1000
0001
0000
0010
0100
0000
1000
,
0001
1000
0100
0000
0010
0001
0000
1000
0001
1000
0010
0000
0100
0001
0000
1000
,
0100
0010
0001
1000
0001
0100
0010
1000
0010
0100
0001
1000
0100
1000
0001
0010
,
0001
0100
0010
1000
0010
0100
0001
1000
0100
0010
0100
1000
0001
1000
0010
0100
,
0002
0000
0000
0000
,
0000
0000
0000
0000
,
0000
0000
0000
0000
,
0000
0000
0000
0000
,
0000
0000
0000
0000
,
0000
0000
0000
0003
;
