#TITLE:Chain;
#SUBTITLE:Air Gear Opening;
#ARTIST:Back-on;
#TITLETRANSLIT:;
#SUBTITLETRANSLIT:;
#ARTISTTRANSLIT:;
#CREDIT:Owem;
#BANNER:../banner.png;
#BACKGROUND:../BG.png;
#LYRICSPATH:;
#CDTITLE:../cdtitleowem.png;
#MUSIC:Back-on - Chain - Air Gear Opening.ogg;
#OFFSET:-0.114;
#SAMPLESTART:14.462;
#SAMPLELENGTH:29.999;
#SELECTABLE:YES;
#BPMS:0.000=184.000;
#STOPS:;
#BGCHANGES:;
// cache tags:
#FIRSTBEAT:3.000;
#LASTBEAT:275.500;
#SONGFILENAME:Songs/Owem's Simfiles 08 - 1.2/Chain - [Owem]/Chain.sm;
#HASMUSIC:1;
#HASBANNER:1;
#MUSICLENGTH:91.611;
// end cache tags

//---------------dance-single - 14 (Owem)----------------
#NOTES:
     dance-single:
     14 (Owem):
     Challenge:
     14:
     1.000,1.000,0.055,0.469,1.000,967.000,5.000,43.000,0.000,0.000:

0000
0000
0000
1000
,
0100
0000
0010
0000
0002
0000
1000
0003
1000
0000
0020
0030
0100
0000
0001
0000
,
1000
0000
0100
0000
0020
0000
0001
0000
0030
0000
0000
0000
0001
1000
0010
0100
,
0010
1000
0100
1000
0001
0010
0100
0010
0001
1000
0100
1000
0010
0100
0001
1000
,
0001
0010
0100
1000
0001
0010
0001
0100
0010
1000
0010
0100
0001
1000
0100
1000
,
0010
1000
0001
0100
0001
0010
0100
1000
0100
0010
0001
1000
0100
1000
0001
0100
,
0010
0100
0001
1000
0010
1000
0100
0010
0001
1000
0100
1000
0010
0100
0010
1000
,
0001
0010
0100
0010
0001
1000
0100
1000
0010
0100
0001
1000
0001
0100
0010
0100
,
0001
1000
0100
1000
0010
0100
0010
1000
0001
0010
0100
0010
0001
1000
0100
1000
,
0001
0100
0010
1000
0010
0100
0010
1000
0001
0100
0001
1000
0100
0010
0100
1000
,
0001
0010
0001
1000
0100
1000
0010
0100
0010
1000
0001
1000
0100
0000
0010
0000
,
0002
1003
0200
1300
0020
0230
0301
2000
,
3002
0013
0200
2300
3001
0010
0002
0103
,
0020
0000
2030
0000
3020
0000
0130
0000
0002
0003
0002
0003
0200
0300
0200
0000
,
0320
1030
0004
1003
0400
0340
0031
1000
,
0040
1030
0400
0340
0130
2000
3002
0023
,
0032
2003
3002
0203
0320
2030
3010
0100
,
0020
1030
0001
0200
0302
2003
3200
0310
,
0002
0000
0000
0000
0000
0000
0000
0000
0000
0000
0000
0000
0000
0000
0000
0000
0000
0000
0000
0000
0000
0000
0000
0000
2003
0000
0000
0000
0000
0000
0000
0000
0000
0000
0000
0000
0000
0000
0000
0000
0000
0000
0000
0000
0000
0000
0000
0000
3010
0000
0000
0000
0000
0000
0000
0000
0000
0000
0000
0000
0000
0000
0000
0000
0000
0000
0000
0000
0000
0000
0000
0000
0200
0000
0000
0000
0000
0000
0000
0000
0000
0000
0000
0000
0000
0000
0000
0000
0000
0000
0000
0000
0000
0000
0000
0000
0301
0000
0000
0000
0000
0000
0000
0000
0000
0000
0000
0000
0000
0000
0000
0000
0000
0000
0000
0000
0000
0000
0000
0000
0001
0000
0000
0000
0000
0000
0000
0000
0000
0000
0000
0000
0000
0000
0000
0000
0000
0000
0000
0000
0000
0000
0000
0000
1000
0000
0000
0000
0000
0000
0000
0000
0000
0000
0010
0000
0000
0000
0000
0000
0000
0000
0000
1000
0000
0000
0000
0000
0000
0000
0000
0000
0000
0100
0000
0000
0000
0000
0000
0000
0000
0000
0010
0000
0000
0000
0000
0000
0000
0000
0000
0000
,
0001
0000
0000
0000
0000
0000
0000
0000
0000
0000
1000
0000
0000
0000
0000
0000
0000
0000
0000
0001
0000
0000
0000
0000
0000
0000
0000
0000
0000
0100
0000
0000
0000
0000
0000
0000
0000
0000
0010
0000
0000
0000
0000
0000
0000
0000
0000
0000
0100
0000
0000
0000
0000
0000
0000
0000
0000
0000
0001
0000
0000
0000
0000
0000
0000
0000
0000
1000
0000
0000
0000
0000
0000
0000
0000
0000
0000
0010
0000
0000
0000
0000
0000
0000
0000
0000
1000
0000
0000
0000
0000
0000
0000
0000
0000
0000
0001
0000
0000
0000
0000
0000
0000
0000
0000
0000
0000
0000
0100
0000
0000
0000
0000
0000
0000
0000
0000
0000
0000
0000
0010
0000
0000
0000
0000
0000
0000
0000
0000
0000
0000
0000
1000
0000
0000
0000
0000
0000
0000
0000
0000
0000
0000
0000
0010
0000
0000
0000
0000
0000
0000
0000
0000
0000
0000
0000
0100
0000
0000
0000
0000
0000
0000
0000
0000
0000
0000
0000
0010
0000
0000
0000
0000
0000
0000
0000
0000
0000
0000
0000
1000
0000
0000
0000
0000
0000
0000
0000
0000
0000
0000
0000
,
0001
0100
0001
0010
0100
1000
0100
0010
0001
1000
0100
1000
0010
0100
0001
0100
,
0010
1000
0100
1000
0001
0100
0010
0100
0001
1000
0100
1000
0010
0100
0001
0010
,
0001
1000
0001
0100
0010
1000
0010
0100
0010
1000
0001
0010
0001
0100
0010
0100
,
0001
1000
0100
0010
0001
1000
0100
1000
0010
0100
0010
1000
0001
1000
0100
0010
,
0100
1000
0001
0010
0001
1000
0010
0100
0010
1000
0001
0100
0001
1000
0100
0010
,
0100
1000
0001
0010
0001
0100
0010
1000
0010
0100
0010
1000
0001
0100
0001
1000
,
0010
0100
0010
1000
0001
1000
0100
0010
0001
0010
0100
1000
0010
0100
0001
1000
,
0100
1000
0010
0100
0010
1000
0001
0100
0001
0010
0100
1000
0001
0010
0001
1000
,
0100
1000
0010
0100
0001
0100
0010
1000
0001
1000
0100
0010
0100
1000
0001
0010
,
0001
1000
0001
0100
0010
0100
0001
1000
0100
1000
0010
1000
0001
0100
0001
1000
,
0100
0010
0001
1000
0100
1000
0001
0010
0001
0100
0010
0100
0001
1000
0010
1000
,
0100
0010
0100
1000
0001
0010
0001
1000
0001
0100
0010
0100
0001
1000
0010
1000
,
0100
0010
0001
1000
0100
0010
0100
1000
0001
0010
0001
1000
0100
1000
0001
0100
,
0010
1000
0010
0100
0001
1000
0100
0010
0001
0010
0100
1000
0001
0010
0001
1000
,
0100
1000
0001
0100
0010
1000
0010
0100
0001
1000
0100
1000
0001
0010
0001
0100
,
0010
1000
0100
1000
0001
1000
0100
0010
0001
1000
0100
1000
0010
0100
0001
1000
,
0001
0010
0100
0010
0001
1000
0100
1000
0010
1000
0001
0100
0001
1000
0010
0100
,
0010
1000
0001
0010
0001
1000
0100
0010
0100
1000
0001
0010
0001
0100
0010
1000
,
0100
1000
0001
1000
0100
0010
0001
1000
0100
1000
0010
0100
0001
1000
0001
0100
,
0010
1000
0010
0100
0001
0010
0001
1000
0100
0010
0001
1000
0100
1000
0010
0100
,
0010
1000
0001
0100
0001
1000
0100
1000
0010
0100
0010
1000
0001
0010
0001
0100
,
0010
1000
0010
0100
0010
1000
0001
0100
0001
1000
0100
0010
0002
0000
0003
0000
,
0000
0000
0202
0000
0303
0000
0200
0000
0000
0000
0300
0000
0010
1000
0010
0100
,
0001
1000
0100
0010
0100
1000
0001
0010
0001
1000
0100
1000
0010
0100
0001
1000
,
0001
0010
0100
0010
0001
1000
0100
1000
0010
0100
0010
1000
0001
1000
0100
0010
,
0100
1000
0001
0010
0001
0100
0010
1000
0001
1000
0100
0010
0100
1000
0001
0010
,
0001
0100
0010
1000
0001
1000
0100
0010
0001
1000
0100
1000
0001
0100
0010
0100
,
0001
1000
0010
1000
0001
0010
0001
0100
0010
1000
0010
0100
0010
1000
0001
1000
,
0100
0010
0100
1000
0001
0010
0001
1000
0001
0100
0010
1000
0001
0010
0100
1000
,
0001
1000
0100
0010
0001
1000
0100
1000
0010
0100
0001
1000
0100
1000
0010
0100
,
0010
1000
0001
0010
0001
0100
0010
1000
0010
0100
0010
1000
0001
0100
0001
1000
,
0100
1000
0010
0100
0010
1000
0001
0010
0100
0010
0001
1000
0100
1000
0001
1000
,
0010
0100
0010
1000
0100
1000
0001
0010
0100
0010
0001
1000
0100
1000
0001
1000
,
0010
0100
0010
1000
0001
0100
0010
0100
0001
1000
0100
0010
0100
1000
0001
0010
,
0001
1000
0001
0100
0010
0100
0001
1000
0010
1000
0100
0010
0001
1000
0100
1000
,
0010
0100
0010
1000
0001
0010
0100
0010
0001
1000
0100
1000
0010
1000
0001
1000
,
0100
0010
0001
1000
0100
1000
0010
0100
0001
0100
0010
1000
0001
0010
0001
0100
,
0010
0100
0001
1000
0100
0010
0100
1000
0001
0010
0001
1000
0100
0010
0100
1000
,
0001
1000
0010
0100
0001
1000
0001
0100
0010
0100
0001
0010
0100
0000
1000
0000
,
0100
1000
0100
1000
0100
0000
0010
0001
,
0010
0000
0001
0000
0010
0000
0001
0000
0020
0000
0000
0000
0130
1000
0001
1000
,
0100
0010
0001
1000
0100
1000
0010
0100
0010
1000
0001
0010
0100
0010
0001
1000
,
0100
1000
0010
0100
0010
1000
0001
0100
0001
1000
0100
0010
0001
1000
0001
0100
,
0010
1000
0010
0100
0001
1000
0100
0010
0100
1000
0001
0010
0001
0100
0010
0100
,
0001
1000
0010
1000
0100
0010
0001
0010
0100
1000
0001
0010
0001
1000
0001
0100
,
0010
1000
0010
0100
0010
1000
0001
0100
0001
1000
0100
0010
0001
1000
0100
1000
,
0010
0100
0010
1000
0001
0010
0100
0010
0001
1000
0100
1000
0010
1000
0001
0100
,
0001
1000
0100
0010
0001
1000
0001
0100
0010
0100
0001
1000
0100
0010
0001
1000
,
0001
0100
0010
1000
0001
0000
0010
0000
0100
0000
2000
0000
0000
0000
3000
0000
;
