#TITLE:Those Who Fight Further;
#SUBTITLE:;
#ARTIST:Black Mages;
#TITLETRANSLIT:;
#SUBTITLETRANSLIT:;
#ARTISTTRANSLIT:;
#CREDIT:;
#BANNER:ff7-bn.jpg;
#BACKGROUND:ff7-bg.jpg;
#LYRICSPATH:;
#CDTITLE:BehemothCDTITLE.png;
#MUSIC:Final Fantasy VII - Boss Battle (Remix).mp3;
#OFFSET:-0.440;
#SAMPLESTART:37.477;
#SAMPLELENGTH:12.000;
#SELECTABLE:YES;
#BPMS:0.000=162.060;
#STOPS:;
#BGCHANGES:;
// cache tags:
#FIRSTBEAT:0.000;
#LASTBEAT:702.000;
#SONGFILENAME:Songs/longs versions/Those Who Fight Further/Those Who Fight Further.sm;
#HASMUSIC:1;
#HASBANNER:1;
#MUSICLENGTH:265.177;
// end cache tags

//---------------dance-single - ----------------
#NOTES:
     dance-single:
     :
     Challenge:
     11:
     0.765,0.860,0.253,0.796,1.000,1142.000,67.000,211.000,0.000,10.000:
2000
3001
0002
1003
,
0002
0023
0230
2300
,
3002
1003
2000
3001
,
2000
3200
0320
0032
,
0203
0310
0020
0130
,
0002
0203
0320
2030
,
3020
0130
0200
0310
,
2000
3020
0230
0302
,
1003
0000
0100
1000
0100
0000
0001
0000
0010
0001
0010
0000
,
0100
0000
0001
0010
0001
0000
1000
0100
0000
0100
0010
0000
,
0010
0001
0000
1000
0000
0000
0010
0000
0010
0100
0010
0000
,
0100
0000
1000
0100
0000
0010
0001
0000
0000
1001
0000
0000
,
0100
1000
0100
1000
0000
0000
0001
0010
0001
0010
0000
0000
,
1000
0100
1000
0100
0010
0001
0010
0001
0010
0100
0000
0010
,
0100
1000
0001
0100
0000
0000
0010
0001
1000
0010
0000
0000
,
0001
0010
0001
0010
0100
1000
0100
1000
0100
0010
0000
0001
,
1000
0000
0100
1000
0010
0100
0001
0100
0010
1000
0100
0010
,
0001
0000
0010
0001
0100
0010
1000
0010
0100
0001
0010
0100
,
2000
0000
0000
3200
,
0320
0000
0000
0000
0000
0000
0032
0000
0000
0000
0003
0000
,
0001
0000
0010
0001
0100
0010
1000
0010
0100
0001
0010
0100
,
1000
0000
0100
1000
0010
0100
0001
0100
0010
1000
0100
0010
,
0002
0000
0000
0023
,
0230
0000
0000
0000
0000
0000
2300
0000
0000
0000
3000
0000
,
2002
3003
0000
0000
,
0000
0000
0000
0000
,
0001
0100
0001
0100
0001
0100
0010
1000
0010
1000
0010
1000
,
0100
0010
0001
0010
0100
1000
0100
0010
0001
0010
0000
1000
,
0100
0010
0001
0100
0001
0010
0100
1000
0100
0010
0001
0100
,
0010
1000
0010
0100
0001
0010
0100
1000
0100
0002
0000
0003
,
1000
0010
1000
0010
1000
0010
0100
0001
0100
0001
0100
0001
,
0010
0100
1000
0100
0010
0001
0010
0100
1000
0100
0000
0001
,
0010
0100
1000
0010
1000
0100
0010
0001
0010
0100
1000
0010
,
0100
0001
0100
0010
1000
0100
0010
0001
0010
2000
0000
3000
,
0002
0000
0010
1000
0000
0000
2003
0000
0001
0100
0000
0000
,
3002
0000
0010
0103
0000
0000
2000
0000
0100
3010
0001
0010
,
0002
0000
0010
0103
0010
0100
2000
0000
0000
3200
0000
0000
,
0320
0000
0030
0001
0000
0010
0100
1000
0100
1000
0100
0010
,
0200
0000
0000
0310
0001
0000
0020
0000
0000
0130
1000
0000
,
0200
0000
0000
0301
0010
0100
1000
0010
0100
0001
0000
1000
,
0020
0000
0000
0130
1000
0000
0200
0000
0000
0310
0001
0000
,
0020
0000
0000
1030
0100
0010
0001
0100
0010
1000
0000
0000
,
1001
0000
0010
0200
0000
0000
0300
0000
0000
1000
0100
1000
,
0002
0000
0000
0203
0000
0000
0320
0000
0000
1030
0100
0010
,
0100
0000
0001
0200
0000
0000
0300
0000
0000
0001
0100
0010
,
2000
3011
1100
0011
,
1001
0000
0100
0020
0000
0000
0030
0000
0000
0001
0010
0001
,
2000
0000
0000
3020
0000
0000
0230
0000
0000
0301
0010
0100
,
0010
0000
1000
0020
0000
0000
0030
0000
0000
1000
0010
0100
,
0002
1103
0011
1100
,
0110
0000
0001
2000
0000
0000
3000
0000
0000
0010
0100
0001
,
0020
0000
0000
0130
0000
0000
0020
0000
0000
1030
0010
0100
,
0001
0000
0100
0020
0000
0000
0030
0000
0000
0001
0010
0100
,
2000
3101
0110
1010
,
0110
0000
1000
0002
0000
0000
0003
0000
0000
0100
0010
1000
,
0200
0000
0000
0310
0000
0000
0200
0000
0000
0301
0100
0010
,
1000
0000
0010
0200
0000
0000
0300
0000
0000
1000
0100
0010
,
0002
1013
0110
0101
,
1000
0000
0100
0010
0001
0000
0001
0000
0010
0100
1000
0000
,
0001
0000
0100
0010
1000
0000
1000
0000
0010
0100
0001
0000
,
0010
0000
0100
0001
0100
0000
0100
0000
0010
1000
0010
0100
,
0001
0100
0010
2000
0000
0100
3200
0000
0010
0320
0000
0001
,
0032
0000
0010
0203
0000
0000
0300
0000
0000
0010
0100
0001
,
2000
0000
0000
3020
0000
0000
0230
0000
0000
0301
0000
0010
,
0100
1000
0100
0010
0001
0010
0100
1000
0100
0010
0001
0010
,
0100
1000
0100
0010
0001
0010
0100
1000
0100
0010
0001
0010
,
0100
1000
0010
0100
0001
0100
0010
1000
0010
0100
0010
0100
,
0001
0100
0010
0100
0010
1000
0002
0000
0000
0000
0000
0000
,
0013
0100
0010
2000
0000
0000
3010
0100
0010
0002
0000
0000
,
0013
0100
0010
1000
0010
1000
0100
0010
0001
0010
0000
0100
,
0001
0100
0001
0020
0000
0000
0130
1000
0100
0002
0000
0000
,
0013
0100
1000
0010
0100
0001
0010
0100
1000
0100
0000
0000
,
0100
0001
0100
0001
0000
0000
0010
1000
0010
1000
0000
0000
,
0002
0000
0000
0003
,
2002
0000
0000
0000
0000
0000
0000
0000
0000
3103
0000
0010
,
0200
0000
0000
0000
0000
0000
0300
0000
0000
1000
0100
1000
,
0200
0000
0000
0301
0010
0001
0020
0000
0000
1030
0001
1000
,
1001
0000
1001
0000
0000
0000
0000
0000
0000
0001
0010
0100
,
2000
0000
0000
0000
0000
0000
0000
0000
0000
3100
0010
0001
,
0100
0010
1000
0100
0010
0001
2000
0000
0000
0000
0000
3000
,
0001
0010
0000
0100
1000
0000
0010
0001
0000
1000
0000
0000
,
0100
0000
0010
0000
1000
0000
0010
0000
0100
0000
0001
0000
,
2000
0000
0020
0000
,
3000
0000
0000
0030
0001
0010
0001
1000
0100
0010
0002
0000
,
0000
0000
0000
0003
0000
0000
1000
0010
0100
0001
1000
0010
,
0100
0002
0003
2000
3000
0002
0003
2000
3000
0002
0003
0200
,
0000
0000
0000
0000
0000
0300
0010
0001
0100
0001
0010
0002
,
0000
0000
0000
0003
0000
0000
1000
0100
0010
0001
1000
0010
,
0100
0001
0010
0100
1000
0001
0100
0010
2000
0000
0000
3000
,
0001
0010
0100
1000
0100
0010
0001
1000
0100
0010
0001
1000
,
0200
0000
0000
0300
0000
0000
0001
0000
0010
0001
0000
0010
,
0100
0000
0010
0001
0000
0010
0100
0000
0100
1000
0000
0010
,
0100
0000
0100
1000
0000
0010
0100
0000
0011
0000
1100
0000
,
0022
0000
0033
0000
,
2000
0000
3100
0010
0001
1000
0100
0010
0001
1000
0100
0010
,
0002
0000
0000
0003
0000
0000
0000
0000
2000
0000
3002
0000
,
2003
0000
0000
0000
0000
0000
0000
3000
0000
0000
0000
0000
,
0001
0010
0100
1000
0001
0010
0200
0000
0000
0300
0000
0000
,
0001
0100
0010
1000
0010
0100
0001
0100
0010
1000
0010
0100
,
0001
0100
0010
1000
0100
0010
0001
0100
0010
1000
0100
0010
,
0002
0000
0000
0003
1000
0100
0001
0100
1000
0100
0010
0001
,
1000
0020
0000
0000
0000
0000
0030
0000
0000
0000
0000
0000
,
1000
0100
0000
0010
0001
0000
0001
0010
0000
0100
1000
0000
,
1000
0010
0000
0100
0001
0000
0001
0100
0000
0010
1000
0000
,
0001
1000
0010
0100
0001
0010
1000
0001
0100
0010
1000
0001
,
0200
0000
0000
0300
,
0001
0100
0010
1000
0001
0100
0010
1000
0010
0100
0001
1000
,
0010
0100
0001
0010
0100
1000
0100
0010
0001
0010
0100
0010
,
0002
0000
0000
0023
,
0230
0000
2300
0000
,
3002
0000
0013
0001
0010
0001
0010
0100
1000
0100
1000
0100
,
2000
0000
3100
1000
0100
1000
0100
0010
0001
0010
0001
0010
,
2000
0000
0000
3020
,
0230
0000
0000
0000
0302
0000
0000
0003
,
2002
3003
0000
0000
,
0000
0000
0000
0000
,
0001
0010
1000
0010
0001
0010
1000
0010
0001
0010
0100
1000
,
0100
0001
0100
1000
0100
0001
0100
1000
0100
0001
0000
0001
,
1000
0100
0001
0100
1000
0100
0001
0100
1000
0100
0010
0001
,
0010
1000
0010
0001
0010
1000
0010
0001
0010
1000
0000
0000
,
0100
0001
0100
0001
0100
0001
1000
0010
1000
0010
1000
0010
,
0001
1000
0100
1000
0001
0010
0001
1000
0100
1000
0000
0010
,
0100
0001
0100
0001
0100
0001
1000
0010
1000
0010
1000
0010
,
0001
1000
0100
1000
0001
0010
0001
1000
0100
2000
0000
0000
,
3200
0000
0010
0001
0000
0000
0320
0000
0100
1000
0000
0000
,
0230
0000
0010
0301
0000
0000
0020
0000
0100
1030
0001
0010
,
2000
0000
0100
3010
0100
0010
0002
0000
0000
0023
0000
0000
,
0230
0000
0300
1000
0000
0100
0010
0001
0010
0001
0010
0100
,
0020
0000
0000
0130
1000
0000
0200
0000
0000
0310
0001
0000
,
0020
0000
0000
1030
0100
0010
0001
0100
0010
1000
0000
0001
,
0200
0000
0000
0310
0001
0000
0020
0000
0000
0130
1000
0000
,
0200
0000
0000
0301
0010
0100
1000
0010
0100
0001
0000
0000
,
1001
0000
0100
0020
0000
0000
0030
0000
0000
0001
0010
0001
,
2000
0000
0000
3020
0000
0000
0230
0000
0000
0301
0010
0100
,
0010
0000
1000
0020
0000
0000
0030
0000
0000
1000
0010
0100
,
0002
1103
0011
1100
,
1001
0000
0010
0200
0000
0000
0300
0000
0000
1000
0100
1000
,
0002
0000
0000
0203
0000
0000
0320
0000
0000
1030
0100
0010
,
0100
0000
0001
0200
0000
0000
0300
0000
0000
0001
0100
0010
,
2000
3011
1100
0011
,
0110
0000
1000
0002
0000
0000
0003
0000
0000
0100
0010
1000
,
0200
0000
0000
0310
0000
0000
0200
0000
0000
0301
0100
0010
,
1000
0000
0010
0200
0000
0000
0300
0000
0000
1000
0100
0010
,
0002
1013
0110
0101
,
0110
0000
0001
2000
0000
0000
3000
0000
0000
0010
0100
0001
,
0020
0000
0000
0130
0000
0000
0020
0000
0000
1030
0010
0100
,
0001
0000
0100
0020
0000
0000
0030
0000
0000
0001
0010
0100
,
2000
3101
0110
1010
,
1001
0000
0010
0200
0000
0000
0300
0000
0000
1000
0100
1000
,
0002
0000
0000
0013
0000
0000
0200
0000
0000
0301
0100
0010
,
1000
0000
0001
0020
0000
0000
0030
0000
0000
0100
0001
0100
,
2000
3011
0011
1100
,
1100
0000
1000
0002
0000
0000
0003
0000
0000
0001
0010
1000
,
0200
0000
0000
0310
0000
0000
0200
0000
0000
0301
1000
0100
,
0001
0010
1000
0100
0010
0100
1000
0010
0001
0010
0100
0001
,
0010
1000
0100
0001
0010
0100
0010
0001
1000
0010
0100
0010
,
2002
0000
0000
0000
0000
0000
0000
3003
0000
0110
0000
0000
,
2002
0000
3003
0110
,
2002
0000
3003
0110
,
2002
0000
3003
0110
,
1001
0110
1001
0110
,
2002
0000
3003
0110
,
2002
0000
3003
0110
,
2002
0000
0000
3003
,
2000
0000
0000
0000
,
3020
0000
0000
0000
,
0230
0000
0000
0000
,
0302
0000
0000
0000
,
0023
0032
2003
3200
,
0320
0032
0023
0230
,
2300
3020
0230
0302
,
0203
0320
2030
3002
,
1003
0100
0010
0001
0010
0100
1000
0100
0010
0001
0010
0100
,
1000
0100
0010
0001
0010
0100
1000
0100
0010
0001
0000
0000
,
1001
2002
3003
1001
,
2002
0000
3003
0000
;
