#TITLE:600 A.D. in Piano;
#SUBTITLE:Chrono Trigger;
#ARTIST:光田康典;
#TITLETRANSLIT:;
#SUBTITLETRANSLIT:;
#ARTISTTRANSLIT:Yasunori Mitsuda;
#CREDIT:;
#BANNER:600 A.D. in Piano.png;
#BACKGROUND:600 A.D. in Piano-bg.png;
#LYRICSPATH:;
#CDTITLE:!btitle.PNG;
#MUSIC:600 A.D. in Piano.mp3;
#OFFSET:-1.300;
#SAMPLESTART:150.020;
#SAMPLELENGTH:12.000;
#SELECTABLE:YES;
#BPMS:0.000=32.000,1.000=33.300,2.000=35.000,4.000=34.700,5.000=35.100,6.000=34.000,7.000=35.260,8.000=34.400,9.000=34.200,10.000=33.900,11.000=35.100,13.500=35.000,15.500=27.800,15.750=23.800,16.500=74.400,18.000=72.600,19.000=74.800,20.000=75.000,23.000=75.500,25.000=76.200,27.000=73.000,28.000=68.000,28.500=70.000,28.750=80.000,29.000=74.000,29.750=76.000,30.000=80.000,30.250=76.000,32.000=73.000,32.500=76.000,33.500=75.200,34.500=68.000,35.000=74.500,35.500=79.000,36.000=73.500,36.250=75.000,37.000=77.000,37.500=79.000,38.250=81.000,39.000=78.000,40.500=77.000,42.250=90.000,42.500=77.000,43.000=73.500,43.500=73.000,44.500=74.500,45.000=73.000,45.063=70.000,45.250=73.000,46.500=68.000,47.000=68.000,47.250=65.500,47.500=57.000,47.750=50.000,48.000=57.000,48.500=31.100,48.750=101.000,49.000=56.500,49.250=77.500,51.000=77.000,53.000=75.900,55.000=75.000,56.000=75.000,58.000=74.000,58.500=75.000,58.750=76.500,59.250=84.500,60.250=72.000,61.000=78.000,62.000=80.000,63.500=83.100,64.500=81.500,64.833=67.000,65.000=77.000,66.500=85.000,66.750=76.000,68.500=78.000,68.750=76.000,70.000=80.000,72.750=78.000,73.000=80.000,74.500=90.000,74.750=100.000,75.000=86.000,75.500=82.500,76.500=86.000,76.750=87.000,79.000=87.500,79.750=88.500,80.000=85.500,81.000=83.000,82.750=82.000,84.000=83.000,84.500=81.000,85.000=84.000,85.500=88.000,85.750=84.000,87.750=82.500,89.000=82.300,90.000=81.000,90.250=90.000,90.500=92.000,90.750=80.000,91.250=80.000,91.500=86.200,92.000=86.200,93.000=82.000,94.500=85.700,94.750=87.000,95.750=84.500,96.000=82.500,96.750=58.000,96.938=140.000,97.000=79.500,98.000=87.000,98.500=90.000,98.750=80.000,99.000=82.000,100.000=83.500,101.000=84.000,102.000=84.500,103.000=85.600,105.000=85.000,106.750=82.000,108.250=84.000,108.500=86.000,109.000=89.500,109.500=91.000,110.500=81.500,110.750=81.000,111.500=81.500,112.333=90.000,112.500=94.000,113.000=78.000,113.500=77.000,114.000=177.000,115.000=111.000,115.750=105.000,116.000=110.000,117.500=105.000,118.000=107.000,119.500=113.000,121.000=115.000,122.500=112.000,123.000=104.000,124.000=113.000,124.500=107.000,125.500=108.000,127.000=108.500,127.500=113.000,129.000=107.000,129.500=103.000,130.000=107.000,133.000=110.000,133.500=115.000,134.500=104.000,135.000=88.000,135.250=86.000,135.500=95.000,136.000=100.000,137.500=87.000,139.500=110.000,143.000=107.000,145.000=105.000,146.000=106.000,147.000=115.000,149.000=82.000,149.167=83.000,149.833=80.000,150.000=94.000,150.500=125.000,150.750=170.000,151.500=120.000,152.000=115.000,153.125=105.000,154.000=115.000,155.500=84.000,156.000=110.000,157.000=105.000,160.417=90.000,160.583=112.000,160.833=90.000,161.000=118.000,161.250=105.000,162.000=115.000,162.500=118.000,163.000=112.000,164.500=114.000,167.250=220.000,167.875=114.000,168.750=120.000,169.000=117.000,173.000=98.000,173.500=76.000,173.938=120.000,174.000=117.000,174.500=122.000,175.000=105.000,176.000=114.000,176.500=133.000,177.000=120.000,178.000=116.000,178.500=105.000,178.938=120.000,179.500=90.000,179.750=60.000,179.938=120.000,180.000=105.000,180.500=100.000,181.000=98.000,181.500=95.000,182.000=87.000,182.500=75.000,183.000=76.000,183.500=74.000,184.000=56.000,184.500=63.000,185.000=54.000,185.500=52.000,186.083=60.000,186.250=114.000,187.000=122.000,187.750=140.000,188.750=137.000,189.250=135.000,190.000=150.000,190.500=152.500,191.000=170.000,191.250=155.000,192.000=150.000,193.750=175.000,194.500=140.000,194.750=144.000,196.000=135.000,197.500=86.000,198.000=83.000,198.500=85.000,198.833=86.000,199.167=85.440,199.167=78.000,199.333=70.000,199.583=100.000,200.250=95.000,201.000=150.000,201.250=125.000,202.000=140.000,203.500=65.000,203.750=155.000,204.750=110.000,205.000=120.000,205.500=140.000,206.333=120.000,206.667=110.000,207.750=83.000,208.000=78.000,208.750=75.000,209.000=85.000,209.333=94.000,209.833=40.000,210.000=68.000,211.000=63.000,211.750=138.000,213.000=130.000,213.250=122.000,213.750=135.000,214.000=140.000,214.250=160.000,215.250=155.000,215.500=170.000,216.500=138.000,216.750=128.000,217.000=160.000,217.250=135.000,217.500=150.000,217.750=100.000,218.000=120.000,218.750=150.000,219.500=155.000,220.500=152.000,221.500=147.000,223.250=147.000,224.750=170.000,225.000=147.000,225.250=143.000,225.500=135.000,227.000=120.000,227.250=110.220,227.250=109.420,227.250=120.240,227.333=350.000,227.500=84.000,227.833=105.000,227.833=106.000,228.000=84.000,228.500=84.000,229.000=82.000,229.500=77.000,230.000=73.000,230.333=64.000,230.833=70.000,231.333=66.001,231.333=60.981,231.500=66.001,232.000=63.001,232.667=55.001,233.333=44.001,233.500=47.001,234.500=80.001,234.833=65.001;
#STOPS:16.000=0.590
,161.750=0.160
;
#BGCHANGES:;
// cache tags:
#FIRSTBEAT:0.000;
#LASTBEAT:235.167;
#SONGFILENAME:Songs/VGMP 2/600 A.D. in Piano (Bahamut-X)/600 A.D. in Piano.sm;
#HASMUSIC:1;
#HASBANNER:1;
#MUSICLENGTH:180.174;
// end cache tags

//---------------dance-single - ----------------
#NOTES:
     dance-single:
     :
     Hard:
     10:
     0.860,0.865,1.000,0.000,1.000,855.000,230.000,0.000,0.000,0.000:
1000
0000
0100
0000
0011
0110
1001
0010
0101
1100
0110
0100
1001
0110
0011
1000
,
0011
0100
1010
0010
1100
0011
1001
0100
0110
1001
0100
1010
1001
0100
0010
0001
,
0010
0000
0100
0010
1001
1100
0011
0100
1010
1001
0110
0010
1100
0011
1010
0100
,
1001
0010
1100
0001
0110
1100
0011
0100
1010
0101
0011
1000
0011
0100
1000
0010
,
0100
0000
0000
0000
0000
0000
0000
0000
0010
0000
0000
0000
0100
0000
0000
0000
1001
0000
0000
0000
0010
0000
0000
0000
0101
0000
0000
0000
1010
0000
0000
0000
0101
0000
0000
0000
0000
0000
0000
0000
0011
0000
0000
0000
0000
0000
0000
0010
1001
0000
0000
0000
0100
0000
0000
0000
0010
0000
0000
0000
0100
0000
0000
0000
,
1000
0001
1000
0101
1010
0100
1000
0011
0100
0010
1001
1100
1001
0010
0100
0010
,
1001
0000
0000
0000
0100
0000
0000
0000
0010
0000
0000
0000
1000
0000
0000
0000
0011
0000
0000
0000
0010
0000
0000
0000
0110
0000
0000
0000
1001
0000
0000
0000
0110
0000
0000
0000
0010
0000
0000
0000
0101
0000
0000
0000
0010
0000
0000
1000
0101
0000
0000
0000
0001
0000
0000
0000
0010
0000
0000
0000
0100
0000
0000
0000
,
0011
0100
0010
0110
1001
0100
0010
0001
0100
0010
1000
0100
0011
0010
0100
0010
,
0001
0000
0000
0000
0000
0000
1000
0000
0000
0100
0000
0000
0011
0000
0000
0010
0000
0000
0110
0000
0000
1001
0000
0000
0110
0000
0000
0001
0000
0000
1100
0000
0000
0000
0000
1000
0101
0000
0000
0010
0000
0000
0001
0000
0000
1000
0000
0000
,
0100
0010
1001
0110
1001
0100
0001
1010
0001
0010
1001
1100
0011
1000
0010
1000
,
0101
0010
1000
0010
1001
0100
1010
0100
1001
0010
0011
1000
0101
0010
0101
1000
,
0011
0000
0000
0000
0000
0000
0000
0000
0101
0000
0000
0000
0000
0000
0000
0000
1001
0010
0000
0000
0100
0000
0000
0000
0010
0000
0000
0000
0100
0000
0000
0000
1000
0000
0000
0000
0001
0000
0000
0000
0010
0000
0000
0000
0100
0000
0000
0000
1001
0000
0000
0000
0100
0000
0000
0000
1000
0000
0000
0000
0010
0000
0000
0000
,
0001
0000
0000
0000
0000
0000
1000
0000
0000
0001
1000
0100
0010
0000
0000
1000
0000
0000
0100
0000
0000
1000
0000
0000
0010
0000
0000
1000
0000
0000
0100
0000
0000
1000
0000
0000
0110
0000
0000
0001
0000
0000
0010
0000
0000
0001
0000
0000
,
1100
0000
0001
0000
0100
0000
0001
0010
1100
0000
0010
0000
0001
0000
0010
0000
1000
0000
0100
0000
0010
0000
0001
0000
1100
0000
0001
0000
0010
0000
0001
0000
,
1010
0000
0000
0000
0100
0000
0000
0000
1010
0000
0000
0000
0001
0000
0000
0010
1100
0000
0000
0000
0010
0000
0000
0000
0100
0000
0000
0000
0010
0000
0000
0000
0101
0000
0000
0000
1000
0000
0000
0000
0011
0000
0000
0000
0100
0000
0000
0000
1010
0000
0000
0000
0100
0000
0000
0000
0010
0000
0000
0000
0100
0000
0000
0000
,
0011
0000
0000
0000
0000
0000
0000
0000
0000
0000
0000
0000
1000
0000
0000
0000
0000
0000
0000
0000
0000
0000
0000
0000
0010
0000
0000
0000
0000
0000
0000
0000
0000
0000
0000
0000
1000
0000
0000
0000
0000
0000
0000
0000
0000
0100
0000
0000
0011
0000
0000
0000
0000
0000
0000
0000
0000
0000
0000
0000
1000
0000
0000
0000
0000
0000
0000
0000
0000
0000
0000
0000
0100
0000
0000
0000
0000
0000
0000
0000
0000
0000
0000
0000
1000
0000
0000
0000
0000
0000
0000
0000
0000
0000
0000
0000
0100
0000
0000
0000
0000
0000
0000
0000
0000
0000
0000
0000
1000
0000
0000
0000
0000
0000
0000
0000
0000
0000
0000
0000
0001
0000
0000
0000
0000
0000
0000
0000
0000
0000
0000
0000
0100
0000
0000
0000
0000
0000
0000
0000
0000
0000
0000
0000
0011
0000
0000
0000
0000
0000
0000
0000
0000
0000
0000
0000
1000
0000
0000
0000
0000
0000
0000
0000
0000
0000
0000
0000
0010
0000
0000
0000
0000
0000
0000
0000
0100
0000
0000
0000
0000
0000
0000
0000
1000
0000
0000
0000
0000
0000
0000
0000
,
0010
0000
0100
0000
1000
0000
0001
0000
0010
0000
0001
0000
0100
0000
0000
0010
0000
0000
1000
0000
0000
0010
0000
0000
0000
0000
0000
0010
0000
0000
0001
0000
0000
0010
0000
0000
1100
0000
0000
0010
0000
0000
0001
0000
0000
1000
0000
0000
,
0011
0000
0000
0000
0100
0000
0000
0000
1000
0000
0000
0000
0010
0000
0000
0100
0011
0000
0000
0000
1000
0000
0000
0000
0100
0000
0000
0000
1000
0000
0000
0000
0010
0000
0000
0000
1000
0000
0000
0000
0001
0000
0000
0000
1000
0000
0000
0000
1100
0000
0000
0000
0010
0000
0000
0000
0100
0000
0000
0000
0010
0000
0000
0000
,
1001
1000
0100
0010
0011
1000
0010
1000
0100
0010
0001
1000
0101
0010
0001
0010
,
0001
1100
0110
0011
1001
0100
0010
0100
1000
0011
0110
1010
1001
0100
1000
0100
,
0001
0000
0000
0000
1000
0000
0000
0000
0010
0000
0000
0000
1000
0000
0000
0000
0010
0000
0000
0000
1000
0000
0000
0000
0010
0000
0000
0000
0000
0000
0100
0000
0000
0000
0000
0000
0001
0000
0000
0000
0000
0000
1000
0000
0000
0000
0000
0000
0011
0000
0000
0000
0000
0000
0000
0000
0000
0000
0000
0000
0100
0000
0000
0000
0000
0000
0000
0000
0000
0000
0000
0000
0010
0000
0000
0000
0000
0000
0000
0000
0000
0000
0000
0000
0100
0000
0000
0000
0000
0000
0000
0000
0000
0000
0000
0000
0010
0000
0000
0000
0000
0000
0000
0000
0000
0000
0000
0000
1000
0000
0000
0000
0000
0000
0000
0000
0000
0000
0000
0000
0010
0000
0000
0000
0000
0000
0000
0000
0000
0000
0000
0000
0100
0000
0000
0000
0000
0000
0000
0000
0000
0000
0000
0000
0011
0000
0000
0000
0000
0000
0000
0000
0000
0000
0000
0000
0100
0000
0000
0000
0000
0000
0000
0000
0000
0000
0000
0000
0010
0000
0000
0000
0000
0000
0000
0000
0000
0000
0000
0000
1000
0000
0000
0000
0000
0000
0000
0000
0000
0000
0000
0000
,
1001
1000
0100
0010
0011
0100
1000
0100
1001
0100
0010
0100
1010
0001
0010
0001
,
0101
0000
0000
0000
0010
0000
0000
0000
1001
0000
0000
0000
0010
0000
0000
0100
1001
0000
0000
0000
0010
0000
0000
0000
0100
0000
0000
0000
1000
0000
0000
0000
0001
0000
0000
0000
1000
0000
0000
0000
0100
0000
0000
0000
0010
0000
0000
0000
1001
0000
0000
0000
0010
0000
0000
0000
0001
0000
0000
0000
0100
0000
0000
0000
,
1100
0010
0001
0010
1100
0001
1000
0001
0110
1000
0100
1000
0011
1000
0001
0010
,
1001
0000
0000
0000
0100
0000
0000
0000
1000
0000
0000
0000
0010
0000
0000
0100
0011
0000
0000
0000
1000
0000
0000
0000
0100
0000
0000
0000
0010
0000
0000
0000
0001
0000
0000
0000
0010
0000
0000
0000
0100
0000
0000
0000
1000
0000
0000
0000
0011
0000
0000
0000
1000
0000
0000
0000
0100
0000
0000
0000
0010
0000
0000
0000
,
0101
1000
0001
1000
0011
0010
0100
1000
0011
1000
0010
1000
0101
0001
0100
0010
,
1100
0010
0100
0010
1001
0100
0010
0100
0010
0001
0010
0001
1100
1000
1100
0100
,
0110
0000
0010
0000
0011
0000
0000
0000
0011
0000
1000
0000
0100
0000
0010
0000
0001
0000
1000
0000
0100
0001
0010
0000
1100
0000
0000
0000
0110
0000
0010
0000
,
0110
0000
0000
0000
0110
0000
0000
0000
0000
0000
0000
0000
0001
0000
0000
0000
0000
0000
0010
0000
0000
0000
0000
0000
1100
0000
0000
0000
0000
0000
0000
0000
0000
0000
0000
0000
0010
0000
0000
0100
0000
0000
1000
0000
0000
0100
0000
0000
,
0011
0000
0000
0000
0000
0000
0001
0000
0000
0000
0000
0000
0100
0000
0001
0000
0100
0000
1010
0000
0000
0000
0000
0000
0010
0000
0000
0000
0000
0000
1000
0000
0000
0100
0000
0000
0011
0000
0000
0000
0000
0000
0001
0000
0000
0000
0000
0000
,
1010
0000
1001
0000
0100
0010
0001
0100
0011
0000
1000
0000
0100
0000
0011
0000
,
1000
0000
0000
0000
0000
0000
0001
0000
1000
0000
0010
0000
1100
0000
0000
0000
0000
0000
0001
0000
0000
0000
0000
0000
1000
0000
0000
0100
0000
0000
0011
0000
0000
0000
0000
0000
0010
0000
0000
0000
0000
0000
0100
0000
0000
1000
0000
0000
,
0101
0000
0000
0000
0010
0000
0000
0000
0100
0010
0001
0000
1100
0000
0000
0000
0001
0000
0000
0000
0010
0000
1000
0000
0101
0000
0000
0000
0001
0000
0000
0000
,
0110
0000
0101
0000
1000
0001
0100
1000
0011
0000
1000
0000
0001
0010
0110
0000
,
1000
0000
0000
0000
0000
0000
0000
0000
0000
0000
0000
0000
0000
0000
0000
0000
0000
0000
0000
0000
0000
0000
0000
0000
0010
0000
0000
0000
0000
0000
0000
0000
0001
0000
0000
0000
0000
0000
0000
0000
0010
0000
0000
0000
0000
0000
0000
0000
1001
0000
0000
0000
0000
0000
0000
0000
0000
0000
0000
0000
0000
0000
0000
0000
0000
0000
0000
0000
0000
0000
0000
0000
0100
0000
0000
0000
0000
0000
0000
0000
0000
0000
0000
0000
0000
0000
0000
0000
0000
0000
0000
0000
0000
0000
0000
0000
0010
0000
0000
0000
0000
0000
0000
0000
0000
0000
0000
0000
0000
0000
0000
0000
0000
0000
0000
0000
0000
0000
0000
0000
1000
0000
0000
0100
0000
0000
0000
0000
0000
0000
0000
0000
0000
0000
0000
0000
0000
0000
0000
0000
0000
0000
0000
0000
0010
0000
0000
0000
0000
0000
0000
0000
0000
0000
0000
0000
0000
0000
0000
0000
0000
0000
0000
0000
0000
0000
0000
0000
0010
0000
0000
0000
0000
0000
0000
0000
0000
0000
0000
0000
0000
0000
0000
0000
0000
0000
0000
0000
0000
0000
0000
0000
,
1001
0000
0000
0000
0000
0000
0000
0000
0100
0000
0000
0000
0000
0000
0000
0000
1010
0000
0000
0000
0000
0000
0000
0000
0010
0100
0000
0000
0000
0000
0000
0000
0001
0000
0000
0000
0000
0000
0000
0000
0001
0000
0000
0000
0000
0000
0000
0000
1100
0000
0000
0000
0000
0000
0000
0000
0010
0000
0000
0000
0000
0000
0000
0000
,
1001
0000
0000
0000
0000
0000
0000
0000
0001
0100
0000
0000
0000
0000
0000
0000
0010
0000
0000
0000
0000
0000
0000
0000
0010
0000
0000
0000
0000
0000
0000
0000
0110
0000
0000
0000
0000
0000
0000
0000
0001
0000
0000
0000
0000
0000
0000
0000
1010
0000
0000
0000
0000
0000
0000
0000
0101
0000
0000
0000
0000
0000
0000
0000
,
1000
0000
0000
0000
0000
0000
1000
0000
0000
0000
0000
0000
0001
0100
0001
0000
0001
0010
0001
0000
0001
1000
0001
0000
0010
0000
0000
0000
0000
0000
0110
0000
0000
0110
0000
0000
0000
0000
0000
0000
0000
0000
0110
0000
0000
0000
0000
0000
,
0010
0000
0000
0000
0000
0000
0001
0000
0000
0000
0000
0000
0010
0100
0000
0000
0000
0000
0000
0000
0000
0011
0000
0000
0011
0000
0000
0000
0000
0000
0011
0000
0000
0000
0000
0000
0001
0000
0000
0000
0000
0000
0010
0000
0000
0000
0000
0000
,
0001
0100
0000
0000
0000
0000
0000
0000
1000
0000
0000
0000
0000
0000
0000
0000
1000
0000
0000
0000
0000
0000
0000
0000
1010
0000
0000
0000
0000
0000
0000
0000
0001
0000
0000
0000
0000
0000
0000
0000
0001
0000
0000
0000
0000
0000
0000
0000
0110
0000
0000
0000
0000
0000
0000
0000
0010
0000
0000
0000
0000
0000
0000
0000
,
0010
0000
0000
0000
0000
1000
0001
1000
0000
0000
1000
0100
1000
0000
0000
0001
0000
0010
0000
0100
0000
1000
0000
0000
0011
0000
0000
0000
0000
0000
0100
0000
0000
1001
0000
0000
1001
0000
0000
0000
0000
0000
0010
0000
0000
0000
0000
0000
,
0100
0000
0000
0000
0000
0000
0000
0000
0000
0000
0000
0000
0000
0000
0000
0000
0000
0000
0000
0000
0000
0000
0000
0000
1010
0000
0000
0000
0000
0000
0000
0000
0000
0000
0000
0000
0000
0000
0000
0000
0000
0000
0000
0000
0000
0000
0000
0000
0100
0000
0000
0000
0000
0000
0000
0000
0000
0000
0000
0000
0000
0000
0000
0000
0000
0000
0000
0000
0000
0000
0000
0000
1000
0000
0000
0000
0000
0000
0000
0000
0000
0000
0000
0000
0000
0000
0000
0000
0000
0000
0000
0000
0000
0010
0000
0000
0100
0000
0000
0000
0000
0000
0000
0000
0000
0000
0000
0000
0000
0000
0000
0000
0000
0000
0000
0000
0000
0000
0000
0000
0001
0000
0000
0000
0000
0000
0000
0000
0000
0000
0000
0000
0000
0000
0000
0000
0000
0000
0000
0000
0000
0000
0000
0000
1000
0000
0000
0000
0000
0000
0000
0000
0000
0000
0000
0000
0100
0000
0000
0000
0000
0000
0000
0000
0000
0000
0000
0000
0000
0000
0000
0000
0000
0000
0000
0000
0000
0000
0000
0000
0000
0000
0000
0000
0000
0000
0000
0000
0001
0000
0000
0000
,
1010
0000
0100
1010
1010
0000
1010
0000
0100
0000
0010
0000
1001
0000
0100
0000
,
0110
0000
0000
0000
0000
0000
0000
0000
0011
0000
0000
0000
0000
0000
0000
0000
0100
0000
0000
0000
0000
0000
0000
0000
1010
0000
0000
0000
0000
0000
0000
0001
1100
0000
0000
0000
0000
0000
0000
0000
0010
0000
0000
0000
0000
0000
0000
0000
0010
0000
0000
0000
0000
0000
0000
0000
0101
0000
0000
0000
0000
0000
0000
0000
,
0011
0000
0000
0000
0000
0000
0000
0000
0100
0000
0000
0000
1010
0000
0000
0000
0101
0000
0000
0000
0000
0000
0000
0000
0001
0000
0000
0000
0000
0000
0000
0000
0001
0000
0000
0000
0000
0000
0000
0010
1000
0000
0000
0000
0000
0000
0000
0001
0100
0000
0000
0000
0000
0000
0000
0000
0010
0000
0000
0000
0001
0000
0000
1000
,
0110
0000
0000
1000
0000
0000
0100
0000
0000
1001
0000
0000
0100
0000
0000
0010
1000
0010
0101
0000
0000
0010
0000
0000
,
0010
0000
0000
0000
0000
0000
0110
0000
0000
0000
0000
0000
0001
0000
0000
0000
0000
0000
0100
0000
0000
0000
0000
0000
0001
1000
0000
0100
0000
0000
0010
0000
0000
0001
0000
0000
0100
0000
0000
0010
0000
0000
1000
0000
0000
0100
0000
0000
,
0010
0000
0000
0000
0100
0000
0000
0000
0010
0000
0000
0000
0001
0000
0000
0000
0010
0000
0000
0000
0001
0000
0000
0000
0100
0000
0000
0000
0000
0000
0000
1000
0001
0000
0000
0000
0000
0000
0000
0000
0010
0000
0000
0000
0100
0000
0000
0000
1000
0000
0000
0000
0100
0000
0000
0000
0010
0000
0000
0000
0001
0000
0000
0000
,
1100
0000
0000
0000
0000
0000
0001
0000
0000
0100
0000
0000
0001
0000
1000
0000
0000
0000
0000
0000
0000
0001
0000
0000
0000
0000
0000
0000
1000
0000
0001
0000
0000
0100
0000
0000
0001
0000
0000
0010
0000
0000
0100
0000
0000
1000
0000
0000
,
0100
0000
0000
1001
0000
0000
0000
0000
0000
0001
0000
0000
0010
0000
0000
0100
0000
0000
1000
0000
0000
0000
0000
0000
1001
0000
0010
0000
0001
0000
0100
0000
0000
0000
0010
0000
0100
0000
1010
0000
0001
0000
1010
0100
0000
0000
0000
0000
,
0010
0000
0000
0000
0000
0000
0000
0000
0000
0000
0000
0000
0001
0000
0000
0000
0000
0000
0000
0000
0000
0000
0000
0000
1000
0000
0000
0001
0000
0000
0000
0000
0000
0000
0000
0000
0010
0000
0000
0000
0000
0000
0000
0000
0000
0000
0000
0000
0100
0000
0000
0000
0000
0000
0000
0000
0000
0000
0000
0000
1000
0000
0000
0000
0000
0000
0000
0000
0000
0000
0000
0000
0000
0000
0000
0000
0000
0000
0000
0000
0000
0000
0000
0000
0000
0000
0000
0000
0010
0000
0000
0000
0000
0000
0000
0000
1100
0000
0000
0000
0000
0000
0000
0000
0000
0000
0000
0000
0000
0000
0000
0000
0000
0000
0000
0000
0000
0000
0000
0000
0100
0000
0000
0000
0000
0000
0000
0000
0000
0000
0000
0000
0000
0000
0000
0000
0000
0000
0000
0000
0000
0000
0000
0000
1001
0000
0000
0000
0000
0000
0000
0000
0000
0000
0000
0000
0000
0000
0000
0000
0000
0000
0000
0000
0000
0000
0000
0000
0001
0000
0000
0000
0000
0000
0000
0000
0000
0000
0000
0000
1000
0000
0000
0000
0000
0000
0100
0000
0000
0000
0000
0000
,
0010
0000
0000
0000
0000
0000
0000
0000
0000
0000
0000
0000
0000
0000
0000
0000
0000
0000
0000
0000
0000
0000
0000
0000
0000
0000
0000
0000
0000
0000
0000
0000
0000
0000
0000
0000
1000
0000
0000
0000
0000
0000
0000
0000
0000
0000
0000
0000
0100
0000
0000
0000
0000
0000
0000
0000
0000
0000
0000
0000
0000
0000
0000
0000
0000
0000
0000
0000
0000
0000
0000
0000
0110
0000
0000
0000
0000
0000
0000
0000
0000
0000
0000
0000
0000
0000
0000
0000
0000
0000
0000
0000
0000
0000
0000
0000
0011
0000
0000
0000
0000
0000
0000
0000
0000
0000
0000
0000
0000
0000
0000
0000
0001
0000
0000
0000
0000
0000
0000
0000
0000
0000
0000
0000
0000
0000
0000
0000
0100
0000
0000
0000
0000
0000
0000
0000
0000
0000
0000
0000
0000
0000
0000
0000
1010
0000
0000
0000
0000
0000
0000
0000
0000
0000
0000
0000
0000
0000
0000
0000
0000
0000
0000
0000
0000
0000
0000
0000
0100
0000
0000
0000
0000
0000
0010
0000
0000
0000
0000
0000
0001
0000
0000
0000
0000
0000
0000
0000
0000
0000
0000
0000
,
1000
0000
0000
0100
0000
0000
0010
0000
0000
0001
0000
0000
1001
0000
0000
0000
0010
0000
0100
0000
1000
0000
0100
0000
0010
0000
0000
0001
0000
0000
0100
0000
0000
1000
0000
0000
0100
0000
0000
0010
0000
0000
0001
0000
0000
0010
0000
0000
,
1001
0000
0000
0100
0000
0000
0010
0000
0000
0001
0000
0000
1000
0000
0000
0001
0000
0010
0000
0100
0000
1000
0000
0000
0010
0000
0000
0100
0000
0000
1000
0000
0000
0100
0000
0000
0010
0000
0000
0001
0000
0000
0010
0000
0000
0000
0000
0000
,
0101
0000
0000
0000
0000
0000
0010
0000
0000
0100
0000
0000
1000
0000
0000
0100
0000
0000
0010
0000
0000
0001
0000
0000
1000
0000
0001
0000
1000
0000
0001
0000
0000
1000
0000
0000
0000
0000
0000
1000
0000
0000
0101
0000
0000
1000
0000
0000
,
0100
1000
0011
0100
0010
0100
0011
1000
0010
1000
0101
0010
0100
0010
1001
0100
,
0010
0000
0000
1000
0000
0000
0010
0000
0000
0100
0000
0000
0010
0000
0000
1000
0000
0000
0101
0000
0000
1000
0000
0000
0100
0000
0000
1000
0000
0000
0010
0000
1000
0000
0010
0000
0100
0000
0000
0000
0000
0000
1100
0000
0010
0000
0001
0000
,
1100
0001
0100
0011
1000
0010
1001
0100
0001
0110
0001
0010
1100
0010
0001
1010
0001
0100
1001
0100
1000
0011
1000
0010
,
1100
0000
0010
0000
0001
0000
1100
0000
0001
0000
0010
0000
1100
0000
0010
0000
0100
0000
1001
0000
0100
0000
0010
0000
0001
0000
0000
1000
0000
0000
0010
0000
1000
0000
0001
0000
0110
0000
0100
0000
0000
0000
0000
0000
0000
0000
0000
0000
;
