#TITLE:Attack the music;
#SUBTITLE:;
#ARTIST:DJ FX;
#TITLETRANSLIT:;
#SUBTITLETRANSLIT:;
#ARTISTTRANSLIT:;
#CREDIT:;
#BANNER:;
#BACKGROUND:;
#LYRICSPATH:;
#CDTITLE:;
#MUSIC:Attack The Music.mp3;
#OFFSET:1.714;
#SAMPLESTART:41.143;
#SAMPLELENGTH:12.000;
#SELECTABLE:YES;
#BPMS:0.000=140.000;
#STOPS:;
#BGCHANGES:;
// cache tags:
#FIRSTBEAT:4.000;
#LASTBEAT:182.500;
#SONGFILENAME:Songs/toune 3/Attack the music/Attack the music.sm;
#HASMUSIC:1;
#HASBANNER:0;
#MUSICLENGTH:78.688;
// end cache tags

//---------------dance-solo - attack the music----------------
#NOTES:
     dance-solo:
     attack the music:
     Medium:
     6:
     0.585,0.660,0.521,0.000,0.210,281.000,41.000,0.000,0.000,0.000:  // measure 1
000000
000000
000000
000000
,  // measure 2
101000
100100
100000
100000
,  // measure 3
100000
000000
100000
000000
100000
000000
100000
100000
,  // measure 4
100000
100000
100000
100000
,  // measure 5
100000
000000
000000
000000
100000
000000
000000
000000
100000
000000
000000
100000
000010
000000
100000
000000
,  // measure 6
101000
100100
100000
100000
,  // measure 7
100000
000000
100000
000000
100000
000000
100010
100000
,  // measure 8
101000
100000
100000
100000
,  // measure 9
100000
000000
000000
000000
100000
000000
000000
000000
100000
100000
000000
100000
100010
000000
100000
000000
,  // measure 10
101000
000000
100100
000000
100000
000000
100000
001000
,  // measure 11
100000
000000
100000
000000
100000
000000
100000
101000
,  // measure 12
100000
000000
100100
000000
100000
000000
100000
001000
,  // measure 13
100000
000000
000000
000000
100010
000000
000000
000000
100000
000000
000000
100010
000000
000000
101000
000000
,  // measure 14
100000
000000
100000
000000
100000
000000
100000
001000
,  // measure 15
100000
000000
100000
000000
100000
000000
100000
101000
,  // measure 16
100000
000000
100100
000000
100000
000000
100000
001000
,  // measure 17
100000
000000
000000
000000
100100
000000
000000
000000
100001
100000
001000
100000
100000
000000
101000
000000
,  // measure 18
100000
000000
100000
010000
100000
000000
100000
001000
,  // measure 19
100000
000000
100000
010000
100000
000000
100000
101000
,  // measure 20
100000
000000
100000
010000
100000
000000
100000
001000
,  // measure 21
100000
000000
000000
000010
100000
000000
010000
000000
100000
000000
000000
100010
000000
000000
101000
000000
,  // measure 22
100000
000000
100000
010000
100000
000000
100000
000000
,  // measure 23
100000
000000
100000
010000
100000
000000
100000
100000
,  // measure 24
100000
000000
100000
010000
100000
000000
100000
000000
,  // measure 25
000000
000000
000000
010000
000010
010000
000000
000000
,  // measure 26
000001
000000
000000
000000
000100
000000
010000
000000
000000
000000
010000
000000
000000
000010
000000
000000
,  // measure 27
000000
000000
000000
000000
000000
000000
010000
000000
000000
000000
010000
000000
000000
000010
000000
000000
,  // measure 28
000001
000000
000000
000000
000100
000000
010000
000000
000000
000000
010000
000000
000000
000010
000000
000000
,  // measure 29
000000
000000
000000
010000
000000
010000
000000
000010
,  // measure 30
100001
001000
100100
001000
100000
001000
100000
001000
,  // measure 31
100000
000000
001000
000000
100000
000000
001000
000000
100000
000000
001000
000000
100000
001000
101000
000000
,  // measure 32
100001
001000
100000
001000
100000
001000
100000
001000
,  // measure 33
100000
000000
001000
000000
100000
000000
001000
000000
100000
100000
001000
000000
100000
001000
101000
000000
,  // measure 34
100000
000000
001000
000010
100100
000000
001000
000000
100000
000000
001000
000000
100000
000000
001000
000000
,  // measure 35
100000
000000
001000
000010
100000
000000
001000
000000
100000
000000
001000
000000
100000
001000
101000
000000
,  // measure 36
100000
000000
001000
000010
100000
000000
001000
000000
100000
000000
001000
000000
100000
000000
001000
000000
,  // measure 37
100000
000000
001000
000010
100000
000000
001000
000000
100000
000000
001000
000000
100000
001000
101000
000000
,  // measure 38
100001
000000
001000
000010
100100
000000
001000
000000
100000
000000
001000
000000
100000
000000
001000
000000
,  // measure 39
100000
000000
001000
000010
100000
000000
001000
000000
100000
000000
001000
000000
100000
001000
101000
000000
,  // measure 40
100001
000000
001000
000010
100000
000000
001000
000000
100000
000000
001000
000000
100000
000000
001000
000000
,  // measure 41
100000
000000
001000
000000
100000
000000
001000
000000
100000
100000
001000
100000
100000
001000
101000
000000
,  // measure 42
100001
000000
000000
000010
100000
000000
000001
000000
100000
000000
000000
000000
100001
000000
000000
000000
,  // measure 43
100000
000000
000001
000010
100000
000000
000000
000000
100001
000000
000000
000000
100000
000000
100001
000000
,  // measure 44
100000
000000
000000
000010
100001
000000
000000
000000
100000
000000
000001
000000
100000
000000
000000
000000
,  // measure 45
100001
000000
000000
000010
100000
000000
000000
000000
100000
000000
000001
100000
000000
000000
100000
000000
,  // measure 46
000000
000000
000000
000010
000000
000000
000000
000000
000000
000000
000000
000000
000000
000000
000000
000000
;

//---------------dance-solo - attack the music -cr----------------
#NOTES:
     dance-solo:
     attack the music -cr:
     Hard:
     6:
     0.683,0.841,0.864,0.000,0.330,306.000,68.000,0.000,0.000,2.000:  // measure 1
000000
000000
000000
000000
,  // measure 2
100010
100100
100000
100000
,  // measure 3
100000
000000
100000
000000
100000
000000
100000
100000
,  // measure 4
100000
100000
100000
100000
,  // measure 5
100000
000000
000000
000000
100000
000000
000000
000000
100000
000000
000000
100000
001000
000000
100000
000000
,  // measure 6
100010
100100
100000
100000
,  // measure 7
100000
000000
100000
000000
100000
000000
101000
100000
,  // measure 8
100010
100000
100000
100000
,  // measure 9
100000
000000
000000
000000
100000
000000
000000
000000
100000
100000
000000
100000
101000
000000
100000
000000
,  // measure 10
100010
000000
100100
000000
100000
000000
100000
000010
,  // measure 11
100000
000000
100000
000000
100000
000000
100000
100010
,  // measure 12
100000
000000
100100
000000
100000
000000
100000
000010
,  // measure 13
100000
000000
000000
000000
101000
000000
000000
000000
100000
000000
000000
101000
000000
000000
100010
000000
,  // measure 14
100000
000000
100000
000000
100000
000000
100000
000010
,  // measure 15
100000
000000
100000
000000
100000
000000
100000
100010
,  // measure 16
100000
000000
100100
000000
100000
000000
100000
000010
,  // measure 17
100000
000000
000000
000000
100100
000000
000000
000000
100001
100000
000010
100000
100000
000000
100010
000000
,  // measure 18
100000
000000
100000
010000
100000
000000
100000
000010
,  // measure 19
100000
000000
100000
010000
100000
000000
100000
100010
,  // measure 20
100000
000000
100000
010000
100000
000000
100000
000010
,  // measure 21
100000
000000
000000
001000
100000
000000
010000
000000
100000
000000
000000
101000
000000
000000
100010
000000
,  // measure 22
100000
000000
100000
010000
100000
000000
100000
000000
,  // measure 23
100000
000000
100000
010000
100000
000000
100000
100000
,  // measure 24
100000
000000
100000
010000
100000
000000
100000
000000
,  // measure 25
000000
000000
000000
010000
000010
010000
000000
000000
,  // measure 26
000001
000000
000000
000000
000100
000000
010000
000000
000000
000000
010000
000000
000000
001000
000000
000000
,  // measure 27
000000
000000
000000
000000
000000
000000
010000
000000
000000
000000
010000
000000
000000
001000
000000
000000
,  // measure 28
000001
000000
000000
000000
000100
000000
010000
000000
000000
000000
010000
000000
000000
001000
000000
000000
,  // measure 29
000000
000000
000000
000000
000000
000000
010000
000000
000000
000000
010000
000000
000000
001000
000000
000000
,  // measure 30
100001
000000
000010
000000
100100
000000
010010
000000
100000
000000
010010
000000
100000
001000
000010
000000
,  // measure 31
100000
000000
000000
000000
000010
000000
000000
000000
100000
000000
000000
000000
010010
000000
000000
000000
100000
000000
000000
000000
010010
000000
000000
000000
100000
000000
001000
000010
100010
000000
000000
000000
,  // measure 32
100001
000000
000010
000000
100000
000000
010010
000000
100000
000000
010010
000000
100000
001000
000010
000000
,  // measure 33
100000
000000
000000
000000
000010
000000
000000
000000
100000
000000
000000
000000
010010
000000
000000
000000
100000
000000
100000
000000
010010
000000
100000
000000
100000
000000
001000
000010
100010
000000
000000
000000
,  // measure 34
100000
000000
000010
000100
100100
000000
010010
000000
100000
000000
010010
000000
100000
001000
000010
000000
,  // measure 35
100000
000000
000010
000100
100000
000000
010010
000000
100000
000000
010010
000000
100000
001010
100010
000000
,  // measure 36
100000
000000
000010
000100
100000
000000
010010
000000
100000
000000
010010
000000
100000
001000
000010
000000
,  // measure 37
100000
000000
000000
000000
000010
000000
000100
000000
100000
000000
000000
000000
010000
000000
000000
000000
100000
000000
000000
000000
010010
000000
100000
000000
000000
000000
001000
000010
100010
000000
000000
000000
,  // measure 38
101001
000000
000010
000100
100100
000000
010010
000000
100000
000000
010010
000000
100000
001000
000010
000000
,  // measure 39
100000
000000
000000
000000
000010
000000
000100
000000
100000
000000
000000
000000
010010
000000
000000
000000
100000
000000
000000
000000
010010
000000
000000
000000
100000
000000
001000
000010
100010
000000
000000
000000
,  // measure 40
100001
000000
000010
000100
100000
000000
010010
000000
100000
000000
010010
000000
100000
001000
000010
000000
,  // measure 41
100000
000000
000000
000000
000010
000000
000100
000000
100000
000000
000000
000000
010010
000000
000000
000000
100000
000000
100000
000000
010010
000000
100000
000000
100000
000000
001000
000010
100010
000000
000000
000000
,  // measure 42
101001
000000
000000
000100
100000
000000
010001
000000
100000
000000
010000
000000
100001
001000
000000
000000
,  // measure 43
100000
000000
000001
000100
100000
000000
010000
000000
100001
000000
010000
000000
100000
001000
100001
000000
,  // measure 44
100000
000000
000000
000100
100001
000000
010000
000000
100000
000000
010001
000000
100000
001000
000000
000000
,  // measure 45
100001
000000
000000
000100
100000
000000
010000
000000
100000
000000
010001
100000
000000
001000
100000
000000
,  // measure 46
001000
000000
000000
000100
000000
000000
010000
000000
000000
000000
010000
000000
000000
000000
000000
000000
;
