#TITLE:Everything Went Numb;
#SUBTITLE:;
#ARTIST:Unknown artist;
#TITLETRANSLIT:;
#SUBTITLETRANSLIT:;
#ARTISTTRANSLIT:;
#CREDIT:;
#BANNER:everythingbn-1.png;
#BACKGROUND:Everythingbg.png;
#LYRICSPATH:;
#CDTITLE:;
#MUSIC:01 Everything Went Numb.mp3;
#OFFSET:-0.023;
#SAMPLESTART:44.932;
#SAMPLELENGTH:12.000;
#SELECTABLE:YES;
#BPMS:0.000=135.000,4.000=136.822,5.000=135.000,6.000=133.259,7.000=135.000,8.000=131.563,9.000=135.000,12.000=128.297,14.000=135.000,15.000=146.479,16.000=144.432,17.000=135.000,18.000=131.563,19.000=140.513,20.000=135.000,23.000=140.513,24.000=129.916,25.000=135.000,29.000=129.916,30.000=135.000,32.000=142.442,33.000=131.563,34.000=135.000,36.000=131.563,37.000=135.000,38.000=129.916,39.000=135.000,41.000=138.621,42.000=135.000,47.000=129.916,48.000=144.432,49.000=135.000,50.000=131.563,51.000=135.000,63.000=136.787,64.000=135.000,65.000=126.724,66.000=135.000,68.000=122.228,69.000=135.000,70.000=123.691,71.000=135.000,73.000=123.691,74.000=129.910,75.000=126.724,76.000=138.621,77.000=135.000,78.000=120.800,79.000=135.000,82.000=123.691,83.000=125.189,84.000=135.000,85.000=120.800,86.000=135.000,87.000=123.691,88.000=135.000,89.000=126.724,90.000=135.000,91.000=125.189,92.000=135.000,93.000=128.297,94.000=138.621,95.000=136.787,96.000=144.432,97.000=135.000,98.000=133.259,99.000=135.000,100.000=131.563,101.000=135.000,103.000=136.787,104.000=135.000,111.000=140.506,111.500=126.724,111.750=115.405,111.875=105.942,112.000=144.432,113.000=135.000,115.000=131.563,116.000=135.000,117.000=144.432,118.000=133.259,119.000=131.563,120.000=135.000,128.000=133.259,129.000=131.563,130.000=135.000,147.000=131.563,148.000=138.621,149.000=131.563,150.000=135.000,153.000=136.787,154.000=135.000,155.000=138.621,156.000=135.000,179.000=133.259,180.000=135.000,203.000=129.910,204.000=135.000,206.000=136.787,207.000=133.259,208.000=135.000,225.000=108.159,226.000=133.259,227.000=135.000,229.000=136.787,230.000=135.000,233.000=144.432,234.000=131.563,235.000=133.259,236.000=135.000,237.000=136.787,238.000=129.910,239.000=136.787,240.000=131.563,241.000=138.621,242.000=126.724,243.000=138.621,244.000=136.787,245.000=135.000,246.000=133.259,248.000=136.787,250.000=133.259,251.000=136.787,252.000=135.000,253.000=140.506,254.000=133.259,255.000=135.000,258.000=131.563,259.000=135.000,261.000=136.787,262.000=135.000,263.000=136.787,264.000=135.000,266.000=140.506,267.000=135.000,268.000=131.563,269.000=135.000,271.000=133.259,272.000=135.000,279.000=138.621,280.000=135.000,283.000=129.910,284.000=135.000,291.000=131.563,292.000=135.000,293.000=133.259,294.000=136.787,295.000=138.621,297.000=133.259,298.000=135.000,299.000=136.787,300.000=129.910,301.000=135.000,302.000=133.259,303.000=140.506,304.000=135.000;
#STOPS:;
#BGCHANGES:;
// cache tags:
#FIRSTBEAT:1.000;
#LASTBEAT:304.000;
#SONGFILENAME:Songs/Farewell, My Little Stepmania Pack/Everything Went Numb/01 Everything Went Numb.sm;
#HASMUSIC:1;
#HASBANNER:1;
#MUSICLENGTH:210.055;
// end cache tags

//---------------dance-single - ----------------
#NOTES:
     dance-single:
     :
     Beginner:
     2:
     0.742,0.724,1.000,0.005,0.783,846.000,244.000,1.000,0.000,0.000:
0000
0000
0000
0000
0100
0000
0000
0100
0000
0000
0100
0000
1000
0000
0001
0000
,
0010
0000
0000
0000
1000
0000
0000
1000
0000
0000
1000
0000
0001
0000
0010
0000
,
0100
0000
0000
0000
0000
0000
0000
0000
0000
0000
0000
0000
0010
0000
0000
0000
0000
0000
0000
0000
0000
0010
0000
0000
0000
0000
0000
0000
0000
0010
0000
0000
0000
0000
0000
0000
0100
0000
0000
0000
0000
0000
0001
0000
0000
0000
0000
0000
,
1000
0000
0000
0000
0200
0000
0000
0000
0000
0300
0100
0010
1000
0000
0000
0000
,
0000
0000
0010
0000
1001
0000
0100
0010
0000
0100
1000
0000
1100
0000
1010
0000
,
0101
0000
1001
0001
0010
0000
1000
0010
0000
1000
0100
0000
1010
0000
0101
0000
,
1001
0000
1100
1000
0001
0000
0010
1000
0000
1000
0010
0000
1001
0000
0101
0000
,
1010
0000
0000
0000
0000
0000
1100
0000
0000
1000
0000
0000
0100
0000
0000
1000
0000
0000
0010
0000
0100
0001
1000
0000
0010
0000
0000
0100
0000
0000
0010
0000
0000
1000
0000
0000
0011
0000
0000
0000
0000
0000
0000
0000
0000
0000
0000
0000
,
0000
0000
0000
0000
1100
0000
0011
0010
1000
0100
0011
0000
0100
0000
1010
1000
,
0001
0010
0101
1000
0010
0000
1001
1000
0001
0010
1100
0000
0110
1001
0100
0110
,
0001
1010
0001
0110
1000
0000
0101
0001
0010
1000
0100
0000
0010
0001
0110
0010
,
1000
0100
1010
0001
0010
0100
1001
1000
0010
0000
0011
0100
0011
0000
0101
0010
,
1001
0000
1010
0000
0001
0010
1100
1000
0001
0000
1100
0010
0001
1000
0101
0100
,
0010
0000
1001
0100
1000
0000
0110
0010
0001
0100
1010
0001
1100
1010
0001
0110
,
1000
0101
1000
0000
0100
0000
0011
0010
0100
0000
1010
0000
0100
0000
1100
1000
,
0001
0000
0010
0000
0101
0000
1000
0000
0110
0000
0000
0000
1010
0000
0100
0000
1001
0000
0000
0000
0001
0010
0100
0000
1000
0000
0100
0000
0011
0000
1000
0000
,
0011
0100
0010
0100
1001
0000
0000
0000
0010
0000
0010
0000
0010
0000
0001
0000
,
0010
1100
1001
0000
0010
0010
0010
0001
,
0010
0100
1010
0100
1000
0010
0000
1000
,
0000
0000
0000
0000
0000
0000
0000
1001
0000
0000
0000
0000
0000
0000
0000
0000
1100
0000
0000
0000
0000
0000
0000
0000
0001
0000
0000
0000
0000
0000
0000
0000
0000
0000
0000
0000
0000
0000
0000
0000
0001
0000
0000
0000
0000
0000
0000
0000
0100
0000
0000
0000
0000
0000
0000
0000
0010
0000
0000
0000
0000
0000
0000
0000
,
1000
0000
0000
0000
0000
0000
0100
0000
0000
0000
0000
0100
1010
0000
0000
0000
0000
0000
0010
0000
0000
0001
0000
0000
0010
0000
0000
0000
0000
0000
0001
0000
0000
0000
0000
0000
1000
0000
0000
0000
0000
0000
0100
0000
0000
0000
0000
0000
,
0000
0000
1100
0000
1100
0000
1000
0000
0100
0001
0010
0000
0100
0000
0001
0000
,
1000
0000
1000
0000
1010
0000
0010
0001
0010
0000
0001
0000
1000
0000
0001
0000
,
0000
0000
0000
0000
0000
0000
0000
0001
0000
0000
0010
0000
0100
0000
0000
0000
1001
0000
0000
0000
0000
0000
0000
0000
1000
0000
0100
0000
0000
0010
0000
0000
1001
0000
0000
0000
0000
0000
0000
0000
0100
0000
0010
0000
0001
0000
0000
0000
0101
0000
0000
0000
0100
0000
0000
0000
0010
0000
0000
0000
0100
0000
0000
0000
,
0001
0010
1000
0100
1001
0000
0011
0001
0100
0000
0011
0000
1000
0000
0101
0100
,
1000
0000
0110
0000
0001
0010
1001
0001
0100
1000
0110
0000
1100
0000
0011
0000
,
1001
0000
0000
0000
0010
0100
0011
0010
1000
0001
0110
0000
1000
0000
1010
0010
,
0100
0000
0000
0000
0011
0000
0000
0000
1000
0000
0001
0000
1100
0000
1000
0000
0010
0000
0000
0000
0011
0000
1000
0000
0101
0000
0000
0000
0001
0010
0100
1000
,
0100
0010
1000
0001
1010
0000
0101
0000
0110
0100
0001
1001
0110
0000
0101
0000
,
0001
0010
0000
0100
1001
0000
0010
0000
1000
0000
0100
0010
1001
0100
0011
0001
,
0010
1000
0100
0001
1010
0000
0010
0001
1100
0010
0100
0000
1000
0001
1000
0010
,
0101
0000
0100
0000
0010
0001
0100
0001
0110
1000
0100
0000
0011
0001
0010
0100
,
1010
0010
0010
0100
1000
0000
0011
0100
1000
0000
1000
0000
0010
0100
0011
1000
,
0000
1000
0101
0000
0010
0000
1100
0100
0001
1000
0100
0000
0010
0000
0110
0001
,
1000
0100
1010
0000
1000
0000
0101
0001
0010
0100
1000
0000
0001
0010
0101
0100
,
1000
0000
0010
0000
1000
0000
0001
0000
0010
0000
0100
0000
1001
0000
0001
0000
1000
0000
0010
0000
1000
0000
0001
0000
0100
0000
1000
0100
0010
0000
0010
0000
,
0010
0100
1000
0010
1001
0000
1100
0100
1000
0010
0101
0000
0001
0000
0011
1000
,
0100
1000
0110
0000
0100
0000
1010
1000
0001
0010
0101
0000
0010
0000
1100
0001
,
0100
0010
1001
0000
1000
0000
0011
0001
1000
0001
0110
0000
0100
0000
1010
0100
,
0000
0000
0100
0000
0011
0000
0000
0000
0101
0000
0000
0000
0010
0100
0010
0100
0010
0000
0100
0000
1000
0000
0011
0000
1001
0000
0000
0000
0000
0000
0000
0000
,
0000
0000
0000
0000
1100
0000
0011
0010
0100
1000
0101
1000
0010
0000
1100
0100
,
0010
0001
1010
0100
0010
0000
0101
0001
0100
0010
1100
0010
1100
1010
0001
0110
,
1000
0110
0001
1010
0100
0000
0110
0100
1000
0100
0011
1000
0001
0000
1010
1000
,
0001
1000
0100
0010
0001
0000
0011
0001
1000
0010
1100
0000
1001
0000
1001
0000
,
1001
0000
1001
0000
0010
0000
1100
1000
0001
0100
0011
1000
0100
0000
0101
0001
,
0010
1000
0001
1000
0010
0000
0110
0010
1000
0001
0100
0010
0011
0101
0010
1100
,
0010
0101
1000
0110
0000
0000
1100
0100
0010
0001
0000
0001
1100
0000
0011
0001
,
0100
0000
0000
0000
0000
0000
0000
0000
0000
0000
0000
0000
1000
0000
0000
0000
0000
0000
0000
0000
0000
0000
0000
0000
0101
0000
0000
0000
0000
0000
0000
0000
0000
0000
0000
0000
0010
0000
0000
0000
0000
0000
0000
0000
0000
0000
0000
0000
1001
0000
0000
0000
0000
0000
0000
0000
0000
0000
0000
0000
0000
0000
0000
0000
0000
0000
0000
0000
0010
0000
0000
0000
0000
0000
0000
0100
0000
0000
0000
0000
0000
0010
0000
0000
0000
0000
0000
0000
0000
0000
0000
0000
0100
0000
0000
0000
0000
0000
0000
0000
0000
0000
0000
0000
0000
0100
0000
0000
0000
0000
0000
0000
0000
0000
0000
0000
0000
0000
0000
0000
1000
0000
0000
0000
0000
0000
0000
0000
0000
0000
0000
0000
0101
0000
0000
0000
0000
0000
0000
0000
0000
0000
0000
0000
1100
0000
0000
0000
0000
0000
0000
0000
0000
0000
0000
0000
0001
0000
0000
0000
0000
0000
0000
0000
0000
0000
0000
0000
1000
0000
0000
0000
0000
0000
0000
0000
0000
0000
0000
0000
0100
0000
0000
0000
0000
0000
0000
0000
0000
0000
0000
0000
,
1010
0010
0100
0001
1100
0000
0000
0000
1001
0000
0000
0000
0011
0000
0000
0100
,
1100
0000
1000
0000
1000
0000
0100
0011
0001
0000
0100
0000
0010
0000
0001
0000
,
0011
0000
0000
0000
0000
0000
0000
0000
0000
0000
0000
0000
0010
0000
0000
0000
0000
0000
0000
0000
0000
0000
0000
0000
1000
0000
0000
0000
0000
0000
0000
0000
0000
0000
0000
0000
0000
0000
0000
0000
0000
0000
0000
0000
0000
0000
0000
0000
1000
0000
0000
0000
0000
0000
0000
0000
0000
0000
0000
0000
0000
0000
0000
0000
0000
0000
0000
0000
0000
0000
0000
0000
0101
0000
0000
0000
0000
0000
0000
0000
0000
0000
0000
0000
0100
0000
0000
0000
0000
0000
0000
0000
0000
0000
0000
0000
0001
0000
0000
0000
0000
0000
0000
0000
0000
0000
0000
0000
0010
0000
0000
0000
0000
0000
0000
0000
0000
0000
0000
0000
0100
0000
0000
0000
0000
0000
0000
0000
0000
0000
0000
0000
1000
0000
0000
0000
0000
0000
0000
0000
0000
0000
0000
0000
0100
0000
0000
0000
0000
0000
0010
0000
0000
0000
0000
0000
0000
0000
0000
0100
0000
0000
0000
0000
0000
0000
0000
0000
0001
0000
0000
0000
0000
0000
0010
0000
0000
0000
0000
0000
0000
0001
0000
0000
0000
0000
0000
0000
0000
0000
0000
0000
,
0101
1000
0010
0100
0011
0000
0001
0000
1010
1000
0100
0000
1100
0010
0101
0010
,
1000
0001
0100
0010
1001
0000
0000
0000
0100
0000
0000
0000
0001
0000
0000
1000
,
0000
0000
0000
0000
0000
0000
0010
0000
0000
0000
0000
0000
0000
0000
0000
0000
0000
0000
0001
0000
0000
0000
0000
0000
0000
0000
0000
0000
0100
0000
0000
0000
0000
0000
0000
0000
0000
0000
0000
0000
0000
0000
0000
0000
0000
0000
0000
0000
0000
0000
0000
0000
0000
0000
0000
0000
0000
0010
0000
0000
0000
0000
0000
0000
0000
0000
0000
0000
0000
0000
0000
0000
0000
0000
0000
0000
0000
0000
0000
0000
0000
0000
0000
0000
0000
0000
0000
0000
0000
0000
0000
0000
0000
0000
0000
0000
,
1000
0000
0000
0000
0000
0000
0000
0000
0000
0000
0000
0000
0000
0000
0000
0000
0000
0000
0000
0000
0000
0000
0000
0000
0000
0000
0000
0100
0000
0000
0000
0000
0000
0000
0000
0000
0000
0000
0000
0000
0000
0000
0000
0000
0000
0000
0000
0000
0010
0000
0000
0000
0000
0000
0000
0000
0000
0000
0000
0000
0000
0000
0000
0000
0000
0000
0000
0000
0000
0000
0000
0000
0000
0000
0000
0000
0000
0000
0000
0000
0000
0010
0000
0000
0000
0000
0000
0000
0000
0000
0000
0000
0000
0000
0000
0000
0000
0000
0000
0000
0000
0000
0000
0000
0000
0000
0000
0000
0000
0000
0000
0000
0000
0000
0000
0000
0000
0000
0000
0000
0000
0000
0000
0000
0000
0000
0000
0000
0000
0000
0001
0000
0000
0000
0000
0000
0000
0000
0000
0000
0000
0000
0000
0000
0000
0000
0000
0000
0000
0000
0000
0000
0000
0000
0000
0000
0000
0000
0000
0000
0000
0000
0000
0000
0000
0000
0000
0000
0000
0000
0000
0000
0000
0000
0000
0000
0000
0000
0000
0000
0000
0000
0000
0000
0000
0000
0010
0000
0000
0000
0000
0000
,
0000
0000
0000
0000
0000
0000
0000
0000
0000
0000
1000
0000
0000
0000
0000
0000
0000
0000
0000
0000
0000
0000
0000
0100
0000
0000
0000
0000
0000
0000
0000
0000
0000
0000
0000
0000
0000
0000
0000
0000
0000
0000
0000
0000
0000
0000
0000
0000
0000
1000
0000
0000
0000
0000
0000
0000
0000
0000
0000
0000
0000
0000
0000
0000
0000
0000
0000
0000
0000
0000
1000
0000
0000
0000
0000
0000
0000
0000
0000
0000
0000
0000
0000
0000
0000
0000
0000
0000
1000
0000
0000
0000
0000
0000
0000
0000
,
0000
0000
0000
0000
0000
0000
0000
0000
0010
0000
0000
0000
0000
0000
0000
0000
0000
0000
0000
0000
0000
0000
0000
0000
0000
0000
0000
0000
0000
0000
0000
0000
0000
0000
0000
0000
0000
0000
0000
0000
0000
0000
0000
0000
0000
0000
0000
0000
1000
0000
0000
0000
0000
0000
0000
0000
0000
0000
0000
0000
0100
0000
0000
0000
0000
0000
0010
0000
0000
0000
0000
0000
1000
0000
0000
0000
0000
0000
0000
0000
0000
0000
0000
0000
0010
0000
0000
0001
0000
0000
0010
0000
0000
0000
0000
0000
,
0100
1000
0010
0100
0001
0100
0010
0101
1001
0000
1100
0100
1000
0010
0101
0000
,
1000
0000
0011
0100
0000
0100
0011
0000
1000
0000
0110
0100
1000
0010
0101
0000
,
0100
0000
0000
0000
0011
0000
1000
0000
0000
0000
0100
0000
1001
0000
0000
0000
0011
0000
0000
0000
0100
0010
0100
0010
0100
0000
0010
0000
1000
0000
0101
0000
,
0110
0000
0000
0000
0000
0000
0000
0000
0000
0000
0000
0000
0100
0000
0000
0000
0000
0000
0000
0000
1000
0000
0100
0000
0011
0000
0000
0000
0000
0000
1000
0000
0000
0100
0000
0000
1010
0000
0000
0000
0000
0000
0100
0000
0000
0000
0000
0000
,
1000
0000
0010
0100
0011
0000
0100
0000
1000
0000
0000
0100
0011
0000
0010
0000
,
0010
0000
0001
0100
1010
0000
1000
0000
0010
0000
0100
0010
1001
0000
0010
0000
,
0010
0000
1000
0100
0011
0000
0001
0000
1000
0011
0010
0010
0001
0010
0100
1000
,
0100
0000
0000
0000
0000
0000
0000
0000
0010
0000
0000
0000
0000
0000
0000
0100
0000
0000
0000
0000
0000
0010
0000
0000
0000
0000
0000
0000
0100
0000
0000
0000
0000
0000
0000
0000
0011
0000
0000
0000
0000
0000
0000
0000
0000
0000
0000
0000
0001
0000
0000
0000
0000
0000
0000
0000
0000
0000
0000
0000
0100
0000
0000
0000
0000
0000
0000
0000
0000
0000
0000
0000
0001
0000
0000
0000
0000
0000
0000
0000
0000
0000
0000
0000
1010
0000
0000
0000
0000
0000
0000
0000
0000
0000
0000
0000
0110
0000
0000
0000
0000
0000
0000
0000
0000
0000
0000
0000
0000
0000
0000
0000
0000
0000
0000
0000
0000
0000
0000
0000
0100
0000
0000
0000
0000
0000
0000
0000
0000
0000
0000
0000
0000
0000
0000
0000
0000
0000
0000
0000
0000
0000
0000
0000
0101
0000
0000
0000
0000
0000
0000
0000
0000
0000
0000
0000
0001
0000
0000
0000
0000
0000
0000
0000
0000
0000
0000
0000
0000
0000
0000
0000
0000
0000
0000
0000
0000
0000
0000
0000
0011
0000
0000
0000
0000
0000
0000
0000
0000
0000
0000
0000
,
0110
0000
0100
0000
1000
0010
1000
0100
1001
0000
1001
0000
0100
0000
0100
0000
,
0011
0000
1010
1000
0100
1000
0010
0011
1001
0000
0000
0100
0011
0000
0100
0000
,
0100
1100
0000
0100
0011
0000
0010
0000
1000
0101
0000
0001
1100
0000
1000
0000
,
0110
0010
0100
0000
0011
0001
0001
0001
1001
0000
0000
0000
0000
0000
0000
0000
,
0000
0000
0000
0000
0000
0000
0000
0000
0000
0000
0000
0000
0000
0000
0000
1000
0100
0000
0011
0000
0000
0000
0100
0000
1010
0000
0000
0000
0000
0000
0000
0000
0000
0000
0000
0000
0001
0000
0000
0000
0000
0000
0000
0000
0000
0000
0000
0000
,
0011
0000
0000
0000
0000
0000
0000
0000
0000
0000
0000
0000
0000
0000
0000
0000
0000
0000
0000
0000
0000
0000
0000
0000
0011
0000
0000
0000
0000
0000
0000
0000
0000
0000
0000
0000
0000
0000
0000
0000
0000
0000
0000
0000
0000
0000
0000
0000
0001
0000
0000
0000
1000
0000
0000
0000
0000
0001
0000
0000
0000
0000
0000
1000
0000
0000
0000
0000
0000
0000
0000
0000
0011
0000
0000
0000
0000
0000
0000
0000
0000
0000
0000
0000
0001
0000
0000
0000
0000
0000
0000
0000
0000
0000
0000
0000
1100
0000
0000
0000
0000
0000
0000
0000
0000
0000
0000
0000
0000
0000
0000
0000
0000
0000
0000
0000
0000
0000
0000
0000
0101
0000
0000
0000
0000
0000
0000
0000
0000
0000
0000
0000
0100
0000
0000
0000
0000
0000
0000
0000
0000
0000
0000
0000
1000
0000
0000
0000
0000
0000
0000
0000
0000
0000
0000
0000
0100
0000
0000
0000
0000
0000
0000
0000
0000
0000
0000
0000
0011
0000
0000
0000
0000
0000
0000
0000
0000
0000
0000
0000
0000
0000
0000
0000
0000
0000
0000
0000
0000
0000
0000
0000
,
0010
0100
1010
0100
1000
0010
0101
0000
1000
0000
0011
0001
1000
0100
1001
0000
,
0010
0000
0110
1000
0100
1000
0101
0000
1000
0000
0110
0010
0001
1000
0100
0000
,
0010
0000
0101
0100
1000
0010
0100
0000
1000
0100
0011
0001
0100
0000
1001
0001
,
0001
0010
1100
0100
1000
0100
1010
0010
1001
0000
0110
1000
0010
0101
0010
0100
,
1000
0000
0000
0000
0010
0100
0011
0000
0001
0000
0000
0000
1100
0000
0000
0000
0110
0000
0010
0000
0010
0000
0100
0000
1000
0000
0101
0000
0001
0000
0010
0000
,
1001
0000
0000
0000
,
0000
0000
0000
0000
,
0000
0000
0000
0000
,
0000
0000
0000
0000
,
0000
0000
0000
0000
,
0000
0000
0000
0000
,
0000
0000
0000
0000
,
0000
0000
0000
0000
,
0000
0000
0000
0000
,
0000
0000
0000
0000
,
0000
0000
0000
0000
,
0000
0000
0000
0000
,
0000
0000
0000
0000
,
0000
0000
0000
0000
,
0000
0000
0000
0000
,
0000
0000
0000
0000
,
0000
0000
0000
0000
,
0000
0000
0000
0000
,
0000
0000
0000
0000
,
0000
0000
0000
0000
,
0000
0000
0000
0000
,
0000
0000
0000
0000
,
0000
0000
0000
0000
,
0000
0000
0000
0000
,
0000
0000
0000
0000
,
0000
0000
0000
0000
,
0000
0000
0000
0000
,
0000
0000
0000
0000
,
0000
0000
0000
0000
,
0000
0000
0000
0000
,
0000
0000
0000
0000
,
0000
0000
0000
0000
,
0000
0000
0000
0000
,
0000
0000
0000
0000
,
0000
0000
0000
0000
,
0000
0000
0000
0000
,
0000
0000
0000
0000
,
0000
0000
0000
0000
,
0000
0000
0000
0000
,
0000
0000
0000
0000
,
0000
0000
0000
0000
,
0000
0000
0000
0000
,
0000
0000
0000
0000
;

//---------------dance-single - ----------------
#NOTES:
     dance-single:
     :
     Hard:
     4:
     0.873,0.868,1.000,0.005,0.840,876.000,351.000,1.000,14.000,56.000:
0000
0000
0000
0000
0100
0000
0000
0100
0000
0000
0100
0000
1000
0000
0001
0000
,
0010
0000
0000
0000
1000
0000
0000
1000
0000
0000
1000
0000
0001
0000
0010
0000
,
0100
0000
0000
0000
0000
0000
0000
0000
0000
0000
0000
0000
0010
0000
0000
0000
0000
0000
0000
0000
0000
0010
0000
0000
0000
0000
0000
0000
0000
0010
0000
0000
0000
0000
0000
0000
0100
0000
0000
0000
0000
0000
0001
0000
0000
0000
0000
0000
,
1000
0000
0000
0000
0000
0000
0000
0000
0000
0000
0000
0000
0200
0000
0000
0000
0000
0000
0000
0000
0000
0000
0000
0000
0000
0000
0000
0000
0300
0000
0100
0000
0000
0010
0000
0000
1000
0000
0000
0000
0000
0000
0000
0000
0000
0000
0000
0000
,
0000
0000
0010
0000
1101
0010
0100
0010
0001
0100
1000
0000
1110
0000
1011
0000
,
0111
0000
1001
0001
0010
0100
1000
0100
0001
1000
0100
0000
1110
0000
0111
0000
,
1011
0000
1100
1000
0001
0100
0010
1000
0001
1000
0010
0000
1101
0000
0111
0000
,
1011
0000
0000
0000
0000
0000
0000
0000
0000
0000
0000
0000
0000
0000
0000
0000
0000
0000
0000
0000
0000
0000
0000
0000
1100
0000
0000
0000
0000
0000
0000
0000
0000
0000
0000
0000
1000
0000
0000
0000
0000
0000
0000
0000
0000
0000
0000
0000
0100
0000
0000
0000
0000
0000
0000
0000
0000
0000
0000
0000
1000
0000
0000
0000
0000
0000
0000
0000
0000
0000
0000
0000
0010
0000
0000
0000
0000
0000
0000
0000
0100
0000
0000
0000
0001
0000
0000
0000
1000
0000
0000
0000
0000
0000
0000
0000
0010
0000
0000
0000
0000
0000
0000
0000
0000
0000
0000
0000
0100
0000
0000
0000
0000
0000
0000
0000
0000
0000
0000
0000
0010
0000
0000
0000
0000
0000
0000
0000
0000
0000
0000
0000
1000
0000
0000
0000
0000
0000
0000
0000
0000
0000
0000
0000
0111
0000
0000
0000
0000
0000
0000
0000
0000
0001
0000
0000
0000
0000
0000
0000
0000
0000
0000
0000
0000
1000
0000
0000
0000
0000
0000
0000
0000
0000
0000
0000
0000
0100
0000
0000
0000
0000
0000
0000
0000
0000
0000
0000
0000
0000
0000
0000
,
1000
0000
0010
0000
1101
0100
0011
0010
1000
0100
0011
1000
0100
0001
1010
1000
,
0001
0010
0101
1000
0010
0000
1001
1000
0001
0010
1100
0000
0110
1001
1010
0110
,
0001
1010
0101
0110
1000
0000
0101
0001
0010
1000
0100
0000
0010
0001
0110
0010
,
1000
0100
1010
0001
0010
0100
1001
1000
0010
0000
0011
0100
1011
0000
0101
0010
,
1101
0110
1010
0000
0001
0010
1100
1000
0001
0000
1100
0010
0001
1000
0101
0100
,
0010
0000
1001
0100
1000
0000
0110
0010
0001
0100
1010
0001
1100
1010
0101
0110
,
1000
0101
1010
0000
0110
0000
0011
0010
0100
0000
1010
0000
1001
0000
1100
1000
,
0001
0000
0010
0000
0101
0000
1000
0000
0111
0000
0000
0000
1010
0000
0100
0000
1001
0000
0000
0000
0001
0010
0100
0000
1000
0000
0100
0000
0011
0000
1000
0000
,
0011
0100
0010
0100
1011
0000
0000
0000
0010
0000
0010
0000
0010
0000
0001
0000
,
0010
1100
1001
0000
0010
0010
0010
0001
,
0010
0100
1010
0100
1000
0010
0000
1000
,
0000
0000
0000
0000
0000
0000
0000
1001
0000
0000
0000
0000
0000
0000
0000
0000
1100
0000
0000
0000
0000
0000
0000
0000
0001
0000
0000
0000
0000
0000
0000
0000
0000
0000
0000
0000
0000
0000
0000
0000
0001
0000
0000
0000
0000
0000
0000
0000
0100
0000
0000
0000
0000
0000
0000
0000
0010
0000
0000
0000
0000
0000
0000
0000
,
1000
0000
0000
0000
0000
0000
0100
0000
0000
0000
0000
0100
1010
0000
0000
0000
0000
0000
0010
0000
0000
0001
0000
0000
0010
0000
0000
0000
0000
0000
0001
0000
0000
0000
0000
0000
1000
0000
0000
0000
0000
0000
0100
0000
0000
0000
0000
0000
,
0000
0000
1100
0000
1100
0000
1000
0000
0100
0001
0010
0000
0100
0000
0001
0000
,
1000
0000
1000
0000
1010
0000
0010
0001
0010
0000
0001
0000
1000
0000
0001
0000
,
0000
0000
0000
0000
0000
0000
0000
0001
0000
0000
0010
0000
0100
0000
0000
0000
1001
0000
0000
0000
0000
0000
0000
0000
1000
0000
0100
0000
0000
0010
0000
0000
1001
0000
0000
0000
0000
0000
0000
0000
0100
0000
0010
0000
0001
0000
0000
0000
0101
0000
0000
0000
0100
0000
0000
0000
0010
0000
0000
0000
0100
0000
0000
0000
,
0001
0010
1000
0100
1011
0000
0011
0001
MMMM
0000
0011
0000
1000
0000
0101
0100
,
MMMM
0000
0110
0000
0001
0010
1001
0001
0100
1000
0110
0000
11MM
0000
MM11
0000
,
1MM1
0000
0000
0000
0010
0100
0011
0010
1000
0001
0110
0001
1000
0100
1010
0010
,
0100
0000
0000
0000
0011
0000
0000
0000
1000
0000
0001
0000
1100
0000
1000
0000
0010
0000
0000
0000
0011
0000
1000
0000
0101
0000
0000
0000
0001
0010
0100
1000
,
0100
0010
1000
0001
1110
0000
0111
0000
0110
0100
0001
1001
0111
0000
1101
0000
,
0001
0010
0000
0100
1101
0000
0110
0000
1000
0000
1100
0010
1101
0010
0101
0001
,
0010
1000
0100
0001
1010
0000
0010
0011
1100
0010
0101
0000
1010
0001
1000
0110
,
0101
0000
1100
0000
0110
0001
0100
0001
1110
1000
0110
0000
0111
0001
1010
0100
,
1011
0010
0011
0100
1000
0000
1011
0100
1010
0000
1100
0000
0101
0100
0011
1100
,
0000
1000
0101
0000
0010
0000
1110
0100
0011
1000
0110
0000
1010
0000
0110
0101
,
1000
0100
1011
0000
1000
0000
0101
0001
1010
0100
1001
0000
0011
0010
0101
0110
,
1000
0000
0010
0000
1100
0000
0001
0000
1010
0000
0100
0000
1001
0000
0001
0000
1000
0000
0010
0000
1100
0000
0001
0000
0110
0000
1000
0100
0011
0000
0010
0000
,
0010
0100
1000
0010
1101
0000
1100
0100
1001
0010
0101
0000
0011
0000
0110
1000
,
0100
1010
0111
0000
0110
0000
1010
1000
0101
0010
0101
0000
1010
0000
1100
0001
,
0100
0010
1001
0000
1000
0000
0011
0001
1100
0001
0110
0000
0101
0000
1010
0110
,
0000
0000
0100
0000
0011
0000
0000
0000
0101
0000
0000
0000
0010
0100
0010
0100
0010
0000
0100
0000
1000
0000
0011
0000
1001
0000
0000
0000
0100
0000
0001
0000
,
1000
1000
0010
0000
1110
0000
0011
0010
0100
1000
0101
1000
0001
0010
1100
0100
,
0010
0001
1010
0100
0010
0000
0101
0001
0100
0010
1100
0010
1100
0100
0011
0110
,
0001
1010
0101
1100
0100
0000
0110
0100
1000
0100
0011
1000
0001
0000
1010
1000
,
0001
1000
0100
0010
0001
0100
0011
0001
1000
0010
1100
0000
1011
0000
1001
0000
,
1101
0010
1001
0100
0010
0000
1100
1000
0001
0100
0011
1000
0100
0000
0101
0001
,
0010
1000
0001
1000
0010
0000
0110
0010
1000
0001
0100
0010
0011
0101
1010
1100
,
0010
0101
1010
0110
0000
0000
1100
0100
0010
0001
0000
0001
1100
0000
0011
0001
,
0100
0000
0000
0000
0000
0000
0000
0000
0000
0000
0000
0000
1000
0000
0000
0000
0000
0000
0000
0000
0000
0000
0000
0000
0101
0000
0000
0000
0000
0000
0000
0000
0000
0000
0000
0000
0010
0000
0000
0000
0000
0000
0000
0000
0000
0000
0000
0000
1001
0000
0000
0000
0000
0000
0000
0000
0000
0000
0000
0000
0000
0000
0000
0000
0000
0000
0000
0000
0010
0000
0000
0000
0000
0000
0000
0100
0000
0000
0000
0000
0000
0010
0000
0000
0000
0000
0000
0000
0000
0000
0000
0000
0100
0000
0000
0000
0000
0000
0000
0000
0000
0000
0000
0000
0000
0100
0000
0000
0000
0000
0000
0000
0000
0000
0000
0000
0000
0000
0000
0000
1000
0000
0000
0000
0000
0000
0000
0000
0000
0000
0000
0000
0101
0000
0000
0000
0000
0000
0000
0000
0000
0000
0000
0000
1100
0000
0000
0000
0000
0000
0000
0000
0000
0000
0000
0000
0001
0000
0000
0000
0000
0000
0000
0000
0000
0000
0000
0000
1000
0000
0000
0000
0000
0000
0000
0000
0000
0000
0000
0000
0100
0000
0000
0000
0000
0000
0000
0000
0000
0000
0000
0000
,
1010
0010
0100
0001
1110
0000
0000
0000
1011
0000
0000
0000
1101
0000
0000
0100
,
1110
0000
1000
0000
0100
0010
0100
0011
0001
1000
0100
0001
0010
0001
1000
0100
,
0011
0000
0000
0000
0000
0000
0000
0000
0000
0000
0000
0000
0010
0000
0000
0000
0000
0000
0000
0000
0000
0000
0000
0000
1000
0000
0000
0000
0000
0000
0000
0000
0000
0000
0000
0000
0000
0000
0000
0000
0000
0000
0000
0000
0000
0000
0000
0000
1000
0000
0000
0000
0000
0000
0000
0000
0000
0000
0000
0000
0000
0000
0000
0000
0000
0000
0000
0000
0000
0000
0000
0000
0101
0000
0000
0000
0000
0000
0000
0000
0000
0000
0000
0000
0100
0000
0000
0000
0000
0000
0000
0000
0000
0000
0000
0000
0001
0000
0000
0000
0000
0000
0000
0000
0000
0000
0000
0000
0010
0000
0000
0000
0000
0000
0000
0000
0000
0000
0000
0000
0100
0000
0000
0000
0000
0000
0000
0000
0000
0000
0000
0000
1000
0000
0000
0000
0000
0000
0000
0000
0000
0000
0000
0000
0100
0000
0000
0000
0000
0000
0010
0000
0000
0000
0000
0000
0000
0000
0000
0100
0000
0000
0000
0000
0000
0000
0000
0000
0001
0000
0000
0000
0000
0000
0010
0000
0000
0000
0000
0000
0000
0001
0000
0000
0000
0000
0000
0000
0000
0000
0000
0000
,
0101
1000
0010
0100
0011
0000
0101
0000
1010
1000
0100
0000
1100
0010
0101
0010
,
1000
0001
0100
0010
1101
0000
0000
0000
0100
0000
0000
0000
0001
0000
0000
1000
,
0000
0000
0000
0000
0000
0000
0010
0000
0000
0000
0000
0000
0000
0000
0000
0000
0000
0000
0001
0000
0000
0000
0000
0000
0000
0000
0000
0000
0100
0000
0000
0000
0000
0000
0000
0000
0000
0000
0000
0000
0000
0000
0000
0000
0000
0000
0000
0000
0000
0000
0000
0000
0000
0000
0000
0000
0000
0010
0000
0000
0000
0000
0000
0000
0000
0000
0000
0000
0000
0000
0000
0000
0000
0000
0000
0000
0000
0000
0000
0000
0000
0000
0000
0000
0000
0000
0000
0000
0000
0000
0000
0000
0000
0000
0000
0000
,
1000
0000
0000
0000
0000
0000
0000
0000
0000
0000
0000
0000
0000
0000
0000
0000
0000
0000
0000
0000
0000
0000
0000
0000
0000
0000
0000
0100
0000
0000
0000
0000
0000
0000
0000
0000
0000
0000
0000
0000
0000
0000
0000
0000
0000
0000
0000
0000
0010
0000
0000
0000
0000
0000
0000
0000
0000
0000
0000
0000
0000
0000
0000
0000
0000
0000
0000
0000
0000
0000
0000
0000
0000
0000
0000
0000
0000
0000
0000
0000
0000
0010
0000
0000
0000
0000
0000
0000
0000
0000
0000
0000
0000
0000
0000
0000
0000
0000
0000
0000
0000
0000
0000
0000
0000
0000
0000
0000
0000
0000
0000
0000
0000
0000
0000
0000
0000
0000
0000
0000
0000
0000
0000
0000
0000
0000
0000
0000
0000
0000
0001
0000
0000
0000
0000
0000
0000
0000
0000
0000
0000
0000
0000
0000
0000
0000
0000
0000
0000
0000
0000
0000
0000
0000
0000
0000
0000
0000
0000
0000
0000
0000
0000
0000
0000
0000
0000
0000
0000
0000
0000
0000
0000
0000
0000
0000
0000
0000
0000
0000
0000
0000
0000
0000
0000
0000
0010
0000
0000
0000
0000
0000
,
0000
0000
0000
0000
0000
0000
0000
0000
0000
0000
1000
0000
0000
0000
0000
0000
0000
0000
0000
0000
0000
0000
0000
0100
0000
0000
0000
0000
0000
0000
0000
0000
0000
0000
0000
0000
0000
0000
0000
0000
0000
0000
0000
0000
0000
0000
0000
0000
0000
1000
0000
0000
0000
0000
0000
0000
0000
0000
0000
0000
0000
0000
0000
0000
0000
0000
0000
0000
0000
0000
1000
0000
0000
0000
0000
0000
0000
0000
0000
0000
0000
0000
0000
0000
0000
0000
0000
0000
1000
0000
0000
0000
0000
0000
0000
0000
,
0000
0000
0000
0000
0000
0000
0000
0000
0010
0000
0000
0000
0000
0000
0000
0000
0000
0000
0000
0000
0000
0000
0000
0000
0000
0000
0000
0000
0000
0000
0000
0000
0000
0000
0000
0000
0000
0000
0000
0000
0000
0000
0000
0000
0000
0000
0000
0000
1000
0000
0000
0000
0000
0000
0000
0000
0000
0000
0000
0000
0101
0000
0000
0000
0000
0000
0010
0000
0000
0000
0000
0000
1100
0000
0000
0000
0000
0000
0000
0000
0000
0000
0000
0000
0110
0000
0000
0001
0000
0000
0010
0000
0000
0000
0000
0000
,
0101
1000
0010
1100
0010
0100
1010
0101
1011
0000
1100
0100
1001
0010
0101
0000
,
1100
0000
0011
0100
0000
0100
0011
0000
1000
0000
0110
0100
1001
0010
0101
0000
,
0110
0000
0000
0000
0011
0000
1100
0000
0000
0000
0100
0000
1001
0000
0000
0000
0011
0000
0000
0000
0100
0010
0100
0010
0100
0000
0010
0000
1000
0000
0101
0000
,
1110
0000
0000
0000
0000
0000
0000
0000
0000
0000
0000
0000
0100
0000
0000
0000
0000
0000
0000
0000
1000
0000
0100
0000
1011
0000
0000
0000
0000
0000
1000
0000
0000
0100
0000
0000
1010
0000
0000
0000
0000
0000
0101
0000
0000
0000
0000
0000
,
1010
0000
0011
0100
1001
0000
0110
0000
1010
0000
0000
0100
0011
0000
0011
0000
,
0011
0000
1001
0100
1010
0000
1100
0000
0011
0000
0101
0010
1100
0000
0011
0000
,
0010
0000
1010
0100
0011
0000
0101
0000
1000
0011
0110
0010
0001
0010
0101
1000
,
1100
0000
0000
0000
0000
0000
0000
0000
0010
0000
0000
0000
0000
0000
0000
0100
0000
0000
0000
0000
0000
0010
0000
0000
0000
0000
0000
0000
0100
0000
0000
0000
0000
0000
0000
0000
0011
0000
0000
0000
0000
0000
0000
0000
0000
0000
0000
0000
1001
0000
0000
0000
0000
0000
0000
0000
0000
0000
0000
0000
0100
0000
0000
0000
0000
0000
0000
0000
0000
0000
0000
0000
0101
0000
0000
0000
0000
0000
0000
0000
0000
0000
0000
0000
1010
0000
0000
0000
0000
0000
0000
0000
0000
0000
0000
0000
0111
0000
0000
0000
0000
0000
0000
0000
0000
0000
0000
0000
0000
0000
0000
0000
0000
0000
0000
0000
0000
0000
0000
0000
0111
0000
0000
0000
0000
0000
0000
0000
0000
0000
0000
0000
0000
0000
0000
0000
0000
0000
0000
0000
0000
0000
0000
0000
0101
0000
0000
0000
0000
0000
0000
0000
0000
0000
0000
0000
0001
0000
0000
0000
0000
0000
0000
0000
0000
0000
0000
0000
0000
0000
0000
0000
0000
0000
0000
0000
0000
0000
0000
0000
0011
0000
0000
0000
0000
0000
0000
0000
0000
0000
0000
0000
,
1110
0000
1110
0000
1000
0010
1000
0100
1011
0000
1011
0000
0100
0000
1100
0000
,
0011
0000
1010
1000
0101
1000
0110
0011
1101
0000
0000
1100
0011
0000
0110
0000
,
0101
0100
0000
1100
0011
0000
0110
0000
1010
0101
0000
0011
1100
0000
1010
0000
,
0110
0010
1100
0000
0011
0001
0101
0001
1101
0000
0000
0000
0000
0000
0000
0000
,
0000
0000
0000
0000
0000
0000
0000
0000
0000
0000
0000
0000
0000
0000
0000
1000
0100
0000
0011
0000
0000
0000
0100
0000
1011
0000
0000
0000
0000
0000
0000
0000
0000
0000
0000
0000
0001
0000
0000
0000
0000
0000
0000
0000
0000
0000
0000
0000
,
0111
0000
0000
0000
0000
0000
0000
0000
0000
0000
0000
0000
0000
0000
0000
0000
0000
0000
0000
0000
0000
0000
0000
0000
0111
0000
0000
0000
0000
0000
0000
0000
0000
0000
0000
0000
0000
0000
0000
0000
0000
0000
0000
0000
0000
0000
0000
0000
0001
0000
0000
0000
1000
0000
0000
0000
0000
0001
0000
0000
0000
0000
0000
1000
0000
0000
0000
0000
0000
0000
0000
0000
0011
0000
0000
0000
0000
0000
0000
0000
0000
0000
0000
0000
0001
0000
0000
0000
0000
0000
0000
0000
0000
0000
0000
0000
1100
0000
0000
0000
0000
0000
0000
0000
0000
0000
0000
0000
0000
0000
0000
0000
0000
0000
0000
0000
0000
0000
0000
0000
0101
0000
0000
0000
0000
0000
0000
0000
0000
0000
0000
0000
0100
0000
0000
0000
0000
0000
0000
0000
0000
0000
0000
0000
1010
0000
0000
0000
0000
0000
0000
0000
0000
0000
0000
0000
0100
0000
0000
0000
0000
0000
0000
0000
0000
0000
0000
0000
0011
0000
0000
0000
0000
0000
0000
0000
0000
0000
0000
0000
1000
0000
0000
0000
0000
0000
0000
0000
0000
0000
0000
0000
,
0010
0100
1010
0100
1000
0010
0101
0000
1100
0000
0011
0001
1000
0100
1001
0000
,
0011
0000
0110
0001
1100
0010
0101
0000
1000
0000
0110
0010
0101
1000
0110
0000
,
1010
0000
0101
0100
1001
0010
0101
0000
1000
0100
0011
0001
0110
0000
1001
0001
,
0101
0010
1100
0100
1001
0100
1010
0010
1101
0000
0110
1000
1010
0101
1010
0100
,
1001
0000
0000
0000
0010
0100
0011
0000
0001
0000
0000
0000
1110
0000
0000
0000
0110
0000
0010
0000
0010
0000
0100
0000
1000
0000
0101
0000
0001
0000
0010
0000
,
1101
0000
0000
0000
,
0000
0000
0000
0000
,
0000
0000
0000
0000
,
0000
0000
0000
0000
,
0000
0000
0000
0000
,
0000
0000
0000
0000
,
0000
0000
0000
0000
,
0000
0000
0000
0000
,
0000
0000
0000
0000
,
0000
0000
0000
0000
,
0000
0000
0000
0000
,
0000
0000
0000
0000
,
0000
0000
0000
0000
,
0000
0000
0000
0000
,
0000
0000
0000
0000
,
0000
0000
0000
0000
,
0000
0000
0000
0000
,
0000
0000
0000
0000
,
0000
0000
0000
0000
,
0000
0000
0000
0000
,
0000
0000
0000
0000
,
0000
0000
0000
0000
,
0000
0000
0000
0000
,
0000
0000
0000
0000
,
0000
0000
0000
0000
,
0000
0000
0000
0000
,
0000
0000
0000
0000
,
0000
0000
0000
0000
,
0000
0000
0000
0000
,
0000
0000
0000
0000
,
0000
0000
0000
0000
,
0000
0000
0000
0000
,
0000
0000
0000
0000
,
0000
0000
0000
0000
,
0000
0000
0000
0000
,
0000
0000
0000
0000
,
0000
0000
0000
0000
,
0000
0000
0000
0000
,
0000
0000
0000
0000
,
0000
0000
0000
0000
,
0000
0000
0000
0000
,
0000
0000
0000
0000
,
0000
0000
0000
0000
;
