#TITLE:Insane Cultists;
#SUBTITLE:Earthbound;
#ARTIST:Hirokazu Tanaka;
#TITLETRANSLIT:;
#SUBTITLETRANSLIT:;
#ARTISTTRANSLIT:;
#CREDIT:;
#BANNER:Insane Cultists.png;
#BACKGROUND:Insane Cultists-bg.png;
#LYRICSPATH:;
#CDTITLE:!yesssss-cdtitle.png;
#MUSIC:Insane Cultists.ogg;
#OFFSET:-0.315;
#SAMPLESTART:33.622;
#SAMPLELENGTH:12.000;
#SELECTABLE:YES;
#BPMS:0.000=127.000,41.000=254.000;
#STOPS:;
#BGCHANGES:;
// cache tags:
#FIRSTBEAT:0.000;
#LASTBEAT:205.000;
#SONGFILENAME:Songs/VGMP 2/Insane Cultists (Yesssss)/Insane Cultists.sm;
#HASMUSIC:1;
#HASBANNER:1;
#MUSICLENGTH:64.932;
// end cache tags

//---------------dance-single - ----------------
#NOTES:
     dance-single:
     :
     Hard:
     12:
     1.000,1.000,1.000,0.108,1.000,374.000,151.000,7.000,0.000,0.000:
1000
0000
1000
0001
0000
0010
0000
0000
0100
0010
0000
0010
,
0000
0000
0001
0001
0000
0110
1010
0001
1100
0011
0000
1001
,
0000
0000
0010
0010
0000
0100
0010
0001
1000
0101
0010
0101
,
1000
0010
0100
1001
0000
0001
0100
1000
0101
0010
1000
0010
,
0000
0000
0010
0010
0000
0010
0000
0000
0001
0010
0000
0010
,
0001
0000
0100
0010
0100
1001
0110
1000
0101
0010
0000
1001
,
0000
0000
0001
0100
0000
0010
0100
0000
1000
0010
0000
0010
,
0000
0001
0100
0011
1000
0010
0001
0100
0001
0100
0000
0100
,
0000
0000
0100
1010
0001
1000
0010
1000
0100
0010
0000
0010
,
1000
0100
0010
0001
0000
0001
1000
0100
1000
0010
0000
0010
,
0000
0000
0000
0001
0000
0010
1100
0000
0000
1000
0000
1000
,
0110
0000
0010
0001
0000
0100
0011
0000
0000
0010
0000
1000
,
0110
0000
0010
1100
0000
0010
0101
0000
0000
0101
0000
1000
,
0011
0000
0010
0001
0000
0100
1001
0000
0000
1010
0000
1000
,
0110
0000
0010
1000
0000
0100
0011
0000
0000
0010
0000
0001
,
1010
0000
0010
0001
0000
1000
0101
0000
0000
0010
0000
1000
,
0110
0000
0001
0010
0000
0100
1001
0000
0000
0110
0000
1000
,
0011
0000
0010
1000
0000
0100
0011
0000
0000
0011
0000
0100
,
1010
0000
0010
0001
0000
1100
0011
0000
0000
0100
0000
1000
,
0110
0000
0010
0001
0000
0100
1001
0000
0000
0001
0000
1000
,
0110
0000
0010
1000
0000
0100
0011
0000
0000
0011
0000
0100
,
1010
0000
0010
0001
0000
0100
1001
0000
0000
1001
0000
1000
,
0110
0000
0010
0001
0000
0100
1001
0000
0000
0010
0000
1000
,
0110
0000
0010
0001
0000
0100
1001
0000
0000
0100
0000
1000
,
0011
0000
0010
0100
0000
0100
1001
0000
0000
0110
0000
1000
,
0011
0000
0010
0100
0000
0100
1001
0000
0000
0011
0000
1000
,
0110
0000
0000
0000
0010
0000
0200
0300
0002
0003
0200
0300
1010
0000
0000
0000
0110
0000
1001
0000
0000
0000
0000
0000
,
0010
0000
1000
0011
0000
0010
0100
0000
1100
0011
0000
0000
,
0100
0000
1000
0011
0000
0010
0001
0000
0110
1001
0000
0000
,
0110
0000
1000
0011
0000
0010
1000
0000
1100
0011
0000
0000
,
0110
0000
1000
0011
0000
0010
0001
0000
0110
1001
0000
0000
,
0010
0000
1000
0110
0000
0010
0001
0000
1100
0011
0000
0000
,
0100
0000
1000
0110
0000
0010
0001
0000
0101
1010
0000
0000
,
0011
0000
1000
0110
0000
0010
1000
0000
0100
0011
0000
0000
,
0110
0000
1100
0011
0000
0010
0001
0000
0110
1001
0000
0000
,
0010
0000
1000
0110
0000
0010
0001
0000
1100
0011
0000
0000
,
0100
0000
1000
0011
0000
0010
0001
0000
0110
1001
0000
0000
,
0011
0000
1000
0110
0000
0010
0100
0000
0101
1010
0000
0000
,
0110
0000
1000
0011
0000
0010
0001
0000
0110
1001
0000
0000
,
0001
0000
1000
0110
0000
0010
0001
0000
0011
1100
0000
0000
,
0100
0000
1000
0011
0000
0010
0001
0000
1100
0011
0000
0000
,
0011
0000
1000
0110
0000
0010
1000
0000
0010
0101
0000
0000
,
0011
0000
1100
0011
0000
0010
1000
0000
0110
1001
0000
0000
,
1000
0000
0110
1001
0000
0010
0100
0000
0110
1001
0000
0000
,
0100
0000
0110
1001
0000
0010
0100
0000
0110
1001
0000
0000
,
0110
0000
0110
1001
0000
0100
0020
0030
0110
1001
0000
0000
,
0120
0030
0110
1001
0000
0100
0010
0000
0110
1001
0000
0000
,
0010
0000
1010
0101
0000
1000
0010
0000
0110
1001
0000
0000
,
0010
0000
1010
0101
0000
1000
0010
0000
0110
1001
0000
0000
,
0110
0000
1010
0101
0000
1000
0002
0003
0110
1001
0000
0000
,
0102
0003
1010
0101
0000
0011
1000
0000
0000
0000
0010
0000
,
0000
0000
0100
1000
0000
0000
0000
0000
0000
0000
0000
0000
;

//---------------dance-solo - Copied from----------------
#NOTES:
     dance-solo:
     Copied from:
     Hard:
     12:
     1.000,1.000,1.000,0.108,1.000,374.000,151.000,7.000,0.000,0.000:
100000
000000
100000
000100
000000
001000
000000
000000
010000
001000
000000
001000
,
000000
000000
000100
000100
000000
011000
101000
000100
110000
001100
000000
100100
,
000000
000000
001000
001000
000000
010000
001000
000100
100000
010100
001000
010100
,
100000
001000
010000
100100
000000
000100
010000
100000
010100
001000
100000
001000
,
000000
000000
001000
001000
000000
001000
000000
000000
000100
001000
000000
001000
,
000100
000000
010000
001000
010000
100100
011000
100000
010100
001000
000000
100100
,
000000
000000
000100
010000
000000
001000
010000
000000
100000
001000
000000
001000
,
000000
000100
010000
001100
100000
001000
000100
010000
000100
010000
000000
010000
,
000000
000000
010000
101000
000100
100000
001000
100000
010000
001000
000000
001000
,
100000
010000
001000
000100
000000
000100
100000
010000
100000
001000
000000
001000
,
000000
000000
000000
000100
000000
001000
110000
000000
000000
100000
000000
100000
,
011000
000000
001000
000100
000000
010000
001100
000000
000000
001000
000000
100000
,
011000
000000
001000
110000
000000
001000
010100
000000
000000
010100
000000
100000
,
001100
000000
001000
000100
000000
010000
100100
000000
000000
101000
000000
100000
,
011000
000000
001000
100000
000000
010000
001100
000000
000000
001000
000000
000100
,
101000
000000
001000
000100
000000
100000
010100
000000
000000
001000
000000
100000
,
011000
000000
000100
001000
000000
010000
100100
000000
000000
011000
000000
100000
,
001100
000000
001000
100000
000000
010000
001100
000000
000000
001100
000000
010000
,
101000
000000
001000
000100
000000
110000
001100
000000
000000
010000
000000
100000
,
011000
000000
001000
000100
000000
010000
100100
000000
000000
000100
000000
100000
,
011000
000000
001000
100000
000000
010000
001100
000000
000000
001100
000000
010000
,
101000
000000
001000
000100
000000
010000
100100
000000
000000
100100
000000
100000
,
011000
000000
001000
000100
000000
010000
100100
000000
000000
001000
000000
100000
,
011000
000000
001000
000100
000000
010000
100100
000000
000000
010000
000000
100000
,
001100
000000
001000
010000
000000
010000
100100
000000
000000
011000
000000
100000
,
001100
000000
001000
010000
000000
010000
100100
000000
000000
001100
000000
100000
,
011000
000000
000000
000000
001000
000000
020000
030000
000200
000300
020000
030000
101000
000000
000000
000000
011000
000000
100100
000000
000000
000000
000000
000000
,
001000
000000
100000
001100
000000
001000
010000
000000
110000
001100
000000
000000
,
010000
000000
100000
001100
000000
001000
000100
000000
011000
100100
000000
000000
,
011000
000000
100000
001100
000000
001000
100000
000000
110000
001100
000000
000000
,
011000
000000
100000
001100
000000
001000
000100
000000
011000
100100
000000
000000
,
001000
000000
100000
011000
000000
001000
000100
000000
110000
001100
000000
000000
,
010000
000000
100000
011000
000000
001000
000100
000000
010100
101000
000000
000000
,
001100
000000
100000
011000
000000
001000
100000
000000
010000
001100
000000
000000
,
011000
000000
110000
001100
000000
001000
000100
000000
011000
100100
000000
000000
,
001000
000000
100000
011000
000000
001000
000100
000000
110000
001100
000000
000000
,
010000
000000
100000
001100
000000
001000
000100
000000
011000
100100
000000
000000
,
001100
000000
100000
011000
000000
001000
010000
000000
010100
101000
000000
000000
,
011000
000000
100000
001100
000000
001000
000100
000000
011000
100100
000000
000000
,
000100
000000
100000
011000
000000
001000
000100
000000
001100
110000
000000
000000
,
010000
000000
100000
001100
000000
001000
000100
000000
110000
001100
000000
000000
,
001100
000000
100000
011000
000000
001000
100000
000000
001000
010100
000000
000000
,
001100
000000
110000
001100
000000
001000
100000
000000
011000
100100
000000
000000
,
100000
000000
011000
100100
000000
001000
010000
000000
011000
100100
000000
000000
,
010000
000000
011000
100100
000000
001000
010000
000000
011000
100100
000000
000000
,
011000
000000
011000
100100
000000
010000
002000
003000
011000
100100
000000
000000
,
012000
003000
011000
100100
000000
010000
001000
000000
011000
100100
000000
000000
,
001000
000000
101000
010100
000000
100000
001000
000000
011000
100100
000000
000000
,
001000
000000
101000
010100
000000
100000
001000
000000
011000
100100
000000
000000
,
011000
000000
101000
010100
000000
100000
000200
000300
011000
100100
000000
000000
,
010200
000300
101000
010100
000000
001100
100000
000000
000000
000000
001000
000000
,
000000
000000
010000
100000
000000
000000
000000
000000
000000
000000
000000
000000
;

//---------------dance-single - Copied from Copied f----------------
#NOTES:
     dance-single:
     Copied from Copied f:
     Edit:
     15:
     1.000,1.000,1.000,0.108,1.000,394.000,246.000,7.000,0.000,115.000:
1000
0000
1000
0001
0000
0010
0000
0000
0100
0010
0000
0010
,
0000
0000
0001
0001
0000
0110
1010
0001
1100
0011
0000
1001
,
0000
0000
0010
0010
0000
0100
0010
0001
1000
0101
0010
0101
,
1000
0010
0100
1001
0000
0001
0100
1000
0101
0010
1000
0010
,
0000
0000
0010
0010
0000
0010
0000
0000
0001
0010
0000
0010
,
0001
0000
0100
0010
0100
1001
0110
1000
0101
0010
0000
1001
,
0000
0000
0001
0100
0000
0010
0100
0000
1000
0010
0000
0010
,
0000
0001
0100
0011
1000
0010
0001
0100
0001
0100
0000
0100
,
0000
0000
0100
1010
0001
1000
0010
1000
0100
0010
0000
0010
,
1000
0100
0010
0001
0000
0001
1000
0100
1000
0010
0000
0010
,
0000
0000
0000
0001
0000
0010
1100
0000
0000
1000
0000
1000
,
0110
0000
0010
0001
0000
0100
0011
0000
0000
0010
0000
1000
,
0110
0000
0010
1100
0000
0010
0101
0000
0000
0101
0000
1000
,
0011
0000
0010
0001
0000
0100
1001
0000
0000
1010
0000
1000
,
0110
0000
0010
1000
0000
0100
0011
0000
0000
0010
0000
0001
,
1010
0000
0010
0001
0000
1000
0101
0000
0000
0010
0000
1000
,
0110
0000
0001
0010
0000
0100
1001
0000
0000
0110
0000
1000
,
0011
0000
0010
1000
0000
0100
0011
0000
0000
0011
0000
0100
,
1010
0000
0010
0101
0000
1110
1011
0000
0000
0101
0000
1001
,
0111
0000
0010
0101
0000
0110
1101
0000
1000
0011
0000
1100
,
0111
0000
0011
1100
0000
1100
0111
0000
0000
1011
0000
0110
,
1011
0000
0010
0101
0000
0110
1101
0000
0010
1101
0000
1100
,
0111
0000
0110
1001
0000
1100
1011
0000
0000
0110
0000
1010
,
0111
0000
0010
0101
0000
1100
1101
0000
0001
0110
0000
1100
,
1011
0000
1010
0101
0000
0110
1011
0000
0000
0111
0000
1001
,
0111
0000
0010
1100
0000
0110
1011
0000
0100
1011
0000
1001
,
1110
0000
0000
0000
0110
0000
0002
0003
0002
0003
0002
0003
1110
0000
0000
0000
0111
0000
1101
0000
0000
0000
0000
0000
,
0011
0000
1010
0111
0000
0010
0101
0000
1110
0111
0000
0001
,
0110
0000
1010
0111
0000
0110
1001
0000
1110
1011
0000
0000
,
1110
0000
1010
0111
0000
0010
1001
0000
1110
1011
0000
0001
,
1110
0000
1100
0111
0000
1010
0101
0000
0111
1101
0000
0000
,
0011
0000
1001
1110
0000
0010
1001
0000
1110
0111
0000
0001
,
0110
0000
1001
0111
0000
0110
1001
0000
0111
1011
0000
0000
,
0111
0000
1010
0111
0000
0010
1001
0000
0110
1011
0000
0001
,
0111
0000
1110
1011
0000
1010
0101
0000
0111
1011
0000
0000
,
0011
0000
1100
0111
0000
0010
1001
0000
1110
0111
0000
0001
,
0110
0000
1100
1011
0000
0011
1100
0000
0111
1011
0000
0000
,
0111
0000
1001
0111
0000
0010
1100
0000
0111
1110
0000
0001
,
1110
0000
1100
1011
0000
1010
0101
0000
0111
1011
0000
0000
,
0011
0000
1100
0111
0000
0010
1001
0000
0111
1101
0000
0001
,
1100
0000
1010
0111
0000
1010
0101
0000
1110
1101
0000
0000
,
0111
0000
1001
0111
0000
0010
1001
0000
0110
1101
0000
0100
,
1011
0000
1101
1011
0000
0011
1100
0000
1110
1011
0000
0000
,
1001
0000
0111
1101
0000
0010
0101
0000
0111
1101
0000
0001
,
0110
0000
0111
1101
0000
0011
1100
0000
0111
1101
0000
0000
,
0111
0000
0111
1101
0000
0101
1020
0030
0111
1101
0000
0001
,
1120
0030
0111
1101
0000
0101
1010
0000
1110
1011
0000
0000
,
0110
0000
1110
0111
0000
1000
0011
0000
1110
1011
0000
0001
,
0110
0000
1110
0111
0000
1001
0110
0000
1110
1011
0000
0000
,
0111
0000
1110
0111
0000
1000
0012
0003
1110
1101
0000
0010
,
1102
0003
1110
1101
0000
0111
1100
0000
0010
0001
0100
0000
,
0010
0001
0100
1000
0000
0000
0000
0000
0000
0000
0000
0000
;
