#TITLE:Sakura Taisen;
#SUBTITLE:- Geki! Teikoku Kageki-Dan [Para Para Mix];
#ARTIST:石田燿子;
#TITLETRANSLIT:;
#SUBTITLETRANSLIT:;
#ARTISTTRANSLIT:Yoko Ishida;
#CREDIT:;
#BANNER:SakuraWarslogo.png;
#BACKGROUND:SakuraWarsBG.png;
#LYRICSPATH:;
#CDTITLE:;
#MUSIC:SakuraWarsRemix.mp3;
#OFFSET:0.160;
#SAMPLESTART:38.486;
#SAMPLELENGTH:12.000;
#SELECTABLE:YES;
#BPMS:0.000=154.000;
#STOPS:;
#BGCHANGES:11.000=SakuraWars.avi=1.000=0=0=1,
236.500=SakuraWarsBG.png=1.000=0=0=1,
99999=-nosongbg-=1.000=0=0=0 // don't automatically add -songbackground-
;
// cache tags:
#FIRSTBEAT:6.000;
#LASTBEAT:236.500;
#SONGFILENAME:Songs/Anime Songs/SakuraWarsRemix/SakuraWars.sm;
#HASMUSIC:1;
#HASBANNER:1;
#MUSICLENGTH:95.245;
// end cache tags

//---------------dance-single - BASIC----------------
#NOTES:
     dance-single:
     BASIC:
     Easy:
     4:
     0.318,0.341,0.210,0.199,0.000,173.000,20.000,19.000,0.000,0.000:

0000
0000
0000
0000
,
0000
0000
0000
0000
0000
1100
0000
0000
,
0011
0000
0000
1100
0000
0000
1001
0000
,
0100
0100
0001
0100
,
0100
1000
0001
1000
,
0100
0001
0100
1000
,
0001
0010
1000
0011
,
0001
0010
0100
1000
,
0100
0010
1000
0110
,
0001
1000
0010
0010
,
0100
0100
0010
0220
,
0000
0000
0000
0000
,
0330
0001
1000
1001
,
0010
0200
0300
0001
,
1000
0020
0030
0100
,
1000
0001
1000
2002
,
0000
3003
0000
0110
,
0100
1000
0010
1000
,
1000
0200
0300
0010
,
0100
0100
1001
2002
,
0000
0000
0000
3003
0000
0000
0100
0000
,
0100
0100
0100
0010
,
0010
0010
0010
1000
,
1000
1000
1000
0001
,
1000
0001
0000
1001
,
0100
0100
0100
0010
,
0010
1001
0000
1000
,
0010
0100
0002
2000
,
0000
3003
0000
0000
,
0000
0010
1000
0200
,
0300
0010
0001
0200
,
0300
0010
0001
1000
,
0000
0010
0100
0001
,
0000
0100
0100
1100
,
0000
0100
0100
0101
,
0000
0000
0000
0010
,
0010
0010
0010
0010
,
0100
0100
0100
0200
,
0300
0001
1000
1000
,
0000
0001
0001
0001
,
0000
1000
0100
0001
,
0000
1000
1000
1000
,
0000
0010
0010
0002
,
0003
0000
0000
0000
,
0000
0100
0100
0010
,
0000
0100
0010
0020
,
0000
0030
0000
0002
,
0000
0000
0000
0003
0000
0000
2200
0000
,
0000
0000
3300
0000
,
0000
0000
0000
0010
,
0010
0001
0001
1000
,
1000
0100
0100
0010
,
0010
0100
0100
1000
,
1000
0001
0001
1000
,
1000
0100
0100
0010
,
0010
0001
0001
1000
,
1000
0001
0001
1000
,
1000
0001
0001
0000
,
0000
0000
0000
0011
0000
0000
1100
0000
,
0000
1001
0000
0000
0000
0000
0000
0000;

//---------------dance-single - ANOTHER----------------
#NOTES:
     dance-single:
     ANOTHER:
     Medium:
     6:
     0.436,0.466,0.525,0.325,0.010,210.000,50.000,31.000,0.000,0.000:

0000
0000
0000
0000
,
0000
0000
0000
0000
1000
1000
0000
0001
,
0001
0000
1000
1000
0000
0000
1001
0000
,
0010
0100
1001
0100
,
0010
1001
0001
1000
,
1010
0000
0101
0000
0010
0001
1000
0000
,
0010
1000
0001
0000
1000
0100
1000
0000
,
0001
0010
1001
0010
,
0110
1000
1000
0001
,
0001
1010
0011
1100
,
0101
0000
0000
0000
1001
0000
0000
0000
0000
0000
0000
0000
0020
0030
0000
0200
,
0300
0000
0020
0030
0000
0200
0300
0000
0001
0000
0002
0000
0000
0000
0000
0000
,
0003
0000
0000
0000
0001
1000
1001
0000
,
0110
1001
0000
0001
,
0110
1001
0000
0010
,
0100
0000
1000
0000
0100
0010
2002
0000
,
0000
3003
0000
0110
,
0001
0010
1000
0000
0010
0100
2000
0000
,
0000
0000
0200
3000
0300
0000
0011
0000
,
0110
1100
1001
2002
,
0000
0000
0000
3003
0000
0000
0200
0000
,
0001
1300
0200
0001
,
1300
0200
0001
1300
,
0200
0001
1300
1001
,
1001
0000
1001
0000
0010
0100
0010
0000
,
1020
0100
1000
0100
,
1000
0130
0110
1000
,
0100
0000
0001
0000
0200
0300
0020
0000
,
0000
0030
0000
0000
0000
0000
0000
0000
,
0000
1100
0001
0220
,
0330
0000
0001
0000
0100
1000
2000
0000
,
3000
0100
1000
0010
,
0000
0000
1000
0000
0100
0010
0001
0000
,
0000
1010
0011
0100
,
0000
0000
0001
0000
0100
1000
0200
0000
,
0300
0000
0010
1001
,
0100
0000
1100
0000
0010
0010
1000
0000
,
0010
0010
0001
0000
0100
0000
0020
0000
,
0030
0000
0001
0000
0100
0010
1000
0000
,
0000
0010
0110
1001
,
0000
0000
0010
0000
0010
1000
0100
0000
,
0000
1010
0011
0100
,
0000
0000
0010
0000
0001
1000
0020
0000
,
0030
0000
0000
0000
1000
0001
1000
0000
,
0000
0000
0100
0000
0001
1000
0001
0000
,
0010
0100
0010
0022
,
0000
0033
0020
0032
,
0003
2000
0000
3000
0200
0000
0020
0000
,
0000
0000
0330
0000
,
0000
0000
0000
0000
0000
0010
1001
0000
,
0100
1001
0010
1001
,
0100
1001
0010
1001
,
0010
0110
0100
0110
,
0010
0000
0110
0000
0100
0010
0110
0000
,
0001
0010
1000
0100
,
0010
0001
1000
0101
,
0100
0001
1000
0010
,
0100
0001
1000
0000
,
0000
0000
0100
0100
0000
0010
0010
0000
,
0100
0100
0000
0000
0000
0000
0000
0000;

//---------------dance-single - MANIAC----------------
#NOTES:
     dance-single:
     MANIAC:
     Hard:
     8:
     0.525,0.528,0.462,0.304,0.147,277.000,44.000,29.000,0.000,0.000:

0000
0000
0000
0000
,
0000
0000
0000
0000
1000
1000
0000
0010
,
0010
0000
0001
0001
0000
0000
1001
0000
,
0100
0010
0100
0000
1001
0000
1000
0100
,
0001
0000
1001
0000
0001
0100
1000
0000
,
1100
0000
0101
0000
0110
0000
1000
0100
,
0010
0100
0010
0001
1000
0100
0010
0000
,
0101
0010
0101
0010
,
1100
0100
1100
0110
,
1001
1100
0011
1010
,
0101
0000
0000
0000
1001
0000
0000
0000
0000
0000
0000
0000
0002
0003
0000
0200
,
0300
0000
0020
0030
0000
2000
3000
0000
0100
0000
0200
0000
0000
0000
0000
0000
,
0300
0000
0000
0000
0001
0100
0001
0000
1000
0000
1000
0000
0001
0000
0000
0000
,
0010
0010
2000
3000
0000
0000
0001
0100
,
0100
0010
0020
0030
0000
0000
0100
0010
,
0100
0001
1000
0100
1001
0100
2002
0000
,
0000
0000
3003
0000
0100
0100
0100
0010
,
0100
0001
1000
0100
0010
0010
2000
0000
,
0000
0000
0000
0000
0200
0000
3000
0000
0300
0000
0001
0100
0010
0000
0001
0000
,
0100
1000
0100
0010
1001
0000
2002
0000
,
0000
0000
0000
0000
0000
0000
3003
0000
0000
0000
0000
0001
0100
0000
0000
0001
,
0100
0000
0000
0001
0100
0000
0000
1000
0100
0000
0000
1000
0100
0000
0000
0001
,
0100
0000
0000
0001
0100
0000
0000
1000
0100
0000
0000
1000
0100
0000
0000
0010
,
0100
0000
0000
0010
0100
0000
0000
0010
0100
0000
0000
1000
0001
0000
0000
1000
,
0001
0000
0000
1000
0001
0000
0000
0000
0010
0000
0010
0000
0010
0000
0000
1000
,
0100
0000
0000
0001
0100
0000
0000
1000
0100
0000
0000
0001
0100
0000
0000
1000
,
0100
0000
0000
0001
0100
0000
0000
0000
0110
0000
0000
0000
1000
0000
0100
0000
,
0100
0010
0001
0100
0002
0000
2000
0000
,
0000
0000
0000
0000
3003
0000
0000
0000
0000
0000
0000
0000
0001
1000
0001
0000
,
0100
0000
0001
0100
0010
0000
0000
0000
0100
0000
0000
0000
0200
0000
0000
0000
,
0300
0000
0001
0000
0100
1000
0020
0000
,
0030
0010
0001
0100
,
0000
0100
0010
0100
0100
0001
0001
0000
,
0000
1100
0010
0101
,
0000
0000
0100
0000
0100
0010
0200
0000
,
0300
0000
0000
0000
1000
0001
1001
0000
,
0010
0000
1001
0010
0100
0010
1001
0010
,
0100
0010
0100
0000
0100
0000
0200
0000
,
0300
0000
0001
0000
0100
0010
0010
0000
,
0000
0011
0110
1100
,
0000
0001
0010
0100
0010
1000
0100
0000
,
0000
1010
0110
0101
,
0000
0000
0010
0000
0001
0010
0200
0000
,
0300
0000
0000
0000
1000
1000
1000
0000
,
0000
0010
0100
0010
0001
1000
0001
0000
,
0010
0100
0010
2002
,
0000
3003
0020
0032
,
0003
0200
2000
3300
0200
0000
0020
0000
,
0000
0000
0330
0000
,
0000
0000
0000
0000
0001
0100
0001
0000
1000
0000
0001
0000
1001
0000
0000
0000
,
0010
1001
0100
1001
,
0100
1100
0100
0101
,
0010
0110
0100
0110
,
1000
0000
0101
0000
0001
0010
1100
0000
,
0010
0010
0100
0100
,
0010
0001
1000
1001
,
0100
0010
1000
0100
,
0010
0001
0010
0020
,
0030
0000
0001
0001
0000
1000
1000
0000
,
0100
0100
0000
0000
0000
0000
0000
0000;

//---------------dance-single - Challenge----------------
#NOTES:
     dance-single:
     Challenge:
     Challenge:
     9:
     0.601,0.559,0.357,0.220,0.346,346.000,34.000,21.000,0.000,0.000:

0000
0000
0000
0000
,
0000
0000
0000
0000
0000
0000
0000
0000
1000
0010
1000
0000
0000
0000
0010
0001
,
0010
0000
0000
0000
0001
1000
0001
0000
0000
0000
0000
0000
1000
0000
0010
0000
,
0100
0010
0100
0001
1000
0001
1000
0100
,
0001
0100
1000
0010
0001
0100
1000
0100
,
0010
0001
0100
0010
0100
0001
1000
0100
,
0010
0100
0010
0001
1000
0100
0011
0010
,
0100
1000
0001
0010
0100
1000
0010
0100
,
0001
0100
0010
1000
0100
0010
1001
1000
,
0001
1000
1000
0001
0001
1000
0001
1000
,
0001
0000
0001
0000
1000
0000
0001
0000
1000
0001
1000
0000
0020
0000
0000
0200
,
0030
0000
0002
0300
0000
2000
0003
0000
0100
0000
3200
0000
0000
0000
0000
0000
,
0300
0000
0000
0000
0001
0100
0010
0000
0010
0000
1000
0000
0101
0000
0000
0000
,
0010
0010
0011
0000
0000
0000
0001
0100
,
0001
0010
1100
0000
0000
0000
0001
0010
,
0100
0001
1000
0010
1001
0100
2002
0000
,
0000
0000
3003
0000
0100
0001
0100
0010
,
0100
0001
1000
0100
0010
0001
0020
0000
,
0000
0000
0000
0000
0200
0000
0000
0000
0330
0000
0001
0100
0010
0000
0001
0000
,
0010
1000
0010
0100
1001
1001
2002
0000
,
0000
0000
0000
0000
0000
0000
3003
0000
0000
0000
0000
0001
0100
0000
0000
0100
,
0001
0000
0000
0010
0001
0000
0000
1000
0100
0000
0000
0100
1000
0000
0000
0010
,
0100
0000
0000
0100
0010
0000
0000
1000
0100
0000
0000
0001
0100
0000
0000
0010
,
0100
0000
0000
0100
0010
0000
0000
0010
0100
0000
0000
0001
0010
0000
0000
1000
,
0010
0000
0000
0001
0010
0000
0000
1000
0100
0000
0000
0010
0001
0000
0000
0010
,
0100
0000
0000
0001
0100
0000
0000
1000
0100
0000
0000
0010
0100
0000
0000
0100
,
1000
0000
0000
0100
0001
0000
0001
0000
0110
0000
0000
0000
1000
0000
0100
0000
,
0010
0001
1000
0100
0002
0000
2000
0000
,
0000
0000
0000
0000
3003
0000
0000
0000
0000
0000
0000
0000
0001
1000
0001
0000
,
0010
0000
1000
0100
0010
0000
0010
0000
0001
0000
0000
0000
0110
0000
0000
0000
,
0000
0000
0010
0000
1000
1000
0011
0000
,
0000
0000
1000
0001
1000
0000
0110
0000
,
0000
0010
0010
1000
0100
0001
1000
0000
,
0000
0110
1001
0110
,
0000
0000
0100
0010
0100
0010
0101
0000
,
0000
0000
0000
0000
1000
0001
1100
0000
,
0000
0001
1000
0010
0100
0010
1001
0100
,
0100
0100
0100
0100
0100
0000
1100
0000
,
0000
0000
0001
0000
0100
0100
1001
0000
,
0000
0110
0110
1001
,
0000
0001
0001
1000
1000
0100
0100
0000
,
0000
1001
0110
1001
,
0000
0000
0010
0000
0001
0010
1100
0000
,
0000
0000
0000
0000
1000
0001
1000
0000
,
0000
0010
0100
0010
0001
0010
1000
0000
,
0000
0100
0010
2002
,
0000
3003
0020
0032
,
0003
2000
0200
3300
0002
0000
0020
0000
,
0000
0000
0033
0000
,
0000
0000
0000
0000
0001
0100
0001
0000
1000
0000
0001
0000
1001
0000
1000
0010
,
0000
0000
1000
0010
0000
0000
0001
0100
0000
0000
0001
0100
0000
0000
0010
0100
,
0000
0000
0100
0010
0000
0000
1000
0100
0000
0000
0001
0010
0000
0000
0010
0100
,
0000
0000
1000
0100
0000
0000
0010
0001
0000
0000
0001
0010
0000
0000
0100
1000
,
0000
0000
0100
0010
0000
0000
0001
0010
0000
0000
0010
0100
0000
0000
0010
0001
,
0000
0000
1000
0100
0000
0000
0001
0010
0000
0000
1000
0100
0000
0000
0100
0010
,
0000
0000
0100
0010
0000
0000
0100
0010
0000
0000
1000
0100
0000
0000
0001
0010
,
0000
0000
1000
0100
0000
0000
0001
0010
0000
0000
1000
0100
0000
0000
0001
0100
,
0000
0000
1000
0100
0000
0000
0001
0100
0000
0000
0000
0000
0010
0100
0010
0000
,
0010
0000
0001
0101
0000
1000
1100
0000
,
0100
0101
0000
0000
0000
0000
0000
0000;
