#TITLE:Revontulet;
#SUBTITLE:(redux);
#ARTIST:Sonata Arctica;
#TITLETRANSLIT:;
#SUBTITLETRANSLIT:;
#ARTISTTRANSLIT:;
#CREDIT:;
#BANNER:revontulet.png;
#BACKGROUND:revontulet-bg.png;
#LYRICSPATH:;
#CDTITLE:!SneakyTitle.png;
#MUSIC:Revontulet (redux).mp3;
#OFFSET:-0.124;
#SAMPLESTART:30.060;
#SAMPLELENGTH:12.500;
#SELECTABLE:YES;
#BPMS:0.000=268.160;
#STOPS:;
#BGCHANGES:;
// cache tags:
#FIRSTBEAT:10.667;
#LASTBEAT:386.500;
#SONGFILENAME:Songs/toune 4/Revontulet (REDUX)/revontulet (redux).sm;
#HASMUSIC:1;
#HASBANNER:1;
#MUSICLENGTH:92.324;
// end cache tags

//---------------dance-single - ----------------
#NOTES:
     dance-single:
     :
     Hard:
     10:
     1.000,1.000,1.000,0.747,0.953,577.000,137.000,69.000,0.000,6.000:
0000
0000
0000
0000
,
0000
0000
0000
0000
,
0000
0000
0000
0000
0000
0000
0000
0000
0100
0000
0000
0000
,
1001
0000
0000
0000
,
0000
0000
0000
0000
,
0000
0000
0000
0000
0000
0000
0000
0000
0000
0000
0000
0000
0000
0000
0000
0000
0000
0001
0000
0000
0000
0000
0000
0000
,
0000
1001
0000
0000
0000
0000
0000
0000
0000
0000
0000
0000
,
0000
0000
0000
0000
,
0000
0000
0000
0001
,
0000
1001
0000
0000
0000
0000
0000
0000
0000
0000
0000
0000
,
0000
0000
0000
0000
0000
1000
0000
0000
,
1000
0000
0000
0000
0000
0000
0000
0000
0000
1000
0000
0000
0000
0000
0000
0000
0100
0000
2002
0000
0000
0000
0000
0000
,
0000
3003
1000
0100
0010
0001
0000
0000
1000
0100
0010
0001
0000
0000
1000
0100
,
0010
0001
0000
0000
0000
0000
0000
0000
0000
0000
0001
0010
0100
1000
0000
0000
,
0001
0010
0100
1000
0000
0000
0100
1000
0001
0010
0000
0000
2002
0000
0000
0000
,
0000
3003
0010
0001
1000
0100
0000
0000
0100
0001
1000
0010
0000
0000
1000
0010
,
0100
0002
0000
0000
0000
0000
0000
0000
0000
0003
0001
0010
0100
1000
0000
0000
,
1000
0100
0010
0001
0000
0000
0010
0100
0010
0100
0000
0000
2002
0000
0000
0000
,
0000
0000
3003
1000
0001
0010
0100
0000
0000
0001
1000
0100
0001
0000
0000
0001
,
0010
0100
0020
0000
0000
0000
0000
0000
0000
0000
0030
1000
0100
0001
0010
0000
,
0000
0001
0100
1000
0010
0000
0000
0001
0100
1000
0010
0000
0000
2002
0000
0000
,
0000
0000
3003
0001
0010
1000
0001
0000
0000
0001
0100
1000
0001
0000
0000
0001
,
0010
1000
0100
0000
0000
0000
0000
0000
0000
0000
0000
1000
0100
1000
0100
0000
,
0000
0001
0100
0001
0100
0000
0000
1000
0100
1000
0100
0000
0000
0000
2002
0000
,
0000
0000
0000
3003
1000
0000
0100
0000
0010
0000
0001
0000
1000
0000
0100
0000
,
0010
0001
0010
0100
0010
0100
2002
0000
,
3003
0000
0101
1000
0010
1000
0101
0010
,
0001
1000
0010
1000
0001
0010
0101
1000
,
0100
0010
1001
0000
0101
0000
1001
0000
,
1001
0000
0000
0001
0010
0100
1000
0100
0010
1001
0000
0000
,
1000
0000
0001
0010
0100
1000
0101
0010
,
0100
0010
1000
0100
0010
0001
1010
0100
,
0010
0100
1001
0000
1010
0000
1100
0000
,
1100
0000
0000
1001
0100
1000
0100
1000
0100
0010
0001
0000
,
1001
0100
0010
0001
1010
0001
0010
0100
,
1000
0100
0010
0001
1010
0100
1000
0100
,
0011
1001
0110
1001
,
0001
0010
0001
0010
0001
0010
1100
0000
0000
1001
0000
0000
,
0110
1000
0100
0010
0101
1000
0010
1000
,
0010
1000
0010
1000
0110
1000
0010
0100
,
1010
1010
1001
0101
,
1010
0100
0010
0001
0010
0100
1010
0000
0000
0101
0000
0000
,
0000
1100
0000
0000
0110
0000
0000
0011
,
0000
0202
0000
1313
,
0000
0011
0000
0000
0110
0000
1100
0000
,
2002
0000
0000
0000
0000
0000
0000
0000
0000
0000
3003
0000
0101
0000
0000
0000
0000
0000
0000
0000
0000
0110
0000
0000
,
0000
0000
0101
0000
0000
1001
0000
0000
,
0220
0000
0000
0000
0000
0000
0000
0000
0000
0000
0330
0000
2002
0000
0000
0000
0000
0000
0000
0000
3003
0022
0000
0000
,
0000
0000
0000
0000
0000
0000
0000
0000
0000
0033
0000
0000
2200
0000
0000
0000
0000
0000
0000
0000
0000
0000
0000
0000
0000
0000
0000
0000
3300
0000
0220
0000
0000
0000
0000
0000
0000
0000
0000
0000
0000
0000
0000
0000
0000
0330
0000
0000
,
0022
0000
0000
0000
0000
0000
0000
0000
0000
0000
0033
0000
1001
0000
0000
0010
0000
0000
0101
0000
0000
0010
0000
0000
,
0100
0010
1100
0001
0100
0010
0101
0010
,
0001
1000
0101
1000
0001
1000
0110
1000
,
0001
1000
0011
0000
1100
0000
0100
0010
,
1001
0010
0001
1000
0101
1000
0001
1000
,
0011
0100
0001
0100
1001
0100
0001
0010
,
0101
0010
0001
0010
0101
1000
0100
0010
,
1001
0000
0022
0000
0000
0033
0200
0000
2301
0000
0000
3000
1002
0000
0000
0000
,
0000
0003
0001
1000
0100
1000
0101
0010
,
0001
0100
0010
0100
1000
0100
1001
0100
,
0010
0100
1010
0000
1010
0000
0101
0000
,
0101
0000
0000
1010
0100
0010
0001
0100
0010
0201
0000
0000
,
0000
0000
0301
1000
0010
1000
0101
1000
,
0010
1000
0100
1000
0010
1000
0011
1000
,
0010
1000
0101
0000
1010
0000
0110
0000
,
0110
0000
0000
1001
0010
0100
1000
0100
1000
0110
0000
0000
,
0010
1000
0010
1000
0011
0100
0010
0100
,
0010
0100
0010
0001
1010
0100
0010
0100
,
1010
1100
1001
1001
,
0010
0000
0000
0000
0001
0000
0000
0000
0010
0000
0000
0000
0100
0000
0000
0000
0001
0000
0000
0000
0100
0000
0000
0000
2020
0000
0000
0000
0000
0000
0000
0000
0000
0000
0000
0000
0000
0000
0000
0000
0000
0000
0000
0000
0000
3030
0000
0000
,
0001
1000
0010
1000
0101
1000
0010
1000
,
0100
0010
0001
0010
0101
0010
0100
1000
,
0101
0110
1010
1001
,
0010
0100
0010
0100
0010
0100
1000
0000
0000
0001
0010
0001
,
0010
0001
0010
0001
0000
0000
0100
0010
0100
0010
0100
0010
,
0002
0000
0000
0000
,
0000
0000
0000
0000
,
0000
0000
0000
0000
,
0000
1100
1010
1103
,
1001
0100
0001
0100
0010
0000
0000
1000
0001
0010
0100
0000
0000
1000
0001
0100
,
0020
0000
0000
0030
0000
0000
0000
0000
0000
0001
0100
1000
0010
0000
0000
0001
,
0010
1000
0100
0000
0000
0001
0100
1000
0020
0000
0000
0000
2032
0000
0000
0000
,
0000
3003
1100
0010
0100
0010
0100
0000
0000
0001
0100
0010
1000
0000
0000
1000
,
0100
0010
0002
0000
0000
0000
0000
0000
0003
0000
0001
0100
0010
0001
0000
0000
,
1000
0100
1000
0100
0000
0000
0001
0100
0001
0200
0000
0300
2002
0000
0000
0000
,
3003
0000
0000
0000
0000
0000
1001
0000
0000
0000
0000
0000
0000
0000
0000
0000
0000
0000
1000
0000
0000
0000
0101
0000
0000
0000
0000
0000
0000
0000
0011
0000
0000
0000
0000
0000
0000
0000
0000
1100
0000
0000
0000
0000
0000
0000
0000
0000
,
0011
0000
0000
0000
0000
0000
0000
0000
0000
0000
0000
0000
2002
0000
0000
0000
0000
0000
0000
0000
0000
3003
0000
0000
0000
0000
0000
0000
0000
0000
1001
0000
0000
0000
0000
0000
0000
0000
0000
0000
0000
0000
0000
0000
0101
0000
0000
0000
,
1010
0000
0000
0000
0110
0000
0000
0000
0000
0110
0000
0000
0000
0101
0000
0000
0000
0000
2020
0000
0000
0000
0000
3030
,
0000
0000
0000
0000
0000
0000
0000
0000
0000
0000
0000
0000
0000
0000
0000
0000
0000
0000
0000
0000
0000
0000
0000
0000
1001
0000
0000
0000
0000
0000
0000
0000
0000
0000
0000
0000
0000
0000
0000
0000
0000
0000
0000
0000
0000
0000
0000
0000
0000
0000
0000
0000
0000
0000
0000
0000
0000
0000
0000
0000
0000
0000
0000
0000
0000
0000
0000
0000
0000
0000
0000
0000
0000
0000
0000
0000
0000
0000
1000
0000
0000
0000
0000
0000
0000
0000
0000
0000
0000
0000
0000
0000
0000
0000
0000
0000
0100
0000
0000
0000
0000
0000
0000
0000
0000
0000
0000
0000
0000
0000
0000
0000
0000
0000
0000
0000
0000
0000
0000
0000
0000
0000
0000
0000
0000
0000
0000
0000
0101
0000
0000
0000
0000
0000
0000
0000
0000
0000
0000
0000
0000
0000
0000
0000
0000
0000
0000
0000
0000
0000
0000
0000
0000
0000
0000
0000
0000
0000
0000
0000
0000
0000
0000
0000
0000
0000
0000
0000
1100
0000
0000
0000
0000
0000
0000
0000
0000
0000
0000
0000
0000
0000
0000
0000
0000
0000
0000
0000
0000
0000
0000
0000
,
0000
0000
0101
0000
0000
0000
0000
0000
0000
0000
0000
0000
2002
0000
0000
0000
0000
0000
0000
0000
0000
0000
3003
0000
0000
0000
0000
0000
0000
0000
0000
0000
0000
1000
0000
0000
0100
0000
0000
0010
0000
0000
0001
0000
0000
0000
0000
0000
,
0000
0001
0010
0100
1000
0000
0000
1000
0100
0010
0001
0000
0000
2002
0000
0000
,
0000
0000
3003
0000
2000
0000
0000
0000
0000
0000
0000
0000
0000
0200
3000
0000
0000
0000
0000
0320
0000
0000
0000
0000
0000
0032
0000
0000
0000
0000
0000
2003
,
0000
0000
0000
0000
0000
3002
0000
0000
0000
0000
0000
2003
0000
0000
0000
0000
0000
3200
0000
0000
0000
0000
0000
0320
0000
0000
0000
0000
0000
0032
0000
0000
,
0000
0000
0000
2003
0000
0000
0000
0000
0000
3020
0000
0000
0000
0000
0000
1030
0000
0001
0000
0010
0000
0100
0000
0000
0000
0000
0000
0010
0000
0100
0000
1000
,
0000
0000
0000
1001
1000
0100
0010
0001
1000
0100
0001
0010
,
0001
1000
0010
1000
0001
1000
0100
0010
1000
0001
0010
0100
,
0010
1000
0001
0010
0100
1000
0001
0100
0010
0100
1000
0001
,
0010
0000
0100
0000
0010
0000
2002
0000
0000
0000
0000
0000
0000
0000
0000
3003
0000
0000
0000
0000
0000
0000
0000
0000
;
