#TITLE:PUTO;
#SUBTITLE:;
#ARTIST:Molotov;
#TITLETRANSLIT:;
#SUBTITLETRANSLIT:;
#ARTISTTRANSLIT:;
#CREDIT:;
#BANNER:Puto Ban!!.png;
#BACKGROUND:Puto fondo 1.png;
#LYRICSPATH:;
#CDTITLE:KOMBO.png;
#MUSIC:molotov-puto.mp3;
#OFFSET:-0.540;
#SAMPLESTART:98.077;
#SAMPLELENGTH:16.420;
#SELECTABLE:YES;
#BPMS:0.000=119.961;
#STOPS:;
#BGCHANGES:;
// cache tags:
#FIRSTBEAT:0.000;
#LASTBEAT:249.000;
#SONGFILENAME:Songs/Definitive Keyboard Megapack/PUTO (No lo lean de corrido xD) [KOMBO]/puto.sm;
#HASMUSIC:1;
#HASBANNER:1;
#MUSICLENGTH:127.112;
// end cache tags

//---------------dance-single - KOMBO - Original----------------
#NOTES:
     dance-single:
     KOMBO - Original:
     Hard:
     12:
     1.000,1.000,1.000,0.740,1.000,667.000,220.000,94.000,0.000,111.000:

2000
0010
0001
0100
3020
0000
0030
0010
2000
3000
0001
0000
0100
0000
0010
0000
,
2000
0010
0001
0100
3020
0000
0030
0010
2000
3000
0001
0000
0100
0000
0010
0000
,
2000
0010
0001
0100
3020
0000
0030
0010
2000
3000
0001
0000
0100
0000
0010
0000
,
2000
0010
0001
0100
3020
0000
0030
0010
2000
3000
0001
0000
0100
0000
0010
0000
,
1002
0010
1100
0110
2013
0000
3110
0100
0002
0113
1100
0011
0110
0000
1001
0000
,
0002
0110
1100
1010
0213
0000
1301
0100
0002
0113
1100
0110
0011
0000
1001
0000
,
1002
0010
1100
0110
2013
0000
3110
0100
0002
0113
1100
0011
0110
0000
1001
0000
,
0002
0110
1100
1010
0213
0000
1301
0100
0002
0113
1100
0110
0011
0000
1001
0000
,
1002
0010
1100
0110
2013
0000
3110
0100
0002
0113
1100
0011
0110
0000
1001
0000
,
0002
0110
1100
1010
0213
0000
1301
0100
0002
0113
1100
0110
0011
0000
1001
0000
,
1002
0010
1100
0110
2013
0000
3110
0100
0002
0113
1100
0011
0110
0000
1001
0000
,
0002
0110
1100
1010
0213
0000
1301
0100
0002
0113
1100
0110
0011
0000
1001
0000
,
1110
0000
0111
0000
1000
0010
0001
0001
0010
0010
1100
0001
0110
0000
1001
0000
,
1110
0000
0111
0000
0001
1000
0001
0100
0010
1000
0001
0100
0010
0000
0001
0000
,
1110
0000
0111
0000
0100
0001
1000
0000
0010
0100
0001
1000
0001
0000
0100
0000
,
1110
0000
0111
0000
0000
1000
0100
0001
1000
0001
0010
0100
0001
0000
0100
0000
,
1110
0000
0111
0000
0000
0100
0010
0001
1000
0100
0001
0010
0100
0000
0010
0000
,
1110
0000
0111
0000
0001
1000
0001
0100
0010
1000
0001
0100
0010
0000
0100
0000
,
1110
0000
0111
0000
1000
0110
0001
0110
1000
0110
0001
0110
1001
0000
1001
0000
,
1110
0000
0111
0000
0001
1110
0001
0110
1000
0111
1000
0011
0100
0000
1001
0000
,
0220
0000
0330
0000
0000
0000
0000
0000
2000
0000
0000
0000
0000
0000
0000
0000
3002
0000
0000
0000
0000
0000
0000
0000
0000
0000
0000
0020
0003
0000
0000
2000
,
0030
3000
1002
0100
0010
0100
1000
0100
,
1113
0000
0000
0000
0110
0000
0001
0000
0100
0001
0000
1000
0010
0001
0100
0000
,
1000
0100
0001
0100
1000
0100
0001
0100
1000
0110
0001
0100
,
1010
0000
0000
0000
0000
0000
0000
0000
0002
0000
0000
0000
0000
0000
0000
0000
2003
0000
0000
0000
0000
0000
0000
0000
0000
0000
0000
0200
3000
0000
0000
0002
,
0300
0003
2001
0010
0100
0010
0001
0010
,
3111
0000
0000
0000
0000
0000
0000
0000
0000
0000
0000
0000
0110
0000
0000
0000
0000
0000
1000
0000
0000
0000
0000
0000
0100
0000
0000
0010
0000
0000
0000
0000
1001
0000
0000
0000
0000
0000
0000
0000
1001
0000
0000
0000
0000
0000
0000
0000
,
1001
0010
1000
0010
0001
0010
1000
0010
0001
0110
1000
0010
,
1001
0100
0001
0010
1000
0000
0000
0001
1000
0000
0010
0000
0100
0000
1000
0000
,
0101
0010
1000
0001
0010
0000
0000
0010
0100
0000
0100
0000
0010
0000
0001
0000
,
1010
0100
0001
0010
1000
0000
0000
0100
1000
0000
0001
0000
0100
0000
0010
0000
,
1100
0000
0010
0000
0001
0000
1000
0000
0100
0000
0000
0000
0010
0000
1000
0000
0010
0000
0000
0000
0101
0000
1000
0000
0110
0000
1000
0001
0000
0000
0000
0000
,
1110
0000
0111
1000
0001
1000
0010
0100
0001
0100
0010
1000
0010
0100
1000
0001
,
1110
0000
0111
1000
0001
0100
0010
1000
0001
0100
0010
1000
0001
0100
0010
0001
,
1110
0000
0111
1000
0001
0100
0001
1000
0010
0100
0001
0100
0001
0010
1000
0000
,
2220
0000
0000
0000
0000
0000
3330
0000
0111
0000
0000
0000
0000
0000
0000
0000
2220
0000
0000
0000
0000
0000
3330
0000
0111
0000
1000
0001
0000
0000
0000
0000
,
1110
0000
0111
1000
0001
1000
0010
0100
0001
0100
0010
1000
0010
0100
1000
0001
,
1110
0000
0111
1000
0001
0100
0010
1000
0001
0100
0010
1000
0001
0100
0010
0001
,
1110
0000
0111
1000
0001
0100
0001
1000
0010
0100
0001
0100
0001
0010
1000
0000
,
2220
0000
0000
3330
0111
0000
0000
0000
2220
0000
0000
3330
0111
0000
0000
0000
,
0220
0000
0330
0000
0000
0000
0000
0000
2000
0000
0000
0000
0000
0000
0000
0000
3002
0000
0000
0000
0000
0000
0000
0000
0000
0000
0000
0020
0003
0000
0000
2000
,
0030
3000
1002
0100
0010
0100
1000
0100
,
1113
0000
0000
0000
0110
0000
0001
0000
0100
0001
0000
1000
0010
0001
0100
0000
,
1000
0100
0001
0100
1000
0100
0001
0100
1000
0110
0001
0100
,
1001
0000
0000
0000
0000
0000
0000
0000
0002
0000
0000
0000
0000
0000
0000
0000
2003
0000
0000
0000
0000
0000
0000
0000
0000
0000
0000
0200
3000
0000
0000
0002
,
0300
0003
2001
0010
0100
0010
0001
0010
,
3111
0000
0000
0000
0110
0000
1000
0000
0100
0010
0000
0001
0100
0010
1000
0100
,
0001
0000
0000
0000
0000
0000
0000
0000
0000
0000
0000
0000
0000
0000
0000
0000
0010
0000
0000
0000
0000
0000
0000
0000
0000
0000
0000
0000
0000
0000
0000
0000
1000
0000
0000
0000
0000
0000
0000
0000
0000
0000
0000
0000
0000
0000
0000
0000
0010
0000
0000
0000
0000
0000
0000
0000
0000
0000
0000
0000
0000
0000
0000
0000
0001
0000
0000
0000
0000
0000
0000
0000
0000
0000
0000
0000
0000
0000
0000
0000
0010
0000
0000
0000
0000
0000
0000
0000
0000
0000
0000
0000
0000
0000
0000
0000
1000
0000
0000
0000
0000
0000
0100
0000
0000
0000
0000
0000
0000
0000
0000
0000
0001
0000
0000
0000
0000
0000
0000
0000
0000
0000
0000
0000
0000
0000
0000
0000
0100
0000
0000
0000
0000
0000
0000
0000
0000
0000
0000
0000
0000
0000
0000
0000
2002
0000
0000
0000
0000
0000
3003
0000
0000
0000
0000
0000
0000
0000
0000
0000
0000
0000
0000
0000
0000
0000
0000
0000
0000
0000
0000
0000
0000
0000
0000
0000
0000
0000
0000
0000
0000
0000
0000
0000
0000
0000
0000
0000
0000
0000
0000
0000
,
1110
0000
0111
1000
0110
1000
0011
0100
0011
1000
0110
0001
0110
1000
0011
0000
,
1110
0000
0111
1000
0011
0100
0011
1000
0110
0001
1100
0001
0110
1000
0011
0000
,
1110
0000
0111
1000
0110
1000
0011
0100
0011
1000
0110
0001
0110
1000
0011
0000
,
1110
0000
0111
1000
0110
1000
0011
0100
0011
1000
0110
0001
0110
1000
0011
0000
,
2110
3121
1231
1312
,
1213
2311
3112
1123
,
1132
1123
2131
3211
,
1312
2113
3211
1311
,
1000
0100
1000
0010
0001
0010
0100
0001
0100
0010
1000
0010
0100
0010
0100
0001
1000
0001
0010
0001
0010
1000
0100
1000
,
0010
0100
0020
0031
1000
0100
0010
0001
0010
0100
0010
0001
0010
0001
0100
1000
0100
0010
0100
0010
0001
1000
0001
0010
,
0100
0010
1000
0001
1000
0010
0100
0010
1000
0100
0010
0100
1000
0010
0100
0010
0001
0010
0100
0010
1000
0001
1000
0010
,
1001
0100
0010
0100
1001
0100
0010
0100
,
1001
0101
1010
0110
,
0101
0000
0000
1001
1010
0101
1001
0000
0000
0110
0000
0000
,
2222
3333
0000
0000
;
