#TITLE:Wondered off in Wonderland;
#SUBTITLE:;
#ARTIST:The Terrible Infant;
#TITLETRANSLIT:;
#SUBTITLETRANSLIT:;
#ARTISTTRANSLIT:;
#CREDIT:;
#BANNER:WoiW banner.PNG;
#BACKGROUND:ERROR OF THE SCREENZZS.png;
#LYRICSPATH:;
#CDTITLE:;
#MUSIC:Wondered off in Wonderland.mp3;
#OFFSET:0.000;
#SAMPLESTART:35.294;
#SAMPLELENGTH:12.000;
#SELECTABLE:YES;
#BPMS:0.000=170.000,32.000=85.000,36.000=170.000,260.000=85.000,284.000=170.000,285.000=85.000,286.500=170.000,287.500=85.000,289.000=170.000,290.000=85.000,291.500=170.000,292.500=85.000,294.000=170.000,296.000=85.000,297.000=170.000,299.000=85.000,300.000=170.000,302.000=85.000,303.000=170.000,307.000=85.000,308.000=170.000,310.000=85.000,311.000=170.000,313.000=85.000,314.000=170.000,316.000=85.000,317.000=170.000,319.000=42.500,320.000=85.000,322.000=170.000,326.000=85.000,328.000=170.000,329.000=85.000,329.500=170.000,330.500=85.000,331.000=170.000,332.000=85.000,332.500=170.000,333.500=85.000,334.000=170.000;
#STOPS:32.000=7.100
;
#BGCHANGES:;
// cache tags:
#FIRSTBEAT:0.000;
#LASTBEAT:345.000;
#SONGFILENAME:Songs/stepmix .10/Wondered off in Wonderland/WOIW.sm;
#HASMUSIC:1;
#HASBANNER:1;
#MUSICLENGTH:149.481;
// end cache tags

//---------------dance-single - ----------------
#NOTES:
     dance-single:
     :
     Easy:
     7:
     0.455,0.691,0.381,0.127,0.007,400.000,57.000,19.000,0.000,0.000:  // measure 1
1000
0100
0010
0001
,  // measure 2
1000
0100
0010
0000
0001
0000
1100
0000
,  // measure 3
0001
0010
0100
1000
,  // measure 4
0001
0010
0100
0000
1000
0100
0010
0000
,  // measure 5
0001
0010
0100
0000
1000
0000
0101
0000
,  // measure 6
1000
0100
0010
0001
,  // measure 7
1000
0010
1000
0000
0010
0000
0101
0000
,  // measure 8
2000
0000
0002
3003
,  // measure 9
1001
0000
0000
0000
,  // measure 10
1000
1000
1000
1000
,  // measure 11
1000
0100
0010
0000
0100
0000
0011
0000
,  // measure 12
0001
0001
0001
0001
,  // measure 13
0001
0010
0100
0000
0010
0000
1100
0000
,  // measure 14
0001
0001
0001
0001
,  // measure 15
0010
0100
0010
0000
1000
0000
0101
0000
,  // measure 16
1000
1000
1000
1000
,  // measure 17
0100
0010
0100
0000
0001
0000
1010
0000
,  // measure 18
1000
0100
0010
0001
,  // measure 19
1000
0100
0010
0101
,  // measure 20
0001
0010
0100
1010
,  // measure 21
0010
0100
0010
0100
,  // measure 22
0001
1000
0001
1000
,  // measure 23
0001
0010
0100
0110
,  // measure 24
1000
0001
0100
0101
,  // measure 25
1000
0001
0010
1010
,  // measure 26
0001
0010
0100
0101
,  // measure 27
1000
0001
1000
0001
,  // measure 28
1000
0100
0010
0001
,  // measure 29
1000
0000
0010
0000
0100
0100
0001
0000
,  // measure 30
1000
0100
0001
0100
,  // measure 31
1000
0000
0010
0000
0001
0001
1000
0000
,  // measure 32
0001
1010
0001
0100
,  // measure 33
0010
0000
1000
0000
0100
0100
0010
0000
,  // measure 34
0001
0100
1000
0100
,  // measure 35
0001
0010
1000
0010
,  // measure 36
0001
1000
0001
1000
,  // measure 37
0001
1010
0001
1010
,  // measure 38
1000
0101
1000
0101
,  // measure 39
0010
1001
0010
1001
,  // measure 40
0100
0110
0100
0110
,  // measure 41
0001
1100
0001
0101
,  // measure 42
1000
0101
1000
1010
,  // measure 43
0010
0101
0100
1100
,  // measure 44
0001
1010
1000
0011
,  // measure 45
1000
1000
0001
0001
,  // measure 46
2000
0100
0100
0002
,  // measure 47
0000
3003
0020
0000
0100
0000
0001
0030
,  // measure 48
0002
0100
0100
2000
,  // measure 49
0000
3003
0020
0000
0001
0000
0100
0030
,  // measure 50
2000
0001
0010
0002
,  // measure 51
0000
3003
2000
0000
0100
0000
0010
3000
,  // measure 52
0002
1000
0010
2000
,  // measure 53
0000
3003
0002
0000
0010
0000
0103
0000
,  // measure 54
1000
0000
0001
0000
1000
0001
0000
0001
,  // measure 55
1000
0000
0001
0000
1000
0002
0000
0000
,  // measure 56
2003
0000
0000
0000
,  // measure 57
3002
0000
0000
0000
,  // measure 58
0013
0100
1000
0100
,  // measure 59
0001
0010
0100
1000
,  // measure 60
0001
0010
0100
0000
1000
0010
0100
0000
,  // measure 61
0001
0010
0100
1001
,  // measure 62
1000
0000
1000
0000
0001
0100
0010
0000
,  // measure 63
0100
0000
0100
0000
0001
1000
0100
0000
,  // measure 64
0010
0000
0010
0000
0100
0010
1000
0000
,  // measure 65
0001
0000
0001
0000
1000
0100
0010
0000
,  // measure 66
1001
0100
0001
0100
1001
0100
0010
0100
,  // measure 67
1001
0100
1000
0100
1001
0100
0010
0100
,  // measure 68
0011
1000
0100
1000
0011
1000
0010
1000
,  // measure 69
0011
1000
0001
1000
0011
1000
0100
1000
,  // measure 70
0101
1010
0001
0001
1100
0101
0010
0010
,  // measure 71
1010
0101
1000
1000
0011
1010
0100
0100
,  // measure 72
1000
0000
0001
1000
0001
1000
0000
0001
,  // measure 73
1000
0001
0010
0000
0100
0010
0100
0010
,  // measure 74
0000
0100
0010
0100
1000
0000
0001
0000
,  // measure 75
1000
0101
1000
0000
0001
0000
1000
0110
,  // measure 76
0001
0000
1000
0000
0001
1010
0001
0000
,  // measure 77
1000
0000
0001
0000
1010
0000
1000
0100
,  // measure 78
0010
0000
0001
0000
1000
0010
0100
0000
,  // measure 79
0001
0000
1000
0100
0010
0000
0001
0000
,  // measure 80
1000
0000
0100
0000
0010
0000
0001
0000
1000
0000
0000
0000
0100
1001
0100
0100
,  // measure 81
0100
1001
0100
0100
0100
0000
1001
0000
,  // measure 82
0100
0000
0100
0000
0100
1001
0100
0100
,  // measure 83
1000
0100
0010
0001
0000
1000
0001
0010
,  // measure 84
0100
1000
0000
0001
1000
0010
0100
0000
,  // measure 85
0001
0010
0100
0000
1000
0100
0010
0000
,  // measure 86
0001
0100
0010
0000
2002
0000
0000
0000
,  // measure 87
0000
3003
0000
0000
0000
0000
0000
0000
;

//---------------dance-single - ----------------
#NOTES:
     dance-single:
     :
     Medium:
     9:
     0.789,0.921,1.000,0.181,0.174,602.000,197.000,27.000,0.000,1.000:  // measure 1
1001
0010
0100
0010
1001
0000
0110
0000
,  // measure 2
1001
0100
0010
0100
1001
0000
0110
0000
,  // measure 3
1001
0010
0100
0010
1001
0000
0110
0000
,  // measure 4
1001
0100
0010
0100
1001
0010
0100
0010
,  // measure 5
1100
0001
0010
0001
1100
0000
0011
0000
,  // measure 6
1100
0010
0001
0010
1100
0000
0011
0000
,  // measure 7
1100
0001
0010
0001
1100
0000
0011
0000
,  // measure 8
0001
0010
0100
1000
0010
0100
0001
0010
,  // measure 9
1001
0000
0000
0000
,  // measure 10
1010
0100
0001
0100
1010
0000
1001
0000
,  // measure 11
0011
0100
1000
0100
0011
0000
1001
0000
,  // measure 12
0110
0001
1000
0001
0110
0000
1001
0000
,  // measure 13
1000
1000
1000
1000
0001
0001
0001
0001
,  // measure 14
1010
0001
0100
1000
0011
0000
1100
0000
,  // measure 15
0011
1000
0100
0001
1010
0000
0101
0000
,  // measure 16
1100
0001
0010
0100
0011
0000
1100
0000
,  // measure 17
0001
0001
0001
0001
1000
1000
1000
1000
,  // measure 18
0001
0010
0100
1000
0010
0100
0001
0010
,  // measure 19
1000
0100
0001
0010
0100
0010
0001
0100
,  // measure 20
1000
0010
0100
0010
1000
0100
0001
0010
,  // measure 21
0100
0010
0001
1000
0100
0010
0100
0010
,  // measure 22
0001
1000
0100
1000
0001
0100
0001
1000
,  // measure 23
0010
0001
1000
0010
1000
0100
0010
0001
,  // measure 24
0100
0010
1000
0100
0010
0001
0100
0010
,  // measure 25
1000
1000
0001
0100
0100
0010
1000
1000
,  // measure 26
0100
0001
0001
0100
0010
0010
1000
0001
,  // measure 27
0001
0010
0100
1000
0010
0100
0001
0010
,  // measure 28
1100
0010
0101
0010
1100
0010
0101
0010
,  // measure 29
1100
0010
0101
0010
1100
0010
0101
0010
,  // measure 30
1100
0001
0110
0001
1010
0001
0110
0001
,  // measure 31
1100
0001
0110
0001
0110
0001
0110
0001
,  // measure 32
1010
0100
0011
0100
1010
0100
0011
0100
,  // measure 33
1010
0100
0011
0100
1010
0100
1001
1001
,  // measure 34
1001
0100
0011
0100
1001
0100
0011
0100
,  // measure 35
1001
0100
0011
0100
1001
0100
0011
0101
,  // measure 36
0001
0010
0100
1000
0010
0100
0001
0010
,  // measure 37
1100
0011
0110
1001
,  // measure 38
0101
1010
0011
1100
,  // measure 39
0101
1010
1001
0110
,  // measure 40
0011
1100
1010
1100
,  // measure 41
0011
0101
1001
1100
,  // measure 42
1001
0011
1001
1010
,  // measure 43
1001
0101
1001
0101
,  // measure 44
1001
1100
1001
1100
,  // measure 45
0110
1001
0110
1001
,  // measure 46
2000
0000
0001
0010
0001
0010
0002
0000
,  // measure 47
0000
0000
3003
0000
0110
0000
0000
0000
0001
1000
0001
1000
0110
0000
0011
0000
,  // measure 48
0002
0000
1000
0100
0010
0100
2000
0000
,  // measure 49
0000
0000
3003
0000
0110
0000
0000
0000
0001
0010
0100
1000
0011
0000
1100
0000
,  // measure 50
0002
0000
1000
0100
1000
0100
2000
0000
,  // measure 51
0000
0000
3003
0000
0110
0000
0000
0000
1000
0001
1000
0001
0110
0000
1100
0000
,  // measure 52
2000
0000
0001
0010
0100
0010
0002
0000
,  // measure 53
0000
0000
3003
0000
0110
0000
0000
0000
1000
0100
0010
0001
1100
0000
0011
0000
,  // measure 54
1100
0000
0101
0000
1000
0100
0000
0100
,  // measure 55
1100
0000
0101
0000
0001
0020
0000
0030
,  // measure 56
0002
0010
0010
0010
0010
0010
0010
0010
,  // measure 57
2003
0100
0100
0100
0100
0100
0100
0100
,  // measure 58
3011
0000
1010
0000
0001
0010
0000
0010
,  // measure 59
0011
0000
1010
0000
0001
0020
0000
0030
,  // measure 60
0002
0010
0010
0010
0010
0010
0010
0010
,  // measure 61
2003
0100
0100
0100
0100
0100
0100
3100
,  // measure 62
0101
0000
0011
0000
0100
0001
0000
0001
,  // measure 63
0101
0000
0011
0000
0010
2000
0000
3000
,  // measure 64
0020
1000
1000
1000
1000
1000
1000
1000
,  // measure 65
0230
0001
0001
0001
0001
0001
0001
0301
,  // measure 66
0011
0000
1000
0000
0001
0001
0010
0100
0011
0000
1000
0000
0001
0001
0010
0100
,  // measure 67
0011
0000
1000
0000
0001
0001
0010
0100
0011
0000
1000
0000
0001
0001
0010
0100
,  // measure 68
1010
0000
0001
0000
1000
1000
0010
0100
1010
0000
0001
0000
1000
1000
0010
0100
,  // measure 69
1010
0000
0001
0000
1000
1000
0010
0100
1010
0000
0001
0000
1000
0100
0010
0001
,  // measure 70
1010
0000
0000
0000
0001
0000
0000
0000
1000
0000
0100
0010
0001
0000
1000
0000
0011
0000
0000
0000
1000
0000
0000
0000
0001
0000
0010
0100
1000
0000
0001
0000
,  // measure 71
1100
0000
0000
0000
0001
0000
0000
0000
1000
0000
0010
0100
0010
0000
1000
0000
0101
0000
0000
0000
1000
0000
0000
0000
0001
0000
0010
0100
0010
0000
0001
0000
,  // measure 72
1001
0000
1001
0000
0110
0000
0001
0000
1000
0001
1001
0000
1001
0000
0110
0000
,  // measure 73
1000
0000
0100
0010
1001
0000
1001
0000
0110
0000
0001
0000
1000
0100
1001
0000
,  // measure 74
1001
0000
0110
0000
0001
0000
0010
0100
1001
0000
0000
0000
0010
0000
0000
0000
,  // measure 75
1000
1000
0100
0010
1001
0000
0000
0000
0010
0000
0000
0000
1000
1000
0100
0010
,  // measure 76
1001
0000
0000
0000
0010
0000
0000
0000
1000
1000
0100
0010
1001
0000
0000
0000
,  // measure 77
0010
0000
1000
1000
0100
0010
1001
0110
,  // measure 78
1001
1001
0010
0100
1001
0110
1001
1001
,  // measure 79
0100
0001
1001
0110
1001
1001
0010
1000
,  // measure 80
1001
0110
1001
1001
0010
0001
2002
3003
,  // measure 81
2002
0000
0000
3003
2002
0000
0000
0000
,  // measure 82
0000
0000
0000
0000
0000
0000
0000
3003
2002
0000
0000
0000
0000
0000
3003
0000
,  // measure 83
1001
0000
1001
0000
0110
0000
1001
0000
0000
0000
1000
0100
1001
0000
0110
0000
,  // measure 84
0101
0000
1100
0000
0000
0000
0001
1000
0011
0000
0011
0000
1100
0000
0000
0000
,  // measure 85
0110
0000
0001
1000
0110
0110
1001
0000
,  // measure 86
1000
0100
0010
0100
1000
0100
0010
0100
2002
0000
0000
0000
0000
0000
0000
0000
,  // measure 87
3003
0000
0000
0000
;

//---------------dance-single - ----------------
#NOTES:
     dance-single:
     :
     Hard:
     10:
     1.000,1.000,1.000,0.401,0.555,782.000,359.000,60.000,0.000,0.000:  // measure 1
1001
1000
1010
1000
1001
0000
0011
0000
,  // measure 2
1001
1000
1010
1000
1001
0000
0011
0000
,  // measure 3
1001
1000
1010
1000
1001
0000
0011
0000
,  // measure 4
1001
1000
1010
1000
1001
0001
0011
0001
,  // measure 5
1001
1000
1100
1000
1001
0000
0101
0000
,  // measure 6
1001
1000
1100
1000
1001
0000
0101
0000
,  // measure 7
1001
1000
1100
1000
1001
0000
0101
0000
,  // measure 8
1000
0000
0001
0000
1000
0000
0001
0000
1000
0000
0001
0000
1000
0000
0001
0000
1000
0001
1000
0001
1000
0001
1000
0001
1000
0001
1000
0001
1000
0001
1000
0001
,  // measure 9
0110
0000
0000
0000
0000
0000
0000
0000
0000
0000
0000
0000
0000
0000
0000
0000
1000
0100
0010
0000
0101
0000
0000
0001
1000
0100
0010
0000
0101
0000
1010
0000
,  // measure 10
1000
0100
0010
0000
0101
0000
0000
0001
1000
0100
0010
0000
0101
0000
1010
0000
,  // measure 11
0001
0010
0100
0000
1010
0000
0000
1000
0001
0010
0100
0000
1010
0000
0101
0000
,  // measure 12
1000
0100
0010
0000
0101
0000
0000
0001
1000
0100
0010
0000
0101
0000
1010
0000
,  // measure 13
0001
0010
0100
0000
1010
0000
0000
1000
0001
0010
0100
0000
1010
0101
1010
0101
,  // measure 14
0010
1000
0001
0000
1100
0000
0000
0100
0010
1000
0001
0000
1100
0000
0011
0000
,  // measure 15
0100
0001
1000
0000
0011
0000
0000
0010
0100
0001
1000
0000
0011
0000
1100
0000
,  // measure 16
0010
1000
0001
0000
1100
0000
0000
0100
0010
1000
0001
0000
1100
0000
0011
0000
,  // measure 17
0100
0001
1000
0000
0011
0000
0000
0010
0100
0001
1000
0000
0011
1100
0011
1100
,  // measure 18
1000
0100
0010
0001
0100
0010
1000
0100
,  // measure 19
0011
0000
0001
0000
0110
0000
0001
1000
0001
0000
0001
0010
1100
0010
0001
0000
,  // measure 20
1100
0000
1000
0000
0110
0000
1000
0001
1000
0000
1000
0100
0011
0100
1000
0000
,  // measure 21
0101
0000
0100
0000
1001
0000
0100
0010
0100
0000
0100
0001
1010
0001
0100
0000
,  // measure 22
0011
0011
0011
0011
1100
1100
1100
1100
,  // measure 23
0011
0000
0001
0000
1100
0000
0001
0010
0100
0000
1000
0100
0011
0100
1000
0000
,  // measure 24
1100
0000
1000
0000
0011
0000
1000
0100
0010
0000
0001
0010
1100
0010
0001
0000
,  // measure 25
0011
0000
0001
0000
1100
0000
0001
0010
0100
0000
1000
0100
0011
0100
1000
0000
,  // measure 26
1010
1010
1010
1010
0101
0101
0101
0101
,  // measure 27
1000
0100
0010
0001
0100
0010
1000
0100
,  // measure 28
0011
0000
0001
0000
1100
0000
0001
0010
0100
0000
1000
0100
0011
0100
1000
0000
,  // measure 29
0011
0000
1000
0100
0011
0100
1000
0000
0011
0000
0011
0000
1100
0000
0001
0000
,  // measure 30
1100
0000
1000
0000
0011
0000
1000
0100
0010
0000
0001
0010
1100
0010
0001
0000
,  // measure 31
1100
0000
0001
0010
1100
0010
0001
0000
1100
0000
1100
0000
0011
0000
1000
0000
,  // measure 32
1010
0000
0010
0000
0101
0000
0010
1000
0001
0000
0100
0001
1010
0001
0100
0000
,  // measure 33
1010
0000
0100
0001
1010
0001
0100
0000
1010
0000
1010
0000
0101
0000
0010
0000
,  // measure 34
0101
0000
0100
0000
1010
0000
0100
0001
1000
0000
0010
1000
0101
1000
0010
0000
,  // measure 35
0101
0000
0010
1000
0101
1000
0010
0000
0101
0000
0101
0000
1010
0000
0100
0000
,  // measure 36
1000
0100
0010
0001
0100
0010
1000
0100
,  // measure 37
1000
0010
0001
1000
0010
0001
1000
0010
,  // measure 38
0001
1000
0010
0001
1000
0010
0001
1000
,  // measure 39
0010
0001
1000
0010
0001
1000
0010
0001
,  // measure 40
1000
0010
0100
1000
0010
0100
1000
0010
,  // measure 41
0100
1000
0010
0100
1000
0010
0100
1000
,  // measure 42
0010
0100
1000
0010
0100
1000
0010
0100
,  // measure 43
1000
0100
0010
1000
0100
0010
1000
0100
,  // measure 44
0010
1000
0100
0010
1000
0100
0010
1000
,  // measure 45
0100
0010
1000
0100
0010
1000
0100
0010
,  // measure 46
2010
0000
0000
0000
3002
0003
1100
0000
0002
0003
1100
0000
2002
0000
0000
0000
,  // measure 47
0000
0000
0000
3003
0220
0000
0000
0330
0001
0010
0100
1000
0002
0003
2100
3000
,  // measure 48
0102
0000
0000
0000
2003
3000
0011
0000
2000
3000
0011
0000
2002
0000
0000
0000
,  // measure 49
0000
0000
0000
3003
0220
0000
0000
0330
1000
0100
0010
0001
2000
3000
0012
0003
,  // measure 50
2010
0000
0000
0000
3002
0003
1100
0000
0002
0003
1100
0000
2002
0000
0000
0000
,  // measure 51
0000
0000
0000
3003
0220
0000
0000
0330
0001
0010
0100
1000
0002
0003
2100
3000
,  // measure 52
0102
0000
0000
0000
2003
3000
0011
0000
2000
3000
0011
0000
2002
0000
0000
0000
,  // measure 53
0000
0000
0000
3003
0220
0000
0000
0330
1000
0100
0010
0001
2000
3000
0012
0003
,  // measure 54
2100
0000
3000
0000
0102
0000
0003
0000
2100
0000
3200
0000
0000
0000
0320
0030
,  // measure 55
0102
0000
0000
0003
2100
0000
0000
3000
0102
0000
0020
0000
0000
0000
0033
0000
,  // measure 56
1002
0010
0010
0010
0010
0010
0010
0010
,  // measure 57
2003
0100
0100
0100
0100
0100
0100
0100
,  // measure 58
0200
0000
3300
0000
0102
0000
0003
0000
2100
0000
3200
0000
0000
0000
0320
0030
,  // measure 59
0102
0000
0000
0003
2100
0000
0000
3000
0102
0000
0020
0000
0000
0000
0033
0000
,  // measure 60
1002
0010
0010
0010
0010
0010
0010
0010
,  // measure 61
2003
0100
0100
0100
0100
0100
0100
3100
,  // measure 62
1001
0000
1000
0000
0011
0000
1000
0000
0011
0000
1000
0100
0010
0001
0100
0010
,  // measure 63
1100
0000
0001
0000
1010
0000
0001
0000
1100
0000
0001
0010
0100
1000
0010
0100
,  // measure 64
1001
0000
0010
0000
0110
0000
0010
0000
1001
0000
1000
0100
0010
0100
1000
0001
,  // measure 65
0110
0000
0001
0000
1010
0000
0001
0000
0110
0000
0001
0010
0100
1000
0100
0010
,  // measure 66
0101
0000
1010
0000
0101
0101
1010
1100
0101
0000
1010
0000
0101
0101
1010
1100
,  // measure 67
0101
0000
1010
0000
0101
0101
1010
1100
0101
0000
1010
0000
0101
0101
1010
1100
,  // measure 68
0011
0000
1100
0000
0011
0011
1100
0101
0011
0000
1100
0000
0011
0011
1100
0101
,  // measure 69
0011
0000
1100
0000
0011
0011
1100
0101
0011
0000
1100
0000
0011
0011
0110
1100
,  // measure 70
1001
0000
0000
0000
0110
0000
0000
0000
1001
0000
0001
1000
0110
0000
0011
0000
1001
0000
0000
0000
0110
0000
0000
0000
1001
0000
0001
1000
0110
0000
1010
0000
,  // measure 71
1001
0000
0000
0000
1100
0000
0000
0000
1001
0000
0001
0010
1100
0000
0101
0000
1001
0000
0000
0000
0110
0000
0000
0000
1001
0000
1000
0010
0101
0000
1100
0000
,  // measure 72
0011
0000
0011
0000
1100
0000
0011
0000
1100
1001
0011
0000
0011
0000
1100
0000
,  // measure 73
1001
0000
1100
0101
0011
0000
0011
0000
1100
0000
1001
0000
0011
0101
1010
0000
,  // measure 74
1010
0000
0101
0000
1100
0000
1001
0011
1010
0000
0000
0000
0011
0000
0000
0000
,  // measure 75
1010
1010
1100
0101
0011
0000
0000
0000
1010
0000
0000
0000
0011
0011
0101
1100
,  // measure 76
1010
0000
0000
0000
0101
0000
0000
0000
1010
1010
0101
1100
0011
0000
0000
0000
,  // measure 77
1100
0000
0011
0011
0110
1100
1001
0110
,  // measure 78
1001
1001
0011
0110
1001
0110
1001
1001
,  // measure 79
0011
0110
1001
0110
1001
1001
0011
0110
,  // measure 80
1001
0000
0000
0000
0000
0000
0000
0000
0110
0000
0000
0000
0000
0000
0000
0000
1001
0000
0000
0000
0000
0000
0000
0000
1001
0000
0000
0000
0000
0000
0000
0000
0011
0000
0000
0000
0000
0000
0000
0000
0110
0000
0000
0000
0000
0000
0000
0000
0011
0000
0000
0000
1100
0000
0000
0000
0011
0000
1000
0100
0011
0000
1010
0000
,  // measure 81
0011
0000
0000
0000
1100
0000
0000
0000
0011
0000
1000
0100
0011
0000
1010
0000
0011
0000
0000
0000
0000
0000
0000
0000
1100
0000
0000
0000
0000
0000
0000
0000
,  // measure 82
0011
0000
0000
0000
1000
0000
0100
0000
0011
0000
0000
0000
1010
0000
0000
0000
0011
0000
0000
0000
1100
0000
0000
0000
0011
0000
1000
0100
0011
0000
1010
0000
,  // measure 83
1001
0000
1001
0000
0110
0000
1001
0000
0000
0000
1100
0011
1001
0000
1001
0000
,  // measure 84
0110
0000
1001
0000
0000
0000
0011
1100
1001
0000
1001
0000
0110
0000
0001
0000
,  // measure 85
1010
0000
0001
0000
1010
0000
0101
0000
1100
0000
1100
0000
0011
1000
0001
1000
,  // measure 86
0011
1000
0001
1000
0011
1000
0001
1000
2002
0000
0000
0000
0000
0000
0000
0000
,  // measure 87
3003
0000
0000
0000
;

//---------------dance-single - ----------------
#NOTES:
     dance-single:
     :
     Challenge:
     12:
     1.000,1.000,1.000,0.027,0.759,876.000,517.000,4.000,0.000,0.000:  // measure 1
1001
1010
0110
1010
1001
0000
0110
0000
,  // measure 2
1001
0011
0110
0011
1001
0000
0110
0000
,  // measure 3
1001
1100
0110
0011
1001
0000
0110
0000
,  // measure 4
0011
1100
0011
1100
1010
0101
1010
0101
,  // measure 5
1100
0101
0011
1010
0110
0000
1001
0000
,  // measure 6
0011
0101
1100
1010
1001
0000
0110
0000
,  // measure 7
0101
0011
1001
0011
0101
0000
1010
0000
,  // measure 8
1000
0000
0100
0000
0010
0000
0001
0000
1000
0000
0100
0000
0010
0000
0001
0000
1000
0100
0010
0001
1000
0010
0100
0001
1000
0100
0010
0001
1000
0010
0100
0001
,  // measure 9
1001
0000
0000
0000
0000
0000
0000
0000
0000
0000
0000
0000
0001
0000
0000
0000
0000
0000
0000
0000
0000
0000
0000
0000
0000
0000
0000
1000
0000
0000
0000
0000
0000
0000
0000
0000
0001
0000
0000
0000
0000
0000
0001
0000
0000
0000
0000
0000
0000
0000
0000
0000
0000
0000
0000
0000
0000
0000
0000
0000
0000
0000
0000
0000
0000
0000
0000
0000
0001
0000
0000
0000
1000
0000
0000
0000
0000
0000
0000
0000
0000
0000
0000
0000
0000
0000
0000
0000
0000
0000
0001
0000
0000
0000
0000
0000
1000
0000
0000
0000
0000
0000
0000
0000
0000
0000
0000
0000
0000
0000
0000
0000
0000
0000
0000
0000
0000
0000
0000
0000
0001
0000
0000
0000
0000
0000
0000
0000
0000
0000
0000
0000
0000
0000
0000
0000
0000
0000
0000
0000
0000
0000
0000
0000
1000
0000
0000
0000
0000
0000
0000
0000
0000
0000
0000
0000
0000
0000
0000
0000
0000
0000
0000
0000
0000
0000
0000
0000
0001
0000
0000
0000
0000
0000
0000
0000
0000
0000
0000
0000
0000
0000
0000
0000
0000
0000
0000
0000
0000
0000
0000
0000
,  // measure 10
1100
0100
0110
0000
0011
0000
0000
0001
1100
0100
0110
0000
0011
0000
1010
0000
,  // measure 11
0101
0100
0110
0000
1010
0000
0000
1000
0101
0100
0110
0000
1010
0000
0011
0000
,  // measure 12
0101
1000
0011
0000
1001
0000
0000
0010
0101
1000
0011
0000
1100
0000
0101
0000
,  // measure 13
1010
0010
0110
0000
0101
0000
0000
0001
1010
0010
0110
0000
0101
1100
0101
1100
,  // measure 14
0011
0010
0110
0000
1100
0000
0000
1000
0011
0010
0110
0000
1100
0000
0101
0000
,  // measure 15
1100
0001
1010
0000
1001
0000
0000
0001
1010
0001
0110
0000
1010
0000
0011
0000
,  // measure 16
0101
1000
0011
0000
1001
0000
0000
0010
0101
1000
0011
0000
0101
0000
0011
0000
,  // measure 17
0110
0001
1100
0000
0101
0000
0000
1000
0110
0001
1100
0000
0011
1010
0011
1010
,  // measure 18
0001
0010
0101
1000
0010
0101
1010
0011
,  // measure 19
1100
0000
0011
0000
0011
0000
1100
0010
0101
0000
1100
0010
0101
0010
1100
0000
,  // measure 20
0101
0000
1100
0000
0011
0000
0101
0010
1100
0000
0101
0010
1100
0010
0101
0000
,  // measure 21
1100
0000
0110
0000
0011
0000
1010
0100
0011
0000
1010
0100
0011
0100
1010
0000
,  // measure 22
1001
1001
0110
0110
0011
1100
1010
0101
,  // measure 23
0011
0000
1100
0000
1100
0000
0011
0100
1010
0000
0011
0100
1010
0100
0011
0000
,  // measure 24
1010
0000
0011
0000
1100
0000
1010
0100
0011
0000
1010
0100
0011
0100
1010
0000
,  // measure 25
0011
0000
0110
0000
1100
0000
0101
0010
1100
0000
0101
0010
1100
0010
0101
0000
,  // measure 26
1001
1001
0110
0110
1100
0011
0101
1010
,  // measure 27
1000
0010
0101
0010
1000
1100
0010
0100
,  // measure 28
1001
0000
1100
0000
0011
0000
1000
0100
0011
0000
1000
0100
0011
0100
0010
0000
,  // measure 29
1001
0000
0001
0100
1010
0100
0010
0000
1001
0000
1001
0000
0110
0000
1000
0000
,  // measure 30
1001
0000
0011
0000
1100
0000
0001
0010
1100
0000
0001
0010
1100
0010
0100
0000
,  // measure 31
1001
0000
1000
0010
0101
0010
0100
0000
1001
0000
1001
0000
0110
0000
0001
0000
,  // measure 32
1001
0000
1100
0000
0011
0000
1000
0100
0011
0000
1000
0100
0011
0100
0010
0000
,  // measure 33
1001
0000
0001
0100
1010
0100
0010
0000
1001
0000
1001
0000
0110
0000
1000
0000
,  // measure 34
1001
0000
0011
0000
1100
0000
0001
0010
1100
0000
0001
0010
1100
0010
0100
0000
,  // measure 35
1001
0000
1000
0010
0101
0010
0100
0000
1001
0000
1001
0000
0110
0000
0001
0000
,  // measure 36
1000
0110
0101
1000
0110
0101
1000
0001
,  // measure 37
1100
1001
0010
1100
1001
0100
1100
1001
,  // measure 38
0001
1100
1001
1000
1100
1001
0010
1100
,  // measure 39
1001
0010
1100
0110
0101
0011
0110
1010
,  // measure 40
0101
1010
0001
1010
0101
1000
0101
1100
,  // measure 41
0001
1100
0101
1000
0011
1010
0001
1010
,  // measure 42
0011
1000
0110
1001
0010
1001
0110
0001
,  // measure 43
1100
0101
0010
0101
1100
0010
1010
0011
,  // measure 44
0100
0011
1010
0100
1010
0011
0100
1001
,  // measure 45
0110
0100
0011
1100
0001
1010
1100
0001
,  // measure 46
1100
0000
0100
1000
0101
0000
0010
0000
1010
0000
1000
0100
0011
0100
0010
0100
,  // measure 47
1001
0000
0100
1000
0011
0000
0100
0000
0101
0000
0001
0100
1010
0100
0010
0100
,  // measure 48
1001
0000
1000
0010
0110
0000
0001
0000
1010
0000
1000
0100
0010
0001
0010
0100
,  // measure 49
1001
0000
0010
0100
1010
0000
0001
0000
0110
0000
0001
0010
0100
1000
0010
0100
,  // measure 50
0011
0000
0010
0001
1010
0000
0100
0000
0101
0000
0001
0010
1100
0010
0100
0010
,  // measure 51
1001
0000
0010
0001
1100
0000
0010
0000
1010
0000
1000
0010
0101
0010
0100
0010
,  // measure 52
1001
0000
0001
0100
0110
0000
1000
0000
0101
0000
0001
0010
0100
1000
0100
0010
,  // measure 53
1001
0000
0100
0010
0101
0000
1000
0000
0110
0000
1000
0100
0010
0001
0100
0010
,  // measure 54
1001
0110
0011
0110
1001
1000
0011
1000
,  // measure 55
1001
0101
1100
0101
1001
0001
1010
0001
,  // measure 56
2000
0100
0001
0100
0001
0100
0001
0100
,  // measure 57
3002
0000
0100
0000
1000
0000
0100
0000
1000
0000
0100
0000
1000
0000
0100
0003
,  // measure 58
0110
0000
1000
0100
0011
0000
0100
0000
0101
0000
1000
0001
1010
0100
0010
0100
,  // measure 59
1001
0000
0001
0010
1100
0000
0001
0000
0110
0000
0001
0100
0010
0100
0001
0010
,  // measure 60
1001
0000
1000
0100
0110
0000
0001
0000
1010
0000
0001
0010
1000
0010
0001
0100
,  // measure 61
1001
0000
1000
0001
0110
0000
1000
0000
0011
0000
1000
0010
0101
0010
0100
0010
,  // measure 62
0110
0000
0001
0010
1100
0000
0010
0000
1010
0000
0001
1000
0101
0010
0100
0010
,  // measure 63
1001
0000
1000
0100
0011
0000
1000
0000
0110
0000
1000
0010
0100
0010
1000
0100
,  // measure 64
1001
0000
0001
0010
0110
0000
1000
0000
0101
0000
1000
0100
0001
0100
1000
0010
,  // measure 65
1001
0000
0001
1000
0110
0000
0001
0000
1100
0000
0001
0100
1010
0100
0010
0100
,  // measure 66
1001
0000
1100
0000
1001
1001
1100
0101
0110
0000
1001
0000
0110
0110
1100
0101
,  // measure 67
1001
0000
0110
0000
1001
1001
1010
0011
0110
0000
1001
0000
0110
0110
0101
1100
,  // measure 68
0011
0000
1100
0000
0011
0011
0101
1100
0011
0000
1100
0000
0011
0011
1100
0101
,  // measure 69
0011
0000
1100
0000
0011
0011
0110
1001
0011
0000
1100
0000
0011
0011
1100
0101
,  // measure 70
1010
0000
0000
0000
0101
0000
0000
0000
1010
0000
1000
0100
0011
0000
1100
0000
0011
0000
0000
0000
1100
0000
0000
0000
0011
0000
1000
0100
0110
0000
1001
0000
,  // measure 71
1010
0000
0000
0000
0101
0000
0000
0000
1010
0000
0001
0100
0101
0000
1010
0000
1100
0000
0000
0000
0011
0000
0000
0000
1100
0000
1000
0100
0011
0000
1010
0000
,  // measure 72
0011
0000
0110
0000
1100
0001
1010
0001
1010
0101
1100
0000
0110
0000
0011
1000
,  // measure 73
0101
1000
0101
1010
1100
0000
1001
0000
1010
0001
1100
0001
1100
1010
0101
0000
,  // measure 74
1001
0000
0011
1000
0101
1000
0101
1010
1001
0000
0000
0000
0110
0000
0000
0000
,  // measure 75
1100
0101
1100
0101
1010
0000
0000
0000
0011
0000
0000
0000
0110
1001
1100
0011
,  // measure 76
1010
0000
0000
0000
0101
0000
0000
0000
1100
0011
0110
0011
1001
0000
0000
0000
,  // measure 77
0110
0000
1100
0101
1010
1100
1001
0110
,  // measure 78
1001
1010
1100
1010
0011
1100
0101
0110
,  // measure 79
1001
0110
0011
1100
1010
1100
0011
0101
,  // measure 80
1100
0000
0000
0000
0000
0000
0000
0000
0011
0000
0000
0000
0000
0000
0000
0000
1010
0000
0000
0000
0000
0000
0000
0000
1100
0000
0000
0000
0000
0000
0000
0000
0011
0000
0000
0000
0000
0000
0000
0000
0101
0000
0000
0000
0000
0000
0000
0000
0011
0000
0000
0000
1100
0000
0000
0000
0011
0000
1000
0100
0011
0000
1010
0000
,  // measure 81
1100
0000
0000
0000
0011
0000
0000
0000
1100
0000
0001
0100
1010
0000
0011
0000
1100
0000
0000
0000
0000
0000
0000
0000
0101
0000
0000
0000
0000
0000
0000
0000
,  // measure 82
1010
0000
0000
0000
0001
0000
0100
0000
1010
0000
0000
0000
0011
0000
0000
0000
1010
0000
0000
0000
0011
0000
0000
0000
0110
0000
0001
0010
0100
0010
0001
0000
,  // measure 83
1010
0000
1010
0000
1001
0000
0011
0000
0000
0000
1100
0110
0011
0000
1001
0000
,  // measure 84
1010
0000
0101
0000
0000
0000
1100
1001
0011
0000
1100
0000
0011
0000
0000
0000
,  // measure 85
0110
0000
0000
0000
1100
0000
0101
0000
1010
0000
1010
0000
1100
0001
1000
0001
,  // measure 86
1000
0100
0010
0001
1000
0010
0100
0001
1000
0100
0010
0001
1000
0010
0100
0001
2002
0000
0000
0000
0000
0000
0000
0000
0000
0000
0000
0000
0000
0000
0000
0000
,  // measure 87
0000
3003
0000
0000
0000
0000
0000
0000
;

//---------------dance-single - ----------------
#NOTES:
     dance-single:
     :
     Beginner:
     3:
     0.232,0.346,0.013,0.087,0.000,228.000,2.000,13.000,0.000,0.000:  // measure 1
1000
0000
0001
0000
,  // measure 2
1000
0000
0001
0000
,  // measure 3
0010
0000
0100
0000
,  // measure 4
0010
0000
0100
0000
,  // measure 5
0001
0000
0010
0000
,  // measure 6
0100
0000
0010
0000
,  // measure 7
1000
0000
0100
0000
,  // measure 8
0001
0001
1000
1000
,  // measure 9
0010
0000
0000
0000
,  // measure 10
1000
0000
0001
0000
,  // measure 11
1000
0000
0001
0000
,  // measure 12
1000
0000
0001
0000
,  // measure 13
0100
0000
0010
0000
,  // measure 14
0100
0000
0000
0000
,  // measure 15
0010
0000
0000
0000
,  // measure 16
1000
0000
0000
0000
,  // measure 17
0001
0000
0000
0000
,  // measure 18
0100
0000
0000
0000
,  // measure 19
0001
0000
0010
0000
,  // measure 20
0100
0100
1000
1000
,  // measure 21
0010
0000
0100
0000
,  // measure 22
0001
0001
0010
0010
,  // measure 23
0100
0000
0010
0000
,  // measure 24
0001
0001
1000
1000
,  // measure 25
0010
0000
0100
0000
,  // measure 26
0001
0000
1000
0000
,  // measure 27
0001
0000
0000
0000
,  // measure 28
0001
0010
0001
0010
,  // measure 29
0001
0000
1000
0000
,  // measure 30
0100
0010
0100
0010
,  // measure 31
0100
0000
0001
0000
,  // measure 32
1000
0100
0010
0100
,  // measure 33
1000
0000
0001
0000
,  // measure 34
0001
0100
0010
0100
,  // measure 35
0001
0000
0001
0000
,  // measure 36
0001
0000
0000
0000
,  // measure 37
2000
0000
0000
0000
,  // measure 38
0000
0000
0000
0000
,  // measure 39
0000
0000
0000
0000
,  // measure 40
3200
0000
0000
0000
,  // measure 41
0000
0000
0000
0000
,  // measure 42
0000
0000
0000
0000
,  // measure 43
0320
0000
0000
0000
,  // measure 44
0000
0000
0000
0000
,  // measure 45
0000
0000
0000
0000
,  // measure 46
0031
1000
1000
0001
,  // measure 47
0000
1000
0010
0100
,  // measure 48
0001
1000
1000
0001
,  // measure 49
0000
1000
0000
0010
,  // measure 50
1000
0001
0001
1000
,  // measure 51
0000
0001
0100
0010
,  // measure 52
1000
0001
0001
1000
,  // measure 53
0000
0001
1000
0010
,  // measure 54
0100
0100
0100
0100
,  // measure 55
0010
0010
0010
0010
,  // measure 56
1000
1000
1000
1000
,  // measure 57
0001
0001
0001
0001
,  // measure 58
1000
1000
1000
1000
,  // measure 59
0100
0100
0100
0100
,  // measure 60
0010
0010
0010
0010
,  // measure 61
0001
0001
0001
0001
,  // measure 62
0010
0010
0010
0010
,  // measure 63
1000
1000
1000
1000
,  // measure 64
0001
0001
0001
0001
,  // measure 65
0100
0100
0100
0100
,  // measure 66
2000
0000
0000
0000
,  // measure 67
3002
0000
0000
0000
,  // measure 68
0203
0000
0000
0000
,  // measure 69
0320
0000
0000
0000
,  // measure 70
2030
0000
3020
0000
,  // measure 71
0230
0000
0302
0000
,  // measure 72
1003
0000
0001
0000
0000
1000
0000
0001
,  // measure 73
0000
0000
1000
0000
0010
0000
0000
0100
,  // measure 74
0000
0001
0010
0000
1000
0000
0001
0000
,  // measure 75
1000
0100
0010
0000
0001
0000
1000
0001
,  // measure 76
0100
0000
0001
0000
1000
0100
0010
0000
,  // measure 77
0100
0000
1000
0000
0100
0000
1001
0100
,  // measure 78
1000
0000
0100
0000
0010
0010
0001
0000
,  // measure 79
0100
0000
0010
0010
1000
0000
0100
0000
,  // measure 80
1000
1000
0001
0000
0100
0000
1000
0000
,  // measure 81
0001
0000
1000
0000
,  // measure 82
0000
0000
0001
0000
,  // measure 83
1000
0000
0001
1000
0000
0100
0010
0000
,  // measure 84
0001
0100
0000
0010
1000
0000
0100
0000
,  // measure 85
0010
0001
1000
0010
,  // measure 86
0100
0001
2002
0000
,  // measure 87
0000
3003
0000
0000
;
