#TITLE:White Hair Little Swords Girl;
#SUBTITLE:;
#ARTIST:DJKurara;
#TITLETRANSLIT:;
#SUBTITLETRANSLIT:;
#ARTISTTRANSLIT:;
#CREDIT:;
#BANNER:white hair bn.png;
#BACKGROUND:white hair bg.png;
#LYRICSPATH:;
#CDTITLE:;
#MUSIC:White Hair Little Swords Girl.ogg;
#OFFSET:0.010;
#SAMPLESTART:112.922;
#SAMPLELENGTH:12.000;
#SELECTABLE:YES;
#BPMS:0.000=255.000;
#STOPS:;
#BGCHANGES:;
// cache tags:
#FIRSTBEAT:32.000;
#LASTBEAT:614.000;
#SONGFILENAME:Songs/SPEEEDCOOOORE 4/White Hair Little Swords Girl - [Aoreo]/White Hair Little Swords Girl.sm;
#HASMUSIC:1;
#HASBANNER:1;
#MUSICLENGTH:146.352;
// end cache tags

//---------------dance-single - Streamz----------------
#NOTES:
     dance-single:
     Streamz:
     Edit:
     23:
     1.000,1.000,0.089,0.184,1.000,1747.000,13.000,27.000,0.000,0.000:
0000
0000
0000
0000
,
0000
0000
0000
0000
,
0000
0000
0000
0000
,
0000
0000
0000
0000
,
0000
0000
0000
0000
,
0000
0000
0000
0000
,
0000
0000
0000
0000
,
0000
0000
0000
0000
,
1001
0000
0000
1000
0000
0001
0010
0100
,
1000
0001
0000
0100
0001
1000
0100
1000
,
0010
0100
0000
0010
0100
0001
0010
0100
,
1000
0001
0100
0000
0001
0010
0100
1000
,
0001
0100
0000
0001
1000
0100
0010
0001
,
1000
0100
0000
1000
0010
0100
0001
0010
,
0001
1000
0000
0100
1000
0001
0100
0000
,
0000
0000
0000
0000
0000
0000
0000
0000
0000
0000
0000
0000
0000
0000
0000
0000
0001
0000
0000
0000
0000
0000
0000
0000
0000
0000
0000
0000
0000
0000
0000
0000
0000
0000
0000
0000
0000
0000
0000
0000
0000
0000
0000
0000
0000
0000
0000
0000
0000
2000
0000
0000
0000
0000
0000
0000
3000
0000
0000
0000
0000
0000
0000
0000
,
1001
0000
0001
0100
0010
0100
0001
0010
,
0100
1000
0000
0001
0100
0001
0010
0001
,
1000
0100
0000
1000
0010
0100
0010
1000
,
0001
0010
0000
0001
0100
0010
2000
3000
,
1001
0000
0001
0010
0001
1000
0100
1000
,
0010
0100
0000
0010
0100
0001
0010
0100
,
1000
0001
0000
1000
0100
1000
0010
0100
,
0001
0000
1000
0000
0000
0000
0001
0000
1000
0100
1000
0001
0100
0000
0000
0000
,
0101
0000
0000
0000
,
1010
0000
0000
0000
0000
0000
1000
0100
,
0110
0000
0000
0000
0000
0000
0000
0000
0000
0000
0000
0000
0000
0000
0000
0000
0000
0000
0000
0000
0000
0000
0000
0000
0000
0000
0000
0000
0000
0000
0000
0000
0000
0000
0000
0000
0000
0000
0000
0000
0000
0000
0000
0000
0000
0000
0000
0000
0000
0020
0000
0000
0000
0000
0000
0000
0030
0000
0000
0000
0000
0000
0000
0000
,
0011
0000
0000
0000
0000
0000
0000
0000
0001
0100
0001
0010
0100
0000
1000
0000
,
0001
0000
1001
0000
,
1010
0000
0000
0000
0110
0000
0100
0001
,
1000
0000
0000
0000
0000
0000
0000
0000
0000
0000
0000
0000
0000
0000
0000
0000
0100
0000
0000
0000
0000
0000
0000
0000
1000
0000
0000
0000
0000
0000
0000
0000
0020
0030
0000
0000
0000
0000
0000
0000
0200
0000
0300
0000
0000
0000
0000
0000
0002
0000
0000
0000
0003
0000
0000
0000
2000
0000
0000
0000
0000
0000
0000
0000
,
3001
0000
0100
0000
0001
0100
0001
0000
1000
0100
0010
0100
1000
0010
0100
0001
,
1000
0100
1000
0001
0100
0010
0100
0001
1000
0001
0010
0100
1000
0001
0100
0001
,
1000
0100
1000
0001
1000
0010
0100
0010
1000
0001
0010
0001
1000
0100
0010
0100
,
1000
0001
0010
0001
1000
0010
0100
0010
1000
0001
1000
0100
0010
0001
1000
0010
,
1000
0001
0010
0100
0010
0001
1000
0010
1000
0100
0010
0001
1000
0001
0100
0001
,
1000
0010
0100
0010
1000
0001
1000
0010
0100
0001
1000
0100
0010
0100
1000
0001
,
1000
0010
0100
0010
1000
0001
0010
0001
1000
0100
0010
0001
1000
0100
1000
0001
,
0010
0100
0010
0001
1000
0010
1000
0001
0100
0001
1000
0100
0010
0001
1000
0010
,
1000
0001
0100
0010
0100
0001
1000
0001
0010
0100
1000
0001
1000
0010
0100
0001
,
0010
0100
1000
0001
0100
0001
1000
0010
1000
0001
0100
0001
1000
0100
0010
0001
,
1000
0010
1000
0001
0100
0010
0100
0001
1000
0100
0010
0100
1000
0001
0100
0010
,
0100
0001
1000
0100
0010
0001
1000
0001
0100
0010
0100
0001
1000
0001
0010
0100
,
1000
0001
0100
0001
1000
0010
0100
0010
1000
0001
0010
0100
1000
0001
0010
0001
,
1000
0010
1000
0001
0100
0001
1000
0001
0100
0010
0100
0001
1000
0100
1000
0001
,
1000
0010
0100
0010
1000
0001
0100
0001
1000
0100
0010
0001
1000
0100
1000
0001
,
0010
0001
0100
0010
1000
0100
0010
0001
1000
0100
1000
0010
0100
0001
0010
0100
,
1000
0000
0000
0000
0000
0002
0000
1003
,
0020
0000
0000
0000
1030
0001
0100
0001
0010
0100
0010
0001
1000
0010
0100
0010
,
1000
0001
0100
0001
1000
0100
0010
0100
1000
0001
0010
0001
1000
0100
0010
0001
,
1000
0001
0100
0010
0100
0001
1000
0010
0100
0010
1000
0001
0100
0001
1000
0100
,
1000
0001
0010
0100
1000
0001
0010
0001
1000
0010
1000
0001
1000
0010
0100
0001
,
0100
0010
1000
0001
0010
0001
1000
0100
0010
0100
1000
0001
0010
0001
1000
0010
,
0100
0010
1000
0001
0100
0001
1000
0010
1000
0001
0100
0001
1000
0100
0010
0001
,
1000
0001
0100
0001
1000
0010
1000
0001
0100
0001
1000
0100
0010
0001
1000
0100
,
1000
0001
0100
0010
0100
0001
1000
0001
0010
0100
1000
0010
1000
0001
0100
0010
,
1000
0010
0100
0001
0100
0001
1000
0010
0100
0010
1000
0001
0010
0100
0010
0001
,
1000
0100
1000
0001
0100
0001
1000
0001
0100
0010
0100
0001
1000
0100
1000
0001
,
1000
0010
0100
0010
1000
0001
0010
0100
0010
0001
1000
0100
0010
0001
1000
0001
,
0100
0010
0100
0001
1000
0001
0100
0010
1000
0001
0010
0100
1000
0001
0100
0010
,
1000
0100
0010
0001
0100
0001
1000
0100
1000
0010
0100
0001
2000
0000
3000
0000
,
0001
0010
0001
1000
0100
0010
0001
0100
0001
1000
0100
1000
0020
0000
0030
0000
,
1000
0100
0010
0001
0100
0001
1000
0010
0100
0001
0010
0100
1000
0001
0100
0001
,
2000
3000
0000
0000
0000
0000
0000
0000
,
0001
0100
0001
1000
0100
0010
0100
1000
0001
0010
0001
1000
0100
1000
0001
0100
,
0010
0100
0001
1000
0100
0010
0001
1000
0001
0100
0010
0100
0001
1000
0100
1000
,
0001
1000
0010
0100
0010
1000
0001
0010
0100
0010
0001
1000
0010
1000
0001
0100
,
0010
0100
0001
1000
0010
1000
0001
0100
0001
1000
0100
0010
0001
0100
0001
1000
,
0010
0100
0010
1000
0001
1000
0010
0100
0010
1000
0001
0010
0100
0010
0001
0100
,
0010
1000
0010
0100
0001
1000
0100
1000
0001
0100
0001
0010
0100
1000
0001
0100
,
0001
1000
0100
0010
0100
1000
0001
0010
0001
1000
0100
0010
0001
0100
0010
1000
,
0001
0100
0010
0100
0001
1000
0100
0010
0001
1000
0010
1000
0001
0100
0001
0010
,
0100
1000
0010
1000
0001
0100
0010
0100
0001
1000
0001
0010
0100
0010
0001
1000
,
0100
1000
0001
1000
0010
0100
0010
1000
0001
0100
0010
0100
0001
1000
0100
0010
,
0100
1000
0001
0010
0001
1000
0010
0100
0010
1000
0001
0010
0100
1000
0010
1000
,
0001
0100
0010
0100
0001
1000
0100
1000
0001
0100
0010
0100
0001
1000
0100
0010
,
0100
1000
0010
0100
0010
1000
0001
0100
0001
1000
0010
0100
0010
1000
0001
1000
,
0100
0010
0001
0100
0001
1000
0010
0100
0010
1000
0001
0100
0010
0100
0001
1000
,
0100
0010
0100
1000
0001
0010
0001
1000
0010
1000
0001
0100
0010
0100
0001
1000
,
0001
0100
0010
0100
0001
1000
0010
1000
0001
0010
0100
1000
0001
0100
0010
0100
,
0001
1000
0100
0010
0100
1000
0001
0010
0001
1000
0010
0100
0010
1000
0001
0100
,
0001
1000
0100
0010
0001
0100
0001
1000
0010
0100
0010
1000
0001
0100
0010
0100
,
0001
1000
0100
0010
0100
1000
0001
0100
0010
0100
0001
1000
0100
0010
0001
0100
,
0001
1000
0010
0100
0010
1000
0001
0010
0100
0010
0001
1000
0100
1000
0010
0100
,
0001
0100
0010
1000
0001
0100
0010
0100
0001
1000
0100
0010
0100
1000
0010
0100
,
0001
1000
0001
0100
0010
0100
0001
1000
0001
0100
0010
0100
0001
0010
0100
1000
,
0001
0100
0010
0100
0001
1000
0100
0010
0001
0100
0001
1000
0010
0100
0010
1000
,
0001
0100
0001
1000
0010
0100
0010
1000
0001
0100
0001
1000
0100
0010
0001
0100
,
0001
1000
0010
0100
0010
1000
0001
0100
0001
1000
0100
0010
0001
0100
0001
1000
,
0010
0100
0010
1000
0001
1000
0010
0100
0001
1000
0100
0010
0100
1000
0010
0100
,
0010
1000
0001
0010
0100
1000
0001
0010
0001
1000
0100
1000
0001
1000
0010
0100
,
0001
1000
0100
0010
0100
1000
0001
0100
0010
0100
0001
1000
0010
0100
0001
1000
,
0001
0100
0010
0100
0001
1000
0100
0010
0001
1000
0010
1000
0001
0100
0010
0100
,
0001
1000
0001
0100
0010
0100
0001
1000
0100
1000
0001
1000
0010
0100
0001
1000
,
0001
0100
0010
0100
0001
1000
0001
0100
0010
0100
0001
1000
0100
1000
0001
0100
,
0001
1000
0001
0100
0010
0100
0001
1000
0100
1000
0001
1000
0010
0100
0010
1000
,
0002
0000
0000
0000
,
0000
0000
0000
0000
,
0003
0000
0000
0000
,
0000
0000
0000
0000
,
0000
0000
0000
0000
,
0000
0000
0000
0000
,
0000
0000
0000
0000
,
0000
0000
0000
0000
,
2000
3000
0000
0000
0001
0000
0000
0000
1000
0000
0000
0000
0010
0000
0000
0000
1000
0000
0000
0000
0001
0000
0000
0000
0010
0000
0000
0000
0100
0000
0000
0000
,
0010
0001
0100
0010
0100
0001
1000
0100
,
0010
0100
1000
0010
0100
0001
1000
0100
,
1000
0001
0010
0001
0100
0001
1000
0010
,
0200
0300
0000
0000
0010
0000
0000
0000
1000
0000
0000
0000
0100
0000
0000
0000
0010
0000
0000
0000
0001
0000
0000
0000
1000
0000
0000
0000
0001
0000
0000
0000
,
0100
0010
0100
0001
1000
0100
0010
0100
,
1000
0010
0100
0001
0100
0010
0100
0001
,
0010
0100
1000
0001
1000
0010
1000
0001
,
0020
0030
0000
0000
0001
0000
0000
0000
0100
0000
0000
0000
0001
0000
0000
0000
0010
0000
0000
0000
0100
0000
0000
0000
1000
0000
0000
0000
0001
0000
0000
0000
,
1000
0010
0100
0010
1000
0001
1000
0100
,
0020
0030
0000
0000
0001
0000
0000
0000
1000
0000
0000
0000
0010
0000
0000
0000
0100
0000
0000
0000
0010
0000
0000
0000
1000
0000
0000
0000
0001
0000
0000
0000
,
0100
0010
0100
0001
0010
0100
1000
0001
,
0020
0030
0000
0000
0001
0000
0000
0000
1000
0000
0000
0000
0001
0000
0000
0000
0010
0000
0000
0000
0100
0000
0000
0000
1000
0000
0000
0000
0001
0000
0000
0000
,
0020
0030
0000
0000
0001
0000
0000
0000
0100
0000
0000
0000
0001
0000
0000
0000
0010
0000
0000
0000
0100
0000
0000
0000
1000
0000
0000
0000
0001
0000
0000
0000
,
1000
0100
1000
0010
0100
0001
1000
0100
0010
0001
0100
0010
1000
0001
0100
0001
,
2000
0000
0000
0000
0000
0000
0000
0000
0000
0000
0000
3000
0002
0000
0003
0000
,
1000
0010
0100
0010
1000
0001
0100
0001
1000
0100
0010
0001
0100
0001
1000
0010
,
0100
0010
1000
0001
0100
0001
1000
0100
0010
0100
1000
0001
0010
0001
0100
0010
,
1000
0001
0100
0001
1000
0100
1000
0001
0100
0001
1000
0010
0100
0010
1000
0100
,
0010
0001
1000
0001
0100
0010
0100
0001
1000
0100
0010
0100
1000
0001
0010
0100
,
1000
0010
1000
0001
0100
0001
1000
0100
0010
0100
1000
0001
0100
0001
1000
0010
,
0100
0010
1000
0001
0100
0001
1000
0100
0010
0001
1000
0100
1000
0010
0100
0001
,
1000
0001
0100
0010
0100
0001
1000
0100
1000
0001
0010
0100
1000
0001
1000
0010
,
0100
0001
1000
0100
0010
0001
0100
0001
1000
0010
1000
0100
0010
0001
1000
0010
,
0100
0001
1000
0001
0100
0010
0100
0001
1000
0100
0010
0001
0100
0001
1000
0010
,
0100
0010
1000
0001
0100
0001
1000
0100
0010
0100
1000
0010
0100
0010
1000
0001
,
0100
0001
1000
0100
0010
0001
1000
0010
1000
0001
0100
0001
1000
0100
0010
0001
,
0100
0001
1000
0010
0100
0010
1000
0001
0100
0001
1000
0100
0010
0100
1000
0001
,
0010
0001
1000
0010
0100
0010
1000
0001
0010
0100
1000
0010
1000
0001
0100
0001
,
1000
0100
1000
0001
0100
0001
1000
0100
0010
0001
0100
0001
1000
0100
0010
0001
,
0100
0001
1000
0010
1000
0001
0100
0000
0001
0000
0010
0000
0100
0000
1000
0001
,
1000
0000
0000
0000
0000
0000
0000
0000
0000
0000
0000
0000
0000
0000
0000
0000
0001
0000
0000
0000
0000
0000
0000
0000
1000
0000
0000
0000
0000
0000
0000
0000
0100
0000
0000
0000
0000
0000
0000
0000
0040
0000
0000
0000
0030
0000
0000
0000
0100
0000
0000
0000
0000
0000
0000
0000
4000
3000
0000
0000
0000
0000
0000
0000
,
0001
0100
0001
1000
0010
0100
0010
1000
0001
1000
0100
0010
0001
0100
0001
1000
,
0010
1000
0001
0010
0100
0010
0001
1000
0100
1000
0001
0100
0001
1000
0010
0100
,
0010
1000
0001
0100
0001
1000
0100
0010
0100
1000
0010
1000
0001
0100
0001
1000
,
0010
0100
0010
1000
0001
0100
0001
1000
0100
0010
0001
0100
0001
1000
0010
0100
,
0010
1000
0001
1000
0010
0100
0001
1000
0001
0010
0100
0010
0001
0100
0001
1000
,
0010
0100
0010
1000
0001
1000
0100
0010
0001
1000
0010
1000
0001
0010
0100
1000
,
0010
1000
0001
0100
0010
0100
0001
1000
0100
0010
0100
1000
0010
0100
0001
1000
,
0001
0000
0400
0300
0001
0000
0400
0300
0020
0030
2000
3000
0200
0300
0020
0030
,
0001
0100
0001
1000
0100
0010
0100
1000
0001
0100
0010
0100
0001
1000
0100
0010
,
0001
1000
0001
0100
0010
0100
0001
1000
0100
1000
0001
0010
0100
1000
0010
1000
,
0001
0100
0001
1000
0100
0010
0001
1000
0001
0100
0010
0100
0001
0010
0100
1000
,
0001
0100
0010
0100
0001
1000
0100
0010
0100
1000
0010
0100
0001
1000
0001
0100
,
0010
1000
0001
1000
0100
0010
0001
1000
0001
0100
0010
0100
0001
1000
0100
0010
,
0001
0100
0010
0100
0001
1000
0001
0010
0100
0010
0001
0100
0010
1000
0010
0100
,
0001
1000
0100
0010
0001
1000
0010
0100
0001
1000
0001
0100
0010
0100
0001
1000
,
0100
1000
0001
0100
0010
1000
0001
0000
0000
0000
1001
0000
0000
0000
1000
0000
,
0001
0000
0000
0011
0000
0010
0100
1000
,
2002
0000
3003
0000
;

//---------------dance-single - J. Nero----------------
#NOTES:
     dance-single:
     J. Nero:
     Challenge:
     21:
     1.000,1.000,0.102,0.266,1.000,1406.000,15.000,39.000,0.000,0.000:
0000
0000
0000
0000
,
0000
0000
0000
0000
,
0000
0000
0000
0000
,
0000
0000
0000
0000
,
0000
0000
0000
0000
,
0000
0000
0000
0000
,
0000
0000
0000
0000
,
0000
0000
0000
0000
,
1001
0000
0000
1000
0000
0001
0010
0100
,
1000
0001
0000
0100
0001
1000
0100
1000
,
0010
0100
0000
0010
0100
0001
0010
0100
,
1000
0001
0100
0000
0001
0010
0100
1000
,
0001
0100
0000
0001
1000
0100
0010
0001
,
1000
0100
0000
1000
0010
0100
0001
0010
,
0001
1000
0000
0100
1000
0001
0100
0000
,
0000
0000
0000
0000
0000
0000
0000
0000
0000
0000
0000
0000
0000
0000
0000
0000
0001
0000
0000
0000
0000
0000
0000
0000
0000
0000
0000
0000
0000
0000
0000
0000
0000
0000
0000
0000
0000
0000
0000
0000
0000
0000
0000
0000
0000
0000
0000
0000
0000
2000
0000
0000
0000
0000
0000
0000
3000
0000
0000
0000
0000
0000
0000
0000
,
1001
0000
0001
0100
0010
0100
0001
0010
,
0100
1000
0000
0001
0100
0001
0010
0001
,
1000
0100
0000
1000
0010
0100
0010
1000
,
0001
0010
0000
0001
0100
0010
2000
3000
,
1001
0000
0001
0010
0001
1000
0100
1000
,
0010
0100
0000
0010
0100
0001
0010
0100
,
1000
0001
0000
1000
0100
1000
0010
0100
,
0001
0000
1000
0000
0000
0000
0001
0000
1000
0100
1000
0001
0100
0000
0000
0000
,
0101
0000
0000
0000
,
1010
0000
0000
0000
0000
0000
1000
0100
,
0110
0000
0000
0000
0000
0000
0000
0000
0000
0000
0000
0000
0000
0000
0000
0000
0000
0000
0000
0000
0000
0000
0000
0000
0000
0000
0000
0000
0000
0000
0000
0000
0000
0000
0000
0000
0000
0000
0000
0000
0000
0000
0000
0000
0000
0000
0000
0000
0000
0020
0000
0000
0000
0000
0000
0000
0030
0000
0000
0000
0000
0000
0000
0000
,
0011
0000
0000
0000
0000
0000
0000
0000
0001
0100
0001
0010
0100
0000
1000
0000
,
0001
0000
1001
0000
,
1010
0000
0000
0000
0110
0000
0100
0001
,
1000
0000
0000
0000
0000
0000
0000
0000
0000
0000
0000
0000
0000
0000
0000
0000
0100
0000
0000
0000
0000
0000
0000
0000
1000
0000
0000
0000
0000
0000
0000
0000
0020
0030
0000
0000
0000
0000
0000
0000
0200
0000
0300
0000
0000
0000
0000
0000
0002
0000
0000
0000
0003
0000
0000
0000
2000
0000
0000
0000
0000
0000
0000
0000
,
3001
0000
0100
0000
0001
0100
0001
0000
1000
0100
0010
0100
1000
0010
0100
0001
,
1000
0001
0100
0010
0100
0001
1000
0100
,
0010
0001
1000
0010
0100
0010
1000
0001
,
0010
0100
0010
0001
0100
0010
0100
0001
,
1000
0100
0010
0001
0100
0010
0000
0100
,
0001
0010
0100
1000
0010
1000
0001
0100
,
0010
0100
0001
1000
0100
0010
0100
1000
,
0010
0000
0100
0000
0010
0000
1000
0000
0001
0000
0100
0000
0001
1000
0001
0010
,
0100
0000
2000
3000
,
0001
0100
0001
0010
0100
1000
0010
0100
,
0010
1000
0001
0100
0001
0010
0100
1000
,
0010
0100
0010
1000
0100
0010
0001
0100
,
0001
0000
1000
0000
0001
0010
0100
0000
1000
0000
0010
0000
0400
0300
0004
0003
,
0010
0100
1000
0010
0100
0001
1000
0001
,
0010
0100
1000
0001
0100
0010
0100
0001
,
1000
0001
0100
0010
1000
0100
0010
0001
1000
0100
1000
0010
0100
0001
0010
0100
,
1000
0000
0000
0000
0000
0002
0000
1003
,
0020
0000
0000
0000
1030
0001
0100
0001
0010
0100
0010
0001
1000
0000
0001
0000
,
0100
0010
0100
0001
1000
0100
0010
0100
,
1000
0010
0100
0010
1000
0100
0010
0001
,
1000
0001
0100
0010
0100
0001
1000
1000
,
0010
0100
0001
0010
0100
0010
0001
0100
,
0010
1000
0100
1000
0001
0010
0100
1000
,
0001
0000
0100
0000
0010
0000
0100
0000
0001
0000
1000
0000
0400
0300
0040
0030
,
0001
0000
0000
0000
1000
0001
1000
0000
0000
0000
0001
0100
0040
0000
0030
0000
,
1000
0001
0100
0010
0100
0001
0010
0100
,
0010
0001
1000
0010
0100
0010
1000
0001
,
0010
0100
1000
0001
0100
0010
0100
0001
,
1000
0000
0100
0000
0010
0000
0001
0000
0400
0300
0040
0030
0400
0300
0040
0030
,
1000
0100
0010
0001
0100
0001
1000
0100
1000
0010
0100
0001
2000
0000
3000
0000
,
0001
0010
0001
1000
0100
0010
0001
0100
0001
1000
0100
1000
0020
0000
0030
0000
,
1000
0100
0010
0001
0100
0001
1000
0010
0100
0001
0010
0100
1000
0001
0100
0001
,
2000
3000
0000
0000
0000
0000
0000
0000
,
0001
0100
0001
1000
0100
0010
0100
1000
0001
0010
0001
1000
0100
1000
0001
0100
,
0010
0100
0001
1000
0100
0010
0001
1000
0001
0100
0010
0100
0001
1000
0100
1000
,
0001
1000
0010
0100
0010
1000
0001
0010
0100
0010
0001
1000
0010
1000
0001
0100
,
0010
0100
0001
1000
0010
1000
0001
0100
0001
1000
0100
0010
0001
0100
0001
1000
,
0010
0100
0010
1000
0001
1000
0010
0100
0010
1000
0001
0010
0100
0010
0001
0100
,
0010
1000
0010
0100
0001
1000
0100
1000
0001
0100
0001
0010
0100
1000
0001
0100
,
0001
1000
0100
0010
0100
1000
0001
0010
0001
1000
0100
0010
0001
0100
0010
1000
,
0002
0000
0000
0000
0000
0000
0000
0000
2003
0000
0000
0000
0000
0000
0000
0000
3002
0000
0000
0000
0000
0000
0000
0000
2003
0000
0000
0000
0000
0000
0000
0000
3002
0000
0000
0000
0000
0000
0000
0000
0003
0000
0000
0000
0000
0000
0000
0000
0000
0200
0000
0000
0000
0000
0000
0000
0300
0000
0000
0000
0000
0000
0000
0000
,
0001
1000
0010
1000
0001
0100
0010
0100
0001
1000
0001
0010
0100
0010
0001
1000
,
0100
1000
0001
1000
0010
0100
0010
1000
0001
0100
0010
0100
0001
1000
0100
0010
,
0100
1000
0001
0010
0001
1000
0010
0100
0010
1000
0001
0010
0100
1000
0010
1000
,
0001
0100
0010
0100
0001
1000
0100
1000
0001
0100
0010
0100
0001
1000
0100
0010
,
0100
1000
0010
0100
0010
1000
0001
0100
0001
1000
0010
0100
0010
1000
0001
1000
,
0100
0010
0001
0100
0001
1000
0010
0100
0010
1000
0001
0100
0010
0100
0001
1000
,
0100
0010
0100
1000
0001
0010
0001
1000
0010
1000
0001
0100
0010
0100
0001
1000
,
0001
0000
1000
0010
1000
0000
0001
0000
,
1000
0001
0100
0001
0010
0100
1000
0001
1000
0001
0100
0010
0100
0001
1000
0010
,
1000
0001
0010
0100
1000
0010
1000
0001
0100
0010
0100
0001
1000
0010
0100
0010
,
1000
0001
0010
0100
0010
0001
1000
0010
0100
0010
1000
0001
0010
0100
1000
0010
,
1000
0001
0100
0010
0100
0001
1000
0100
0010
0100
1000
0001
0010
0001
0100
0010
,
1000
0010
0100
0001
1000
0010
0100
0010
1000
0001
0010
0100
0010
0001
0100
0010
,
1000
0001
1000
0010
0100
0010
1000
0001
1000
0010
0100
0010
1000
0100
0010
0001
,
1000
0010
0100
0010
1000
0001
0010
0100
1000
0010
1000
0001
0100
0010
0100
0001
,
2000
0000
0000
0000
3001
0000
0100
0000
0001
0000
1000
0000
0001
1000
0100
0010
,
0001
1000
0010
0100
0010
1000
0001
0100
0001
1000
0100
0010
0001
0100
0001
1000
,
0010
0100
0010
1000
0001
1000
0010
0100
0001
1000
0100
0010
0100
1000
0010
0100
,
0010
1000
0001
0010
0100
1000
0001
0010
0001
1000
0100
1000
0001
1000
0010
0100
,
0001
1000
0100
0010
0100
1000
0001
0100
0010
0100
0001
1000
0001
0000
1000
0000
,
0010
0000
1000
0001
0100
0000
0001
0010
,
0100
0000
1000
0001
0100
0000
0001
1000
,
0100
0000
0000
1000
0001
0100
0000
0001
,
1000
0000
0000
0100
0010
0000
0001
1000
,
0002
0000
0000
0000
,
0000
0000
0000
0000
,
0003
0000
0000
0000
,
0000
0000
0000
0000
,
0000
0000
0000
0000
,
0000
0000
0000
0000
,
0000
0000
0000
0000
,
0000
0000
0000
0000
,
2000
3000
0000
0000
0001
0000
0000
0000
1000
0000
0000
0000
0010
0000
0000
0000
1000
0000
0000
0000
0001
0000
0000
0000
0010
0000
0000
0000
0100
0000
0000
0000
,
0010
0001
0100
0010
0100
0001
1000
0100
,
0010
0100
1000
0010
0100
0001
1000
0100
,
1000
0001
0010
0001
0100
0001
1000
0010
,
0200
0300
0000
0000
0010
0000
0000
0000
1000
0000
0000
0000
0100
0000
0000
0000
0010
0000
0000
0000
0001
0000
0000
0000
1000
0000
0000
0000
0001
0000
0000
0000
,
0100
0010
0100
0001
1000
0100
0010
0100
,
1000
0010
0100
0001
0100
0010
0100
0001
,
0010
0100
1000
0001
1000
0010
1000
0001
,
0020
0030
0000
0000
0001
0000
0000
0000
0100
0000
0000
0000
0001
0000
0000
0000
0010
0000
0000
0000
0100
0000
0000
0000
1000
0000
0000
0000
0001
0000
0000
0000
,
1000
0010
0100
0010
1000
0001
1000
0100
,
0020
0030
0000
0000
0001
0000
0000
0000
1000
0000
0000
0000
0010
0000
0000
0000
0100
0000
0000
0000
0010
0000
0000
0000
1000
0000
0000
0000
0001
0000
0000
0000
,
0100
0010
0100
0001
0010
0100
1000
0001
,
0020
0030
0000
0000
0001
0000
0000
0000
1000
0000
0000
0000
0001
0000
0000
0000
0010
0000
0000
0000
0100
0000
0000
0000
1000
0000
0000
0000
0001
0000
0000
0000
,
0020
0030
0000
0000
0001
0000
0000
0000
0100
0000
0000
0000
0001
0000
0000
0000
0010
0000
0000
0000
0100
0000
0000
0000
1000
0000
0000
0000
0001
0000
0000
0000
,
1000
0100
1000
0010
0100
0001
1000
0100
0010
0001
0100
0010
1000
0001
0100
0001
,
2000
0000
0000
0000
0000
0000
0000
0000
0000
0000
0000
3000
0002
0000
0003
0000
,
1000
0010
0100
0010
1000
0001
0100
0001
1000
0100
0010
0001
0100
0001
1000
0010
,
0100
0010
1000
0001
0100
0001
1000
0100
0010
0100
1000
0001
0010
0001
0100
0010
,
1000
0001
0100
0001
1000
0100
1000
0001
0100
0001
1000
0010
0100
0010
1000
0100
,
0010
0001
1000
0001
0100
0010
0100
0001
1000
0100
0010
0100
1000
0001
0010
0100
,
1000
0010
1000
0001
0100
0001
1000
0100
0010
0100
1000
0001
0100
0001
1000
0010
,
0100
0010
1000
0001
0100
0001
1000
0100
0010
0001
1000
0100
1000
0010
0100
0001
,
1000
0001
0100
0010
0100
0001
1000
0100
1000
0001
0010
0100
1000
0001
1000
0010
,
0100
0000
0000
0000
0004
0003
0000
0000
1000
0000
0001
0000
0020
0030
0200
0300
,
1000
0010
1000
0001
0100
0010
0100
0001
1000
0100
0010
0001
0100
0001
1000
0010
,
0100
0010
1000
0001
0100
0001
1000
0100
0010
0100
1000
0010
0100
0010
1000
0001
,
0100
0001
1000
0100
0010
0001
1000
0010
1000
0001
0100
0001
1000
0100
0010
0001
,
0100
0001
1000
0010
0100
0010
1000
0001
0100
0001
1000
0100
0010
0100
1000
0001
,
0010
0001
1000
0010
0100
0010
1000
0001
0010
0100
1000
0010
1000
0001
0100
0001
,
1000
0100
1000
0001
0100
0001
1000
0100
0010
0001
0100
0001
1000
0100
0010
0001
,
0100
0001
1000
0010
1000
0001
0100
0000
0001
0000
0010
0000
0100
0000
1000
0001
,
1000
0000
0000
0000
0000
0000
0000
0000
0000
0000
0000
0000
0000
0000
0000
0000
0001
0000
0000
0000
0000
0000
0000
0000
1000
0000
0000
0000
0000
0000
0000
0000
0100
0000
0000
0000
0000
0000
0000
0000
0040
0000
0000
0000
0030
0000
0000
0000
0100
0000
0000
0000
0000
0000
0000
0000
4000
3000
0000
0000
0000
0000
0000
0000
,
0001
0100
0001
1000
0010
0100
0010
1000
0001
1000
0100
0010
0001
0100
0001
1000
,
0010
1000
0001
0010
0100
0010
0001
1000
0100
1000
0001
0100
0001
1000
0010
0100
,
0010
1000
0001
0100
0001
1000
0100
0010
0100
1000
0010
1000
0001
0100
0001
1000
,
0010
0100
0010
1000
0001
0100
0001
1000
0100
0010
0001
0100
0001
1000
0010
0100
,
0010
1000
0001
1000
0010
0100
0001
1000
0001
0010
0100
0010
0001
0100
0001
1000
,
0010
0100
0010
1000
0001
1000
0100
0010
0001
1000
0010
1000
0001
0010
0100
1000
,
0010
1000
0001
0100
0001
0000
1000
0000
0100
0000
0010
0000
0002
0003
2000
0000
,
3001
0000
0400
0300
0001
0000
0400
0300
0020
0030
2000
3000
0200
0300
0020
0030
,
0001
0100
0001
1000
0100
0010
0100
1000
0001
0100
0010
0100
0001
1000
0100
0010
,
0001
1000
0001
0100
0010
0100
0001
1000
0001
0000
0100
0000
0010
0000
1000
0000
,
0001
0100
0001
1000
0100
0010
0001
1000
0001
0100
0010
0100
0001
0010
0100
1000
,
0001
0100
0010
0100
0001
1000
0100
0010
0001
0000
0400
0300
0000
0000
0001
0000
,
0010
0000
0100
0000
0000
0000
1000
0000
0001
0100
0010
0100
0001
0000
0100
0000
,
0001
0100
0010
0100
0001
1000
0001
0010
0100
0000
4000
3000
0010
0000
0400
0300
,
0010
0000
0000
0000
0000
0000
0000
0000
4000
0000
3000
0000
0000
0000
0000
0000
0100
0000
0000
0000
0000
0000
0000
0000
0040
0030
0000
0000
0000
0000
0000
0000
0001
0000
0000
0000
0000
0000
0000
0000
1000
0000
0000
0000
0000
0000
0000
0000
0010
0000
0000
0000
0000
0000
0000
0000
0100
0000
0000
0000
0000
0000
0000
0000
,
0010
1000
0001
0011
0000
0110
0000
1000
,
1001
0000
0000
0011
0000
0010
0100
1000
,
2002
0000
3003
0000
;

//---------------dance-single - J. Nero----------------
#NOTES:
     dance-single:
     J. Nero:
     Medium:
     17:
     1.000,1.000,0.102,0.321,0.584,1108.000,15.000,47.000,0.000,0.000:
0000
0000
0000
0000
,
0000
0000
0000
0000
,
0000
0000
0000
0000
,
0000
0000
0000
0000
,
0000
0000
0000
0000
,
0000
0000
0000
0000
,
0000
0000
0000
0000
,
0000
0000
0000
0000
,
1001
0000
0000
1000
0000
0001
0010
0100
,
1000
0001
0000
0100
0001
1000
0100
1000
,
0010
0100
0000
0010
0100
0001
0010
0100
,
1000
0001
0100
0000
0001
0010
0100
1000
,
0001
0100
0000
0001
1000
0100
0010
0001
,
1000
0100
0000
1000
0010
0100
0001
0010
,
0001
1000
0000
0100
1000
0001
0100
0000
,
0000
0000
0000
0000
0000
0000
0000
0000
0000
0000
0000
0000
0000
0000
0000
0000
0001
0000
0000
0000
0000
0000
0000
0000
0000
0000
0000
0000
0000
0000
0000
0000
0000
0000
0000
0000
0000
0000
0000
0000
0000
0000
0000
0000
0000
0000
0000
0000
0000
2000
0000
0000
0000
0000
0000
0000
3000
0000
0000
0000
0000
0000
0000
0000
,
1001
0000
0001
0100
0010
0100
0001
0010
,
0100
1000
0000
0001
0100
0001
0010
0001
,
1000
0100
0000
1000
0010
0100
0010
1000
,
0001
0010
0000
0001
0100
0010
2000
3000
,
1001
0000
0001
0010
0001
1000
0100
1000
,
0010
0100
0000
0010
0100
0001
0010
0100
,
1000
0001
0000
1000
0100
1000
0010
0100
,
0001
0000
1000
0000
0000
0000
0001
0000
1000
0100
1000
0001
0100
0000
0000
0000
,
0101
0000
0000
0000
,
1010
0000
0000
0000
0000
0000
1000
0100
,
0110
0000
0000
0000
0000
0000
0000
0000
0000
0000
0000
0000
0000
0000
0000
0000
0000
0000
0000
0000
0000
0000
0000
0000
0000
0000
0000
0000
0000
0000
0000
0000
0000
0000
0000
0000
0000
0000
0000
0000
0000
0000
0000
0000
0000
0000
0000
0000
0000
0020
0000
0000
0000
0000
0000
0000
0030
0000
0000
0000
0000
0000
0000
0000
,
0011
0000
0000
0000
0000
0000
0000
0000
0001
0100
0001
0010
0100
0000
1000
0000
,
0001
0000
1001
0000
,
1010
0000
0000
0000
0110
0000
0100
0001
,
1000
0000
0000
0000
0000
0000
0000
0000
0000
0000
0000
0000
0000
0000
0000
0000
0100
0000
0000
0000
0000
0000
0000
0000
1000
0000
0000
0000
0000
0000
0000
0000
0020
0030
0000
0000
0000
0000
0000
0000
0200
0000
0300
0000
0000
0000
0000
0000
0002
0000
0000
0000
0003
0000
0000
0000
2000
0000
0000
0000
0000
0000
0000
0000
,
3001
0000
0100
0000
0001
0100
0001
0000
1000
0100
0010
0100
1000
0010
0100
0001
,
1000
0001
0100
0010
0100
0001
1000
0100
,
0010
0001
1000
0010
0100
0010
1000
0001
,
0010
0100
0010
0001
0100
0010
0100
0001
,
1000
0100
0010
0001
0100
0010
0000
0100
,
0001
0010
0100
1000
0010
1000
0001
0100
,
0010
0100
0001
1000
0100
0010
0100
1000
,
0010
0000
0100
0000
0010
0000
1000
0000
0001
0000
0100
0000
0001
1000
0001
0010
,
0100
0000
2000
3000
,
0001
0100
0001
0010
0100
1000
0010
0100
,
0010
1000
0001
0100
0001
0010
0100
1000
,
0010
0100
0010
1000
0100
0010
0001
0100
,
0001
0000
1000
0000
0001
0010
0100
0000
1000
0000
0010
0000
0400
0300
0004
0003
,
0010
0100
1000
0010
0100
0001
1000
0001
,
0010
0100
1000
0001
0100
0010
0100
0001
,
1000
0001
0100
0010
1000
0100
0010
0001
1000
0100
1000
0010
0100
0001
0010
0100
,
1000
0000
0000
0000
0000
0002
0000
1003
,
0020
0000
0000
0000
1030
0001
0100
0001
0010
0100
0010
0001
1000
0000
0001
0000
,
0100
0010
0100
0001
1000
0100
0010
0100
,
1000
0010
0100
0010
1000
0100
0010
0001
,
1000
0001
0100
0010
0100
0001
1000
1000
,
0010
0100
0001
0010
0100
0010
0001
0100
,
0010
1000
0100
1000
0001
0010
0100
1000
,
0001
0000
0100
0000
0010
0000
0100
0000
0001
0000
1000
0000
0400
0300
0040
0030
,
0001
0000
0000
0000
1000
0001
1000
0000
0000
0000
0001
0100
0040
0000
0030
0000
,
1000
0001
0100
0010
0100
0001
0010
0100
,
0010
0001
1000
0010
0100
0010
1000
0001
,
0010
0100
1000
0001
0100
0010
0100
0001
,
1000
0000
0100
0000
0010
0000
0001
0000
0400
0300
0040
0030
0400
0300
0040
0030
,
1000
0100
0010
0001
0100
0001
1000
0100
1000
0010
0100
0001
2000
0000
3000
0000
,
0001
0010
0001
1000
0100
0010
0001
0100
0001
1000
0100
1000
0020
0000
0030
0000
,
1000
0100
0010
0001
0100
0001
1000
0010
0100
0001
0010
0100
1000
0001
0100
0001
,
2000
3000
0000
0000
0000
0000
0000
0000
,
0001
0100
0010
0100
0001
1000
0100
0010
,
0100
1000
0010
0100
0010
1000
0001
0010
,
0100
1000
0001
0100
0001
1000
0100
0010
,
0100
1000
0010
0100
0010
1000
0001
0001
,
0010
0100
1000
0010
0100
0010
1000
0100
,
0010
0001
0100
0001
1000
0100
0010
0100
,
1000
0010
0100
0010
1000
0100
0010
0001
,
2000
0000
0000
0000
0000
0000
0000
0000
3002
0000
0000
0000
0000
0000
0000
0000
2003
0000
0000
0000
0000
0000
0000
0000
3002
0000
0000
0000
0000
0000
0000
0000
2003
0000
0000
0000
0000
0000
0000
0000
3000
0000
0000
0000
0000
0000
0000
0000
0000
0020
0000
0000
0000
0000
0000
0000
0030
0000
0000
0000
0000
0000
0000
0000
,
1000
0001
0010
0100
0010
0001
0100
0010
,
0100
0001
1000
0100
0010
0001
1000
0010
,
0100
0010
1000
0001
0010
0100
0010
0001
,
0100
0001
1000
0100
1000
0001
0100
0100
,
0001
1000
0001
0010
0100
0010
0001
0100
,
0010
0100
0001
1000
0100
0010
0100
1000
,
0001
0100
0010
0100
0001
1000
0100
0010
,
0001
0000
1000
0010
1000
0000
0001
0000
,
1000
0001
0100
0001
0010
0100
1000
0001
1000
0001
0100
0010
0100
0001
1000
0010
,
1000
0001
0010
0100
1000
0010
1000
0001
0100
0010
0100
0001
1000
0010
0100
0010
,
1000
0001
0010
0100
0010
0001
1000
0010
0100
0010
1000
0001
0010
0100
1000
0010
,
1000
0001
0100
0010
0100
0001
1000
0100
0010
0100
1000
0001
0010
0001
0100
0010
,
1000
0010
0100
0001
1000
0010
0100
0010
1000
0001
0010
0100
0010
0001
0100
0010
,
1000
0001
1000
0010
0100
0010
1000
0001
1000
0010
0100
0010
1000
0100
0010
0001
,
1000
0010
0100
0010
1000
0001
0010
0100
1000
0010
1000
0001
0100
0010
0100
0001
,
2000
0000
0000
0000
3001
0000
0100
0000
0001
0000
1000
0000
0001
1000
0100
0010
,
0001
1000
0010
0100
0010
1000
0001
0100
0001
1000
0100
0010
0001
0100
0001
1000
,
0010
0100
0010
1000
0001
1000
0010
0100
0001
1000
0100
0010
0100
1000
0010
0100
,
0010
1000
0001
0010
0100
1000
0001
0010
0001
1000
0100
1000
0001
1000
0010
0100
,
0001
1000
0100
0010
0100
1000
0001
0100
0010
0100
0001
1000
0001
0000
1000
0000
,
0010
0000
1000
0001
0100
0000
0001
0010
,
0100
0000
1000
0001
0100
0000
0001
1000
,
0100
0000
0000
1000
0001
0100
0000
0001
,
1000
0000
0000
0100
0010
0000
0001
1000
,
0002
0000
0000
0000
,
0000
0000
0000
0000
,
0003
0000
0000
0000
,
0000
0000
0000
0000
,
0000
0000
0000
0000
,
0000
0000
0000
0000
,
0000
0000
0000
0000
,
0000
0000
0000
0000
,
2000
3000
0000
0000
0001
0000
0000
0000
1000
0000
0000
0000
0010
0000
0000
0000
1000
0000
0000
0000
0001
0000
0000
0000
0010
0000
0000
0000
0100
0000
0000
0000
,
0010
0001
0100
0010
0100
0001
1000
0100
,
0010
0100
1000
0010
0100
0001
1000
0100
,
1000
0001
0010
0001
0100
0001
1000
0010
,
0200
0300
0000
0000
0010
0000
0000
0000
1000
0000
0000
0000
0100
0000
0000
0000
0010
0000
0000
0000
0001
0000
0000
0000
1000
0000
0000
0000
0001
0000
0000
0000
,
0100
0010
0100
0001
1000
0100
0010
0100
,
1000
0010
0100
0001
0100
0010
0100
0001
,
0010
0100
1000
0001
1000
0010
1000
0001
,
0020
0030
0000
0000
0001
0000
0000
0000
0100
0000
0000
0000
0001
0000
0000
0000
0010
0000
0000
0000
0100
0000
0000
0000
1000
0000
0000
0000
0001
0000
0000
0000
,
1000
0010
0100
0010
1000
0001
1000
0100
,
0020
0030
0000
0000
0001
0000
0000
0000
1000
0000
0000
0000
0010
0000
0000
0000
0100
0000
0000
0000
0010
0000
0000
0000
1000
0000
0000
0000
0001
0000
0000
0000
,
0100
0010
0100
0001
0010
0100
1000
0001
,
0020
0030
0000
0000
0001
0000
0000
0000
1000
0000
0000
0000
0001
0000
0000
0000
0010
0000
0000
0000
0100
0000
0000
0000
1000
0000
0000
0000
0001
0000
0000
0000
,
0020
0030
0000
0000
0001
0000
0000
0000
0100
0000
0000
0000
0001
0000
0000
0000
0010
0000
0000
0000
0100
0000
0000
0000
1000
0000
0000
0000
0001
0000
0000
0000
,
1000
0100
1000
0010
0100
0001
1000
0100
0010
0001
0100
0010
1000
0001
0100
0001
,
2000
0000
0000
0000
0000
0000
0000
0000
0000
0000
0000
3000
0002
0000
0003
0000
,
1000
0100
0010
0100
1000
0010
0100
0001
,
1000
0001
0010
0100
1000
0001
0100
0010
,
0100
0001
1000
0100
0010
0100
1000
0010
,
0100
0010
1000
0001
0100
0001
1000
1000
,
0001
0100
0001
0010
0100
1000
0010
0100
,
0010
1000
0100
0010
0100
1000
0010
0100
,
0001
1000
0100
0010
0001
0100
0001
1000
,
0010
0000
0000
0000
4000
3000
0000
0000
0001
0000
1000
0000
0200
0300
0020
0030
,
0001
1000
0100
1000
0001
0100
0010
0100
,
0001
1000
0100
0010
0100
1000
0010
0100
,
0001
0010
0100
1000
0010
1000
0001
0100
,
0010
0000
0100
0000
0001
0000
0001
0000
2000
0000
3000
0000
0002
0003
0200
0000
,
0301
1000
0100
0010
0100
1000
0010
0100
,
0010
1000
0100
0010
0001
1000
0010
0100
,
0002
0000
0000
0000
0000
0000
0103
0000
0001
0000
0010
0000
0100
0000
1000
0001
,
1000
0000
0000
0000
0000
0000
0000
0000
0000
0000
0000
0000
0000
0000
0000
0000
0001
0000
0000
0000
0000
0000
0000
0000
1000
0000
0000
0000
0000
0000
0000
0000
0100
0000
0000
0000
0000
0000
0000
0000
0040
0000
0000
0000
0030
0000
0000
0000
0100
0000
0000
0000
0000
0000
0000
0000
4000
3000
0000
0000
0000
0000
0000
0000
,
0001
0001
1000
0100
0010
0100
1000
0010
,
0100
0010
1000
0100
0010
0001
0100
0001
,
1000
0100
0010
0100
1000
0010
0100
0001
,
0020
0000
0130
2000
0000
3010
0200
0000
,
0301
1000
0010
0100
0010
1000
0100
0010
,
0100
1000
0010
0100
0010
1000
0100
0010
,
0001
0000
1000
0000
0010
0000
0100
0000
0001
0000
0001
0000
2000
3000
0020
0000
,
1030
0000
0400
0300
0010
0000
0400
0300
0020
0030
0002
0003
2000
3000
0020
0030
,
0100
0001
0010
0001
0100
0010
0100
0001
,
1000
0010
1000
0100
0010
0010
0001
0001
,
1000
0010
1000
0100
0010
0001
0100
0010
,
0100
0000
0001
0000
1000
0000
0001
0100
0010
0000
4000
3000
0000
0000
0001
0000
,
1000
0000
0020
0000
0030
0000
1000
0000
0001
0100
0010
0100
0001
0000
0100
0000
,
0001
0100
0010
0100
0001
1000
0001
0010
0100
0000
4000
3000
0010
0000
0400
0300
,
0010
0000
0000
0000
0000
0000
0000
0000
4000
0000
3000
0000
0000
0000
0000
0000
0100
0000
0000
0000
0000
0000
0000
0000
0040
0030
0000
0000
0000
0000
0000
0000
0001
0000
0000
0000
0000
0000
0000
0000
1000
0000
0000
0000
0000
0000
0000
0000
0010
0000
0000
0000
0000
0000
0000
0000
0100
0000
0000
0000
0000
0000
0000
0000
,
0010
1000
0001
0011
0000
0110
0000
1000
,
1001
0000
0000
0011
0000
0010
0100
1000
,
2002
0000
3003
0000
;

//---------------dance-single - J. Nero----------------
#NOTES:
     dance-single:
     J. Nero:
     Hard:
     18:
     1.000,1.000,0.102,0.314,1.000,1268.000,15.000,46.000,0.000,0.000:
0000
0000
0000
0000
,
0000
0000
0000
0000
,
0000
0000
0000
0000
,
0000
0000
0000
0000
,
0000
0000
0000
0000
,
0000
0000
0000
0000
,
0000
0000
0000
0000
,
0000
0000
0000
0000
,
1001
0000
0000
1000
0000
0001
0010
0100
,
1000
0001
0000
0100
0001
1000
0100
1000
,
0010
0100
0000
0010
0100
0001
0010
0100
,
1000
0001
0100
0000
0001
0010
0100
1000
,
0001
0100
0000
0001
1000
0100
0010
0001
,
1000
0100
0000
1000
0010
0100
0001
0010
,
0001
1000
0000
0100
1000
0001
0100
0000
,
0000
0000
0000
0000
0000
0000
0000
0000
0000
0000
0000
0000
0000
0000
0000
0000
0001
0000
0000
0000
0000
0000
0000
0000
0000
0000
0000
0000
0000
0000
0000
0000
0000
0000
0000
0000
0000
0000
0000
0000
0000
0000
0000
0000
0000
0000
0000
0000
0000
2000
0000
0000
0000
0000
0000
0000
3000
0000
0000
0000
0000
0000
0000
0000
,
1001
0000
0001
0100
0010
0100
0001
0010
,
0100
1000
0000
0001
0100
0001
0010
0001
,
1000
0100
0000
1000
0010
0100
0010
1000
,
0001
0010
0000
0001
0100
0010
2000
3000
,
1001
0000
0001
0010
0001
1000
0100
1000
,
0010
0100
0000
0010
0100
0001
0010
0100
,
1000
0001
0000
1000
0100
1000
0010
0100
,
0001
0000
1000
0000
0000
0000
0001
0000
1000
0100
1000
0001
0100
0000
0000
0000
,
0101
0000
0000
0000
,
1010
0000
0000
0000
0000
0000
1000
0100
,
0110
0000
0000
0000
0000
0000
0000
0000
0000
0000
0000
0000
0000
0000
0000
0000
0000
0000
0000
0000
0000
0000
0000
0000
0000
0000
0000
0000
0000
0000
0000
0000
0000
0000
0000
0000
0000
0000
0000
0000
0000
0000
0000
0000
0000
0000
0000
0000
0000
0020
0000
0000
0000
0000
0000
0000
0030
0000
0000
0000
0000
0000
0000
0000
,
0011
0000
0000
0000
0000
0000
0000
0000
0001
0100
0001
0010
0100
0000
1000
0000
,
0001
0000
1001
0000
,
1010
0000
0000
0000
0110
0000
0100
0001
,
1000
0000
0000
0000
0000
0000
0000
0000
0000
0000
0000
0000
0000
0000
0000
0000
0100
0000
0000
0000
0000
0000
0000
0000
1000
0000
0000
0000
0000
0000
0000
0000
0020
0030
0000
0000
0000
0000
0000
0000
0200
0000
0300
0000
0000
0000
0000
0000
0002
0000
0000
0000
0003
0000
0000
0000
2000
0000
0000
0000
0000
0000
0000
0000
,
3001
0000
0100
0000
0001
0100
0001
0000
1000
0100
0010
0100
1000
0010
0100
0001
,
1000
0001
0100
0010
0100
0001
1000
0100
,
0010
0001
1000
0010
0100
0010
1000
0001
,
0010
0100
0010
0001
0100
0010
0100
0001
,
1000
0100
0010
0001
0100
0010
0000
0100
,
0001
0010
0100
1000
0010
1000
0001
0100
,
0010
0100
0001
1000
0100
0010
0100
1000
,
0010
0000
0100
0000
0010
0000
1000
0000
0001
0000
0100
0000
0001
1000
0001
0010
,
0100
0000
2000
3000
,
0001
0100
0001
0010
0100
1000
0010
0100
,
0010
1000
0001
0100
0001
0010
0100
1000
,
0010
0100
0010
1000
0100
0010
0001
0100
,
0001
0000
1000
0000
0001
0010
0100
0000
1000
0000
0010
0000
0400
0300
0004
0003
,
0010
0100
1000
0010
0100
0001
1000
0001
,
0010
0100
1000
0001
0100
0010
0100
0001
,
1000
0001
0100
0010
1000
0100
0010
0001
1000
0100
1000
0010
0100
0001
0010
0100
,
1000
0000
0000
0000
0000
0002
0000
1003
,
0020
0000
0000
0000
1030
0001
0100
0001
0010
0100
0010
0001
1000
0000
0001
0000
,
0100
0010
0100
0001
1000
0100
0010
0100
,
1000
0010
0100
0010
1000
0100
0010
0001
,
1000
0001
0100
0010
0100
0001
1000
1000
,
0010
0100
0001
0010
0100
0010
0001
0100
,
0010
1000
0100
1000
0001
0010
0100
1000
,
0001
0000
0100
0000
0010
0000
0100
0000
0001
0000
1000
0000
0400
0300
0040
0030
,
0001
0000
0000
0000
1000
0001
1000
0000
0000
0000
0001
0100
0040
0000
0030
0000
,
1000
0001
0100
0010
0100
0001
0010
0100
,
0010
0001
1000
0010
0100
0010
1000
0001
,
0010
0100
1000
0001
0100
0010
0100
0001
,
1000
0000
0100
0000
0010
0000
0001
0000
0400
0300
0040
0030
0400
0300
0040
0030
,
1000
0100
0010
0001
0100
0001
1000
0100
1000
0010
0100
0001
2000
0000
3000
0000
,
0001
0010
0001
1000
0100
0010
0001
0100
0001
1000
0100
1000
0020
0000
0030
0000
,
1000
0100
0010
0001
0100
0001
1000
0010
0100
0001
0010
0100
1000
0001
0100
0001
,
2000
3000
0000
0000
0000
0000
0000
0000
,
0001
0100
0010
0100
0001
1000
0100
0010
,
0100
1000
0010
0100
0010
1000
0001
0010
,
0100
1000
0001
0100
0001
1000
0100
0010
,
0100
1000
0010
0100
0010
1000
0001
0001
,
0010
0100
1000
0010
0100
0010
1000
0100
,
0010
0001
0100
0001
1000
0100
0010
0100
,
1000
0010
0100
0010
1000
0100
0010
0001
,
2000
0000
0000
0000
0000
0000
0000
0000
3002
0000
0000
0000
0000
0000
0000
0000
2003
0000
0000
0000
0000
0000
0000
0000
3002
0000
0000
0000
0000
0000
0000
0000
2003
0000
0000
0000
0000
0000
0000
0000
3000
0000
0000
0000
0000
0000
0000
0000
0000
0020
0000
0000
0000
0000
0000
0000
0030
0000
0000
0000
0000
0000
0000
0000
,
1000
0001
0010
0100
0010
0001
0100
0010
,
0100
0001
1000
0100
0010
0001
1000
0010
,
0100
0010
1000
0001
0010
0100
0010
0001
,
0100
0001
1000
0100
1000
0001
0100
0100
,
0001
1000
0001
0010
0100
0010
0001
0100
,
0010
0100
0001
1000
0100
0010
0100
1000
,
0001
0100
0010
0100
0001
1000
0100
0010
,
0001
0000
1000
0010
1000
0000
0001
0000
,
1000
0001
0100
0001
0010
0100
1000
0001
1000
0001
0100
0010
0100
0001
1000
0010
,
1000
0001
0010
0100
1000
0010
1000
0001
0100
0010
0100
0001
1000
0010
0100
0010
,
1000
0001
0010
0100
0010
0001
1000
0010
0100
0010
1000
0001
0010
0100
1000
0010
,
1000
0001
0100
0010
0100
0001
1000
0100
0010
0100
1000
0001
0010
0001
0100
0010
,
1000
0010
0100
0001
1000
0010
0100
0010
1000
0001
0010
0100
0010
0001
0100
0010
,
1000
0001
1000
0010
0100
0010
1000
0001
1000
0010
0100
0010
1000
0100
0010
0001
,
1000
0010
0100
0010
1000
0001
0010
0100
1000
0010
1000
0001
0100
0010
0100
0001
,
2000
0000
0000
0000
3001
0000
0100
0000
0001
0000
1000
0000
0001
1000
0100
0010
,
0001
1000
0010
0100
0010
1000
0001
0100
0001
1000
0100
0010
0001
0100
0001
1000
,
0010
0100
0010
1000
0001
1000
0010
0100
0001
1000
0100
0010
0100
1000
0010
0100
,
0010
1000
0001
0010
0100
1000
0001
0010
0001
1000
0100
1000
0001
1000
0010
0100
,
0001
1000
0100
0010
0100
1000
0001
0100
0010
0100
0001
1000
0001
0000
1000
0000
,
0010
0000
1000
0001
0100
0000
0001
0010
,
0100
0000
1000
0001
0100
0000
0001
1000
,
0100
0000
0000
1000
0001
0100
0000
0001
,
1000
0000
0000
0100
0010
0000
0001
1000
,
0002
0000
0000
0000
,
0000
0000
0000
0000
,
0003
0000
0000
0000
,
0000
0000
0000
0000
,
0000
0000
0000
0000
,
0000
0000
0000
0000
,
0000
0000
0000
0000
,
0000
0000
0000
0000
,
2000
3000
0000
0000
0001
0000
0000
0000
1000
0000
0000
0000
0010
0000
0000
0000
1000
0000
0000
0000
0001
0000
0000
0000
0010
0000
0000
0000
0100
0000
0000
0000
,
0010
0001
0100
0010
0100
0001
1000
0100
,
0010
0100
1000
0010
0100
0001
1000
0100
,
1000
0001
0010
0001
0100
0001
1000
0010
,
0200
0300
0000
0000
0010
0000
0000
0000
1000
0000
0000
0000
0100
0000
0000
0000
0010
0000
0000
0000
0001
0000
0000
0000
1000
0000
0000
0000
0001
0000
0000
0000
,
0100
0010
0100
0001
1000
0100
0010
0100
,
1000
0010
0100
0001
0100
0010
0100
0001
,
0010
0100
1000
0001
1000
0010
1000
0001
,
0020
0030
0000
0000
0001
0000
0000
0000
0100
0000
0000
0000
0001
0000
0000
0000
0010
0000
0000
0000
0100
0000
0000
0000
1000
0000
0000
0000
0001
0000
0000
0000
,
1000
0010
0100
0010
1000
0001
1000
0100
,
0020
0030
0000
0000
0001
0000
0000
0000
1000
0000
0000
0000
0010
0000
0000
0000
0100
0000
0000
0000
0010
0000
0000
0000
1000
0000
0000
0000
0001
0000
0000
0000
,
0100
0010
0100
0001
0010
0100
1000
0001
,
0020
0030
0000
0000
0001
0000
0000
0000
1000
0000
0000
0000
0001
0000
0000
0000
0010
0000
0000
0000
0100
0000
0000
0000
1000
0000
0000
0000
0001
0000
0000
0000
,
0020
0030
0000
0000
0001
0000
0000
0000
0100
0000
0000
0000
0001
0000
0000
0000
0010
0000
0000
0000
0100
0000
0000
0000
1000
0000
0000
0000
0001
0000
0000
0000
,
1000
0100
1000
0010
0100
0001
1000
0100
0010
0001
0100
0010
1000
0001
0100
0001
,
2000
0000
0000
0000
0000
0000
0000
0000
0000
0000
0000
3000
0002
0000
0003
0000
,
1000
0010
0100
0010
1000
0001
0100
0001
1000
0100
0010
0001
0100
0001
1000
0010
,
0100
0010
1000
0001
0100
0001
1000
0100
0010
0100
1000
0001
0010
0001
0100
0010
,
1000
0001
0100
0001
1000
0100
1000
0001
0100
0001
1000
0010
0100
0010
1000
0100
,
0010
0001
1000
0001
0100
0010
0100
0001
1000
0100
0010
0100
1000
0001
0010
0100
,
1000
0010
1000
0001
0100
0001
1000
0100
0010
0100
1000
0001
0100
0001
1000
0010
,
0100
0010
1000
0001
0100
0001
1000
0100
0010
0001
1000
0100
1000
0010
0100
0001
,
1000
0001
0100
0010
0100
0001
1000
0100
1000
0001
0010
0100
1000
0001
1000
0010
,
0100
0000
0000
0000
0004
0003
0000
0000
1000
0000
0001
0000
0020
0030
0200
0300
,
1000
0010
1000
0001
0100
0010
0100
0001
1000
0100
0010
0001
0100
0001
1000
0010
,
0100
0010
1000
0001
0100
0001
1000
0100
0010
0100
1000
0010
0100
0010
1000
0001
,
0100
0001
1000
0100
0010
0001
1000
0010
1000
0001
0100
0001
1000
0100
0010
0001
,
0100
0001
1000
0010
0100
0000
0001
0000
2000
0000
3000
0000
0020
0030
0200
0000
,
0301
1000
0001
0100
0010
0100
0001
1000
0100
0010
0001
0100
0001
1000
0010
1000
,
0001
0010
0001
1000
0010
1000
0001
0010
0100
1000
0010
1000
0001
0000
0100
0000
,
0002
0000
0000
0000
0003
0000
0100
0000
0001
0000
0010
0000
0100
0000
1000
0001
,
1000
0000
0000
0000
0000
0000
0000
0000
0000
0000
0000
0000
0000
0000
0000
0000
0001
0000
0000
0000
0000
0000
0000
0000
1000
0000
0000
0000
0000
0000
0000
0000
0100
0000
0000
0000
0000
0000
0000
0000
0040
0000
0000
0000
0030
0000
0000
0000
0100
0000
0000
0000
0000
0000
0000
0000
4000
3000
0000
0000
0000
0000
0000
0000
,
0001
0000
1000
0000
0010
0100
0010
1000
0001
1000
0100
0010
0001
0100
0001
1000
,
0010
1000
0001
0010
0100
0010
0001
1000
0100
1000
0001
0100
0001
1000
0010
0100
,
0010
1000
0001
0100
0001
1000
0100
0010
0100
1000
0010
1000
0001
0100
0001
1000
,
0020
0000
0130
0002
0000
0013
0200
0000
,
1300
0001
1000
0010
0100
0010
1000
0001
1000
0100
0010
0100
1000
0010
1000
0001
,
0100
0010
0100
0001
1000
0001
0010
0100
1000
0001
0100
0001
1000
0100
0010
0001
,
0100
0001
1000
0010
1000
0001
0010
0000
0100
0000
0010
0000
0002
0003
2000
0000
,
3001
0000
0400
0300
0001
0000
0400
0300
0020
0030
2000
3000
0200
0300
0020
0030
,
0001
0100
0001
1000
0100
0010
0100
1000
0001
0100
0010
0100
0001
1000
0100
0010
,
0001
1000
0001
0100
0010
0100
0001
1000
0001
0000
0100
0000
0010
0000
1000
0000
,
0001
0100
0001
1000
0100
0010
0001
1000
0001
0100
0010
0100
0001
0010
0100
1000
,
0001
0100
0010
0100
0001
1000
0100
0010
0001
0000
0400
0300
0000
0000
0001
0000
,
0010
0000
0100
0000
0000
0000
1000
0000
0001
0100
0010
0100
0001
0000
0100
0000
,
0001
0100
0010
0100
0001
1000
0001
0010
0100
0000
4000
3000
0010
0000
0400
0300
,
0010
0000
0000
0000
0000
0000
0000
0000
4000
0000
3000
0000
0000
0000
0000
0000
0100
0000
0000
0000
0000
0000
0000
0000
0040
0030
0000
0000
0000
0000
0000
0000
0001
0000
0000
0000
0000
0000
0000
0000
1000
0000
0000
0000
0000
0000
0000
0000
0010
0000
0000
0000
0000
0000
0000
0000
0100
0000
0000
0000
0000
0000
0000
0000
,
0010
1000
0001
0011
0000
0110
0000
1000
,
1001
0000
0000
0011
0000
0010
0100
1000
,
2002
0000
3003
0000
;
