#TITLE:Castle in the Sky 2003;
#SUBTITLE:;
#ARTIST:M-Project;
#TITLETRANSLIT:;
#SUBTITLETRANSLIT:;
#ARTISTTRANSLIT:;
#CREDIT:;
#BANNER:CiTS.png;
#BACKGROUND:CiTS-bg.png;
#LYRICSPATH:;
#CDTITLE:!piroTitle.png;
#MUSIC:05. M-Project - Castle In The Sky 2003.mp3;
#OFFSET:-11.650;
#SAMPLESTART:248.000;
#SAMPLELENGTH:12.000;
#SELECTABLE:YES;
#BPMS:0.000=170.000,252.000=170.500,312.000=170.000,384.000=171.000,403.000=169.900,428.000=169.500,448.000=170.000,476.000=169.000,484.000=169.500,501.000=169.760,508.000=170.000,518.000=169.500,525.000=169.760,531.000=170.000,574.000=170.500,636.000=170.001,945.000=170.501,1007.000=170.001;
#STOPS:;
#BGCHANGES:;
// cache tags:
#FIRSTBEAT:0.000;
#LASTBEAT:1151.500;
#SONGFILENAME:Songs/other/Castle in the Sky 2003/CitS2003.sm;
#HASMUSIC:1;
#HASBANNER:1;
#MUSICLENGTH:419.485;
// end cache tags

//---------------dance-single - ----------------
#NOTES:
     dance-single:
     :
     Hard:
     11:
     1.000,1.000,0.892,0.219,0.919,2594.000,374.000,92.000,0.000,0.000:
1000
0010
1000
0000
0001
0100
0001
0000
1000
0010
1000
0000
0001
0100
0001
0000
,
1000
0010
1000
0000
0001
0100
0001
0000
1000
0010
1000
0000
0001
0100
0001
0000
,
1000
0010
1000
0000
0001
0100
0001
0000
1000
0010
1000
0000
0001
0100
0001
0000
,
1000
0010
1000
0000
0001
0100
0001
0000
1000
0010
1000
0000
0001
0100
0001
0000
,
1000
0100
1000
0000
0001
0010
0001
0000
1000
0100
1000
0000
0001
0010
0001
0000
,
1000
0100
1000
0000
0001
0010
0001
0000
1000
0100
1000
0000
0001
0010
0001
0000
,
1000
0100
1000
0000
0001
0010
0001
0000
1000
0100
1000
0000
0001
0010
0001
0000
,
1000
0100
1000
0000
0001
0010
0001
0000
1000
0100
1000
0000
0001
0010
0001
0000
,
1000
0000
0001
0000
1000
0000
0001
0000
2000
0000
3000
0000
0100
0000
0020
0030
,
0000
1000
0010
0100
0002
0003
0010
0100
,
1000
0000
0100
0000
0010
0000
0001
0000
0020
0000
0030
0000
0001
0000
0200
0300
,
0000
0000
0100
0000
0010
0000
0001
0000
2000
0000
3000
0000
0010
0000
0100
0010
,
0100
0000
0010
0000
1000
0000
0100
0000
0002
0000
0003
0000
0100
0000
2000
3000
,
0000
0010
0100
1000
0200
0300
0001
0010
,
1000
0000
0001
0000
0010
0000
0100
0000
0002
0000
0003
0000
0010
0000
0200
0300
,
0000
0001
0100
1000
0002
0003
1000
0001
,
1000
0001
1000
0001
1000
0001
1000
0001
1000
0010
1000
0010
1000
0010
1000
0010
,
0100
0010
0100
0010
0100
0010
0100
0010
0100
0001
0100
0001
0100
0001
0100
0001
,
1000
0001
1000
0001
1000
0001
1000
0001
1000
0100
1000
0100
1000
0100
1000
0100
,
1000
0010
1000
0010
1000
0010
1000
0010
0100
0001
0100
0001
0100
0001
0100
0001
,
0100
0010
0100
0010
0100
0010
0100
0010
0100
1000
0100
1000
0100
1000
0100
1000
,
0100
0001
0100
0001
0100
0001
0100
0001
1000
0001
1000
0001
1000
0001
1000
0001
,
1000
0010
1000
0010
1000
0010
1000
0010
0100
0010
0100
0010
0100
0010
0100
0010
,
0100
0001
0100
0001
0100
0001
0100
0001
0010
0001
0010
0001
0000
0000
0000
0000
,
1000
1100
0001
0011
1000
1100
0001
0011
,
1000
1100
0010
0011
0001
0011
0100
0110
,
1000
1100
0001
1001
0001
1001
0100
1100
,
0010
0000
0011
0000
1000
0000
1100
0000
0001
0000
0101
0000
0010
0000
1010
0010
,
0100
0110
0010
1010
0100
1100
0001
0011
,
0001
1001
1000
1001
1000
1010
0010
1010
,
0001
0011
1000
1001
0100
1100
0001
0011
,
0001
0000
1001
0000
0100
0000
0110
0000
0100
0000
0110
0000
0100
0000
1100
0010
,
0001
0101
1000
1010
0001
1001
0100
0101
,
0100
1100
0010
1010
0010
0110
0001
1001
,
1000
1010
0001
1001
0100
0101
0010
0110
,
0001
0000
0101
0000
1000
0000
1100
0000
0001
0000
0011
0000
0001
0000
1001
0010
,
0001
0101
0100
1100
0010
1010
1000
1001
,
0001
0011
0010
1010
0001
0011
1000
1010
,
0010
0110
0100
1100
0010
0011
1000
1001
,
1000
0100
1000
0100
1000
0100
1000
0100
1000
0100
1000
0100
1000
0100
1000
0100
1000
0100
1000
0100
1000
0100
1000
0100
1000
0100
1000
0100
1000
0100
1000
0100
,
1000
0000
0001
0100
0000
0000
0010
0000
0010
0000
0000
0000
0010
0000
0000
0000
,
0100
0000
0010
1000
0000
0000
0100
0000
0100
0000
0100
0000
0100
0000
0000
0000
,
0001
0000
0010
0100
0000
0000
1000
0000
1000
0000
0000
0000
1000
0000
0000
0000
,
0010
0000
1000
0100
0000
0000
0010
0000
0010
0010
0000
0000
0000
0000
0000
0000
,
0001
0000
0100
0010
0000
0000
1000
0000
1000
0000
0000
0000
1000
0000
0000
0000
,
0001
0000
0100
0001
0000
0000
0010
0000
0010
0000
0010
0000
0010
0000
0000
0000
,
0001
0000
0001
1000
0000
0000
0010
0000
0010
0000
0000
0000
0010
0000
0000
0000
,
0100
0000
0001
0100
0000
0000
0010
0000
0010
0010
0000
0000
0000
0000
0000
0000
,
1000
0000
0010
0100
0000
0000
0001
0000
0001
0000
0000
0000
0001
0000
0000
0000
,
0010
0000
0100
0001
0000
0000
0010
0000
0010
0000
0010
0000
0010
0000
0000
0000
,
0100
0000
0010
1000
0000
0000
0001
0000
0001
0000
0000
0000
0001
0000
0000
0000
,
1000
0000
0001
0010
0000
0000
0100
0000
0100
0100
0000
0000
0000
0000
0000
0000
,
1000
0000
0100
1000
0000
0000
0100
0000
0100
0000
0000
0000
0100
0000
0000
0000
,
0001
0000
0010
1000
0000
0000
0010
0000
0010
0000
0010
0000
0010
0000
0000
0000
,
0010
0000
0001
1000
0000
0000
1000
0000
1000
0000
0000
0000
1000
0000
0000
0000
,
0010
0000
0100
1000
0000
0000
0010
0000
0010
0010
0000
0000
0000
0000
0000
0000
,
1000
0001
1000
0001
1000
0001
1000
0001
1000
0001
1000
0001
1000
0001
1000
0001
,
1000
0001
1000
0001
1000
0001
1000
0001
1000
0001
1000
0001
1000
0001
1000
0001
,
0100
0010
0100
0010
0100
0010
0100
0010
0100
0010
0100
0010
0100
0010
0100
0010
,
0100
0010
0100
0010
0100
0010
0100
0010
0100
0010
0100
0010
0100
0010
0100
0010
,
0100
0001
0100
0001
0100
0001
0100
0001
0100
1000
0100
1000
0100
1000
0100
1000
,
0001
1000
0001
1000
0001
1000
0001
1000
0100
0001
0100
0001
0100
0001
0100
0001
,
0010
1000
0010
1000
0010
1000
0010
1000
0100
0010
0100
0010
0100
0010
0100
0010
,
1000
0010
1000
0010
1000
0010
1000
0010
1000
0010
1000
0010
1000
0010
1000
0010
1000
0010
1000
0010
1000
0010
1000
0010
1000
0000
0000
0000
0100
0000
0000
0000
,
0011
0000
0000
0100
1000
0000
0001
0000
,
2200
3300
0000
0100
,
1001
0000
0000
0001
0010
0000
0100
0000
,
2002
3003
0000
0100
,
0011
0000
0100
1000
0000
0010
0000
0000
,
1100
0000
0010
0100
0000
0100
0000
0000
,
0001
0000
0000
0100
0100
0000
0001
0000
,
1001
0000
0000
0000
0000
0000
1000
0100
,
1001
0000
0000
0010
0100
0000
0001
0000
,
0220
0330
0000
1000
,
0011
0000
0000
0001
0010
0000
0100
0000
,
2020
3030
0000
0100
,
1010
0000
0001
1000
0000
0100
0000
0000
,
1000
0000
0010
0100
0000
0000
0000
0000
,
0001
0010
0100
0000
1000
0000
0010
0000
,
0202
0000
0303
0000
,
1001
0010
0100
1000
0001
1000
0100
0010
0100
1000
0001
0010
0100
0010
0001
0010
,
0001
0010
0100
1000
0100
0010
0100
0010
0001
0010
0100
1000
0100
0010
0001
1000
,
0011
0100
1000
0100
0010
0001
0010
0100
1000
0001
1000
0010
0100
1000
0001
0100
,
0010
0001
1000
0100
0001
0010
0001
0010
0100
1000
0001
0010
0100
1000
0100
0001
,
0011
0100
1000
0001
0010
0100
1000
0100
0010
0001
0010
0100
1000
0100
0001
1010
,
0101
1000
0010
0001
0010
0001
0010
0100
1000
0010
1000
0001
1000
0100
0010
0010
,
1001
0100
0001
1000
0100
0001
0100
1000
0010
0001
0010
1000
0100
0001
0100
1000
,
0011
1001
1001
1001
,
1001
0110
1100
0011
1010
0110
0101
1010
,
0110
0101
1001
1100
0101
1010
0110
0101
,
1100
0011
0110
1001
0101
0110
0011
1001
,
0011
1010
1001
1100
0011
0110
1001
0011
,
1000
0010
1000
0010
1000
0010
1000
0010
1000
0010
1000
0010
1000
0010
1000
0010
,
0100
0001
0100
0001
0100
0001
0100
0001
0100
0001
0100
0001
0100
0001
0100
0001
,
1000
0001
1000
0001
1000
0001
1000
0001
1000
0001
1000
0001
1000
0001
1000
0001
,
1000
0001
1000
0001
1000
0001
1000
0001
1000
0001
1000
0001
1000
0001
1000
0001
1000
0001
1000
0001
1000
0001
1000
0001
1000
0001
1000
0001
1000
0001
1000
0001
,
1000
1001
1010
0101
,
0110
1001
0011
1100
,
0101
1001
1010
1100
,
0011
0101
0110
1100
,
0110
0011
0110
1100
,
1001
0110
1001
1010
,
0011
1010
1100
1001
,
0011
0000
0000
0000
1010
0000
0000
0000
1001
0000
0000
0000
0101
0000
1000
0100
,
1001
0101
1010
1100
,
0011
0110
1100
0110
,
0011
1001
0011
1010
,
0110
0011
0101
1100
,
0110
0011
1010
0110
,
0011
1001
1010
0101
,
1010
0110
1001
0011
,
1000
0001
1000
0001
1000
0001
1000
0001
1000
0001
1000
0001
1000
0001
1000
0001
1000
0001
1000
0001
1000
0001
1000
0001
1000
0001
1000
0001
1000
0001
1000
0001
,
1000
0100
1000
0000
0010
0100
0010
0000
0001
0010
0001
0000
0100
1000
0100
0000
,
0010
0100
0010
0000
1000
0100
0010
0000
0010
0001
1000
0000
0100
0010
0001
0000
,
1000
0001
1000
0000
0001
1000
0001
0000
0010
0100
0010
0000
0001
0010
0001
0000
,
0010
0100
1000
0000
1000
0100
0010
0000
0001
0010
0100
0000
0010
0100
1000
0000
,
0010
1000
0010
0000
0100
0001
0100
0000
1000
0001
1000
0000
0010
0100
0010
0000
,
0001
0010
0100
0000
1000
0100
0010
0000
0100
0010
0100
0000
0010
0100
0010
0000
,
0001
1000
0010
0000
1000
0001
0100
0000
1000
0001
1000
0000
0001
1000
0001
0000
,
0100
0001
0100
0000
0001
1000
0001
0000
0100
0010
0001
0000
0010
0100
1000
0000
,
0010
0001
0010
0000
0100
1000
0100
0000
0010
0001
0010
0000
0010
1000
0010
0000
,
1000
0100
1000
0000
0010
0100
0001
0000
0001
0100
1000
0000
0010
0100
0001
0000
,
1000
0100
1000
0000
0100
0010
0100
0000
0010
0001
0010
0000
0001
1000
0001
0000
,
1000
0001
1000
0000
1000
0100
1000
0000
0001
0010
0001
0000
0100
0001
0100
0000
,
0010
0100
0001
0000
0100
0010
1000
0000
0001
0100
0001
0000
0010
0100
0010
0000
,
1000
0100
1000
0000
0001
0100
0001
0000
0010
0100
0010
0000
0001
1000
0001
0000
,
0010
0100
1000
0000
0100
0010
0001
0000
1000
0100
0010
0000
0100
0010
0001
0000
,
1010
0101
1010
0101
1010
0101
1010
0101
,
0010
0000
0100
0001
0000
0000
0100
0000
0100
0000
0000
0000
0100
0000
0000
0000
,
0001
0000
0100
0010
0000
0000
0001
0000
0001
0000
0001
0000
0001
0000
0000
0000
,
0010
0000
0100
0001
0000
0000
0010
0000
0010
0000
0000
0000
0010
0000
0000
0000
,
1000
0000
0010
0100
0000
0000
0001
0000
0001
0001
0000
0000
0000
0000
0000
0000
,
1000
0000
0010
0100
0000
0000
0010
0000
0010
0000
0000
0000
0010
0000
0000
0000
,
0001
0000
0100
0010
0000
0000
1000
0000
1000
0000
1000
0000
1000
0000
0000
0000
,
0010
0000
0100
0001
0000
0000
0100
0000
0100
0000
0000
0000
0100
0000
0000
0000
,
0100
0000
0010
1000
0000
0000
0001
0000
0001
0001
0000
0000
0000
0000
0000
0000
,
0001
0000
0100
1000
0000
0000
0010
0000
0010
0000
0000
0000
0010
0000
0000
0000
,
1000
0000
0100
0010
0000
0000
0100
0000
0100
0000
0100
0000
0100
0000
0000
0000
,
0001
0000
0100
0010
0000
0000
0001
0000
0001
0000
0000
0000
0001
0000
0000
0000
,
0010
0000
0100
1000
0000
0000
0001
0000
0001
0001
0000
0000
0000
0000
0000
0000
,
1000
0000
0010
0100
0000
0000
0001
0000
0010
0000
0100
0010
0000
0000
0001
0000
,
0010
0000
0001
0010
0000
0000
0100
0000
0010
0000
0001
0100
0000
0000
1000
0000
,
0001
0000
0010
0100
1000
0000
0010
0100
0001
0000
1000
0100
0010
0000
0001
0010
,
0100
0000
0010
1000
0000
0001
0000
0001
0001
0000
0000
0000
0000
0000
0000
0000
,
0001
0000
0010
0000
0100
0000
0001
0000
0020
0000
0030
0000
0100
0000
0002
0003
,
0000
0100
0010
0001
2000
3000
0001
0100
,
0010
0000
0100
0000
0001
0000
0010
0000
2000
0000
3000
0000
0010
0000
0200
0300
,
0000
0000
1000
0000
0100
0000
0010
0000
0200
0000
0300
0000
0001
0000
0010
1000
,
0001
0010
0100
1000
0001
0010
0100
1000
,
0001
0010
0100
1000
0001
0010
0100
1000
,
0001
0010
0100
1000
0001
0010
0100
1000
,
0001
0010
0100
1000
0001
0010
0100
1000
,
0001
0010
0100
1000
0001
0010
0100
1000
0001
0010
0100
1000
0001
0010
0100
1000
,
0001
0010
0100
1000
0001
0010
0100
1000
0001
0010
0100
1000
0001
0010
0100
1000
,
0001
0010
0100
1000
0001
0010
0100
1000
0001
0010
0100
1000
0001
0010
0100
1000
,
0001
0010
0100
1000
0001
0010
0100
1000
0001
0010
0100
1000
0001
0010
0100
1000
,
0001
0010
0100
1000
0001
0010
0100
1000
0001
0010
0100
1000
0001
0010
0100
1000
0001
0010
0100
1000
0001
0010
0100
1000
0001
0010
0100
1000
0001
0010
0100
1000
,
0001
0010
0100
1000
0001
0010
0100
1000
0001
0010
0100
1000
0001
0010
0100
1000
0001
0010
0100
1000
0001
0010
0100
1000
0001
0010
0100
1000
0001
0010
0100
1000
,
0001
0010
0100
1000
0001
0010
0100
1000
0001
0010
0100
1000
0001
0010
0100
1000
0001
0010
0100
1000
0001
0010
0100
1000
0001
0010
0100
1000
0001
0010
0100
1000
,
0002
0000
0000
0000
,
1003
0000
0010
0000
1000
0000
0010
0000
2000
0000
3000
0000
0001
0000
0020
0030
,
0000
0100
1000
0001
0020
0030
0100
0010
,
0100
0000
0001
0000
0010
0000
1000
0000
0002
0000
0003
0000
0100
0000
2000
3000
,
0000
0000
0010
0000
0001
0000
0100
0000
0002
0000
0003
0000
0100
0000
1000
0100
,
0010
0000
0100
0000
0001
0000
0010
0000
2000
0000
3000
0000
0001
0000
0020
0030
,
0000
0100
0010
1000
0002
0003
0100
0010
,
0100
0000
0001
0000
0010
0000
1000
0000
0200
0000
0300
0000
0001
0000
0020
0030
,
0000
0000
0001
0000
0100
0000
1000
0000
0002
0000
0003
0000
0100
0000
0010
0100
,
0001
0000
0010
0000
0001
0000
0010
0000
2000
0000
3000
0000
0010
0000
0002
0003
,
0000
0010
0100
0010
0002
0003
0010
1000
,
0100
0000
0001
0000
0010
0000
1000
0000
0200
0000
0300
0000
0001
0000
2000
3000
,
0000
0000
0010
0000
0100
0000
1000
0000
0020
0000
0030
0000
0100
0000
0001
0010
,
0001
0000
1000
0000
0100
0000
0010
0000
2000
0000
3000
0000
0100
0000
0002
0003
,
0000
0010
0100
0001
2000
3000
0001
0100
,
0010
0000
1000
0000
0010
0000
0100
0000
0002
0000
0003
0000
1000
0000
0002
0003
,
0100
0000
0010
0000
0002
0000
1003
0000
2000
0100
3001
0000
0020
0000
0000
0030
,
0100
0000
0001
0000
0010
0000
1000
0000
0002
0000
0003
0000
0100
0000
0020
0030
,
0000
0100
0001
1000
0020
0030
0001
1000
,
0100
0000
0001
0000
0010
0000
1000
0000
0002
0000
0003
0000
0100
0000
0020
0030
,
0000
0000
0001
0000
1000
0000
0010
0000
0100
0000
0000
0000
0001
0000
0100
0010
,
0100
0000
0001
0000
1000
0000
0100
0000
0002
0000
0003
0000
1000
0000
0020
0030
,
0000
0001
0100
0010
2000
3000
0010
0001
,
0100
0000
0001
0000
1000
0000
0100
0000
0020
0000
0030
0000
1000
0000
0002
0003
,
1001
0000
0000
0000
2000
0000
0100
0010
3002
0000
0100
0010
1003
0000
0000
0000
,
1000
0000
0010
0000
0100
0000
0001
0000
0020
0000
0030
0000
0100
0000
2000
3000
,
0000
0010
0001
1000
0200
0300
0010
1000
,
0100
0000
0001
0000
0010
0000
0100
0000
2000
0000
3000
0000
0100
0000
0020
0030
,
0000
0000
0001
0000
1000
0000
0100
0000
0020
0000
0030
0000
1000
0000
0001
0010
,
0100
0000
0001
0000
0010
0000
1000
0000
0200
0000
0300
0000
0001
0000
0200
0300
,
0000
0010
0001
0100
0020
0030
1000
0001
,
1000
0000
0001
0000
0010
0000
0100
0000
0020
0000
0030
0000
0100
0000
0020
0030
,
1000
0010
1000
0010
1000
0010
1000
0010
1000
0010
1000
0010
1000
0010
1000
0010
1000
0010
1000
0010
1000
0010
1000
0010
1000
0000
0000
0000
0100
0000
0000
0000
,
0011
0000
0000
1000
0100
0000
0001
0000
,
0220
0330
0000
0010
,
1100
0000
0000
1000
0010
0000
0100
0000
,
0022
0033
0000
0010
,
1100
0000
0010
0100
0000
0001
0000
0000
,
0011
0000
0100
0010
0000
0001
0000
0000
,
0100
0000
0000
1000
1000
0000
0001
0000
,
0220
0000
0330
0000
0000
0000
0001
0100
,
1010
0000
0000
1000
0100
0000
0001
0000
,
2002
3003
0000
0001
,
1100
0000
0000
0010
0100
0000
0001
0000
,
0202
0303
0000
1000
,
0101
0000
0001
0010
0000
1000
0000
0000
,
0100
0000
0010
0001
0000
0000
0000
0000
,
0010
0100
1000
0000
0100
0000
0001
0000
,
2200
0000
3300
0000
,
1001
0010
0100
1000
0100
0010
0001
1000
0100
0010
0100
0001
0010
0100
1000
0010
,
0100
0001
0010
0100
1000
0100
0010
1000
0100
0010
0001
0100
1000
0010
0001
0100
,
1001
0100
0010
0100
1000
0001
0010
0100
0010
0100
1000
0100
1000
0100
0010
0001
,
0010
1000
0100
0001
1000
0010
0001
0010
0100
0001
1000
0100
0010
0001
0010
0100
,
1001
0100
0010
1000
0001
0100
0010
1000
0100
0010
0100
0001
0010
0100
1000
0010
,
0110
0001
1000
0100
0010
0001
1000
0001
0010
0100
1000
0001
0010
0100
1000
0100
,
1010
0001
0010
0100
1000
0001
1000
0001
0010
0100
0001
1000
0010
0100
0010
0001
,
1001
0110
1001
0110
,
1001
1100
0011
0110
0011
1100
0110
1001
,
0101
1010
0011
0110
0011
1100
0110
0101
,
1100
1010
0101
1100
0110
0011
0110
1100
,
0011
1010
1100
0110
1001
0011
1001
1100
,
1000
0001
1000
0001
1000
0001
1000
0001
1000
0001
1000
0001
1000
0001
1000
0001
,
1000
0100
1000
0100
1000
0100
1000
0100
1000
0100
1000
0100
1000
0100
1000
0100
,
0010
0100
0010
0100
0010
0100
0010
0100
0010
0001
0010
0001
0010
0001
0010
0001
,
0100
0001
0100
0001
0100
0001
0100
0001
0100
0001
0100
0001
0100
0001
0100
0001
0100
0001
0100
0001
0100
0001
0100
0001
0100
0001
0100
0001
0100
0001
0100
0001
,
0001
0100
0011
0010
1100
0001
0110
1000
,
0101
0010
1100
0001
1001
1000
0101
1000
,
0011
0100
0011
0100
1100
0100
0101
1000
,
0110
0001
0110
1000
0110
0001
0110
1000
,
0011
0100
0110
1000
1100
0001
0110
0100
,
0011
0100
0110
0001
1100
0010
1100
0001
,
1001
0010
1100
0001
0110
1000
0011
0100
,
1010
0000
0001
0000
0110
0000
1000
0000
0011
0000
0100
0000
1001
0000
0010
0100
,
1100
0001
0110
1000
0011
0100
0011
1000
,
1100
0010
0101
0010
1100
0001
0110
0001
,
1100
0010
1100
0001
0011
0100
0110
1000
,
1001
0001
1100
0010
0110
1000
0101
1000
,
0011
0100
1010
0010
1010
0100
1100
0010
,
0101
0010
1100
0001
0110
0001
1100
0010
,
0110
0001
0101
0010
1001
0010
0110
1000
,
0010
0100
0010
0100
0010
0100
0010
0100
0010
0100
0010
0100
0010
0100
0010
0100
0010
0100
0010
0100
0010
0100
0010
0100
0010
0100
0010
0100
0010
0100
0010
0100
,
0010
0001
0010
0000
0100
1000
0100
0000
0010
0100
0010
0000
0001
0100
0001
0000
,
1000
0001
1000
0000
0001
0100
0001
0000
0100
1000
0100
0000
0001
0010
0001
0000
,
0100
0010
0100
0000
0001
1000
0001
0000
0001
0010
0001
0000
0100
0001
0100
0000
,
0010
1000
0010
0000
0001
0010
0001
0000
0100
0001
0100
0000
0010
1000
0010
0000
,
0100
0010
0100
0000
0001
0010
0001
0000
1000
0100
1000
0000
0010
1000
0010
0000
,
0001
0100
0001
0000
0010
0100
0010
0000
0001
1000
0001
0000
0001
0100
0001
0000
,
0010
1000
0010
0000
0001
0010
0001
0000
0001
0100
0001
0000
1000
0010
1000
0000
,
1000
0100
0010
0000
0001
0010
0100
0000
0100
0010
0001
0000
0010
0100
1000
0000
,
0001
0100
0001
0000
0010
1000
0010
0000
0100
0010
0100
0000
0001
0010
0001
0000
,
0100
0001
0100
0000
0001
1000
0001
0000
0010
0100
0010
0000
0100
1000
0100
0000
,
0001
0010
0001
0000
1000
0001
1000
0000
0001
1000
0001
0000
0010
0100
0010
0000
,
0001
0010
0001
0000
0100
1000
0100
0000
0001
0100
0001
0000
0010
0100
0010
0000
,
0001
1000
0001
0000
0010
0001
0010
0000
0100
1000
0100
0000
0010
0001
0010
0000
,
0100
0010
0100
0000
0001
0010
0001
0000
0010
1000
0010
0000
0010
0100
0010
0000
,
0010
0100
1000
0000
0100
0010
0001
0000
0100
0010
0001
0000
0010
0100
1000
0000
,
1001
0110
1001
0110
1001
0110
1001
0110
,
0010
0000
0100
0001
0000
0000
0010
0000
0010
0000
0000
0000
1001
0000
0000
0000
,
0110
0000
1010
0000
0011
0000
1100
0010
,
0100
0000
0010
1000
0000
0000
0001
0000
0001
0000
0000
0000
1001
0000
0000
0000
,
0011
0000
1100
0000
1001
0000
0100
0010
,
0100
0000
0001
1000
0000
0000
0010
0000
0010
0000
0000
0000
1001
0000
0000
0000
,
0011
0000
0101
0000
1001
0000
0110
0001
,
0100
0000
0001
1000
0000
0000
0100
0000
0100
0000
0000
0000
0101
0000
0000
0000
,
1010
0000
0000
0000
1100
0000
0000
0000
1000
0001
1000
0000
0000
0000
0010
0000
,
0100
0000
0001
0010
0000
0000
0100
0000
0100
0000
0000
0000
0011
0000
0000
0000
,
1100
0000
0110
0000
1001
0000
0011
0100
,
1000
0000
0100
0001
0000
0000
0010
0000
0010
0000
0000
0000
1100
0000
0000
0000
,
0110
0000
1001
0000
0101
0000
0011
0001
,
0010
0000
0100
1000
0000
0000
0001
0000
0001
0000
0000
0000
0110
0000
0000
0000
,
0011
0000
1100
0000
1001
0000
0011
1000
,
0100
0000
0010
0100
0000
0000
0001
0000
0001
0000
0000
0000
0110
0000
0000
0000
,
1100
0000
0000
0000
0011
0000
0000
0000
0010
0001
0010
0000
0000
0000
0010
0000
,
0100
0000
0001
0010
0000
0000
1000
0000
1000
0000
0000
0000
0011
0000
0000
0000
,
1100
0000
0011
0000
0110
0000
1100
0100
,
0010
0000
0001
0010
0000
0000
1000
0000
1000
0000
0000
0000
1001
0000
0000
0000
,
0011
0000
1100
0000
0110
0000
1100
0001
,
0010
0000
1000
0100
0000
0000
0001
0000
0001
0000
0000
0000
1100
0000
0000
0000
,
0110
0000
1010
0000
0101
0000
0011
0100
,
0010
0000
1000
0001
0000
0000
0010
0000
0010
0000
0000
0000
1100
0000
0000
0000
,
0101
0000
0000
0000
0110
0000
0000
0000
1000
0001
1000
0000
0000
0000
0100
0000
,
0010
0000
1000
0001
0000
0000
1000
0000
1000
0000
0000
0000
0101
0000
0000
0000
,
1010
0000
1100
0000
0011
0000
1100
0001
,
0100
0000
0010
0001
0000
0000
0100
0000
0100
0000
0000
0000
1001
0000
0000
0000
,
0011
0000
1010
0000
0101
0000
0110
0001
,
0010
0000
0100
0010
0000
0000
1000
0000
1000
0000
0000
0000
0011
0000
0000
0000
,
0101
0000
1010
0000
1100
0000
1001
0010
,
1000
0000
0001
0100
0000
0000
0010
0000
0010
0000
0000
0000
1001
0000
0000
0000
,
0220
0330
0000
0000
0000
0000
0000
0000
0000
0000
0000
0000
0000
0000
0000
0000
0000
0000
0000
0000
0000
0000
0000
0000
0000
0000
0000
0000
0000
0000
0000
0000
1000
0000
0000
0000
0001
0000
0000
0000
1000
0000
0000
0000
0000
0000
0000
0000
0000
0000
0000
0000
0000
0000
0000
0000
0001
0000
0000
0000
0000
0000
0000
0000
;
