#TITLE:Paradise Lost;
#SUBTITLE:GA-REI Zero OP theme;
#ARTIST:Chihara Minori;
#TITLETRANSLIT:;
#SUBTITLETRANSLIT:;
#ARTISTTRANSLIT:;
#CREDIT:ALICE_;
#BANNER:Paradise Lost.png;
#BACKGROUND:Paradise Lost.jpg;
#LYRICSPATH:;
#CDTITLE:cdtitle.png;
#MUSIC:Paradise Lost.mp3;
#OFFSET:0.900;
#SAMPLESTART:52.288;
#SAMPLELENGTH:19.620;
#SELECTABLE:YES;
#BPMS:0.000=165.000;
#STOPS:;
#BGCHANGES:20.000=Paradise Lost.avi=1.000=1=0=1,
99999=-nosongbg-=1.000=0=0=0 // don't automatically add -songbackground-
;
// cache tags:
#FIRSTBEAT:4.000;
#LASTBEAT:244.000;
#SONGFILENAME:Songs/alice 4th complete step/Paradise Lost/Paradise Lost.sm;
#HASMUSIC:1;
#HASBANNER:1;
#MUSICLENGTH:92.846;
// end cache tags

//---------------dance-single - ----------------
#NOTES:
     dance-single:
     :
     Hard:
     7:
     0.639,0.624,0.248,0.528,0.048,343.000,23.000,49.000,0.000,0.000:
0000
0000
0000
0000
,
1000
0001
1000
0100
0010
0100
1000
0001
,
1000
0010
0001
0010
0100
0001
0010
0001
,
0001
0100
0001
0010
0100
1000
0001
1000
,
0100
1000
1200
0300
0010
0001
0201
0300
,
1000
0000
0000
0000
0000
0000
0000
0000
0100
0000
0000
0000
0000
0000
0000
0000
0010
0000
0000
0000
0000
0000
0000
0000
0001
0000
0000
0000
0000
0000
0000
0000
0010
0000
0000
0000
0000
0000
0000
0000
0100
0000
0000
0000
0000
0000
0000
0000
1000
0000
0000
0000
0000
0000
0000
0000
0020
0030
0000
0000
0000
0000
0000
0000
,
0000
0000
0000
0000
0000
0000
0000
0000
0100
0000
0000
0000
0000
0000
0000
0000
0001
0000
0000
0000
0000
0000
0000
0000
0020
0030
0000
0000
0000
0000
0000
0000
0000
0000
0000
0000
0000
0000
0000
0000
0001
0000
0000
0000
0000
0000
0000
0000
1000
0000
0000
0000
0000
0000
0000
0000
0100
0000
0000
0000
0000
0000
0000
0000
,
0001
0000
0000
0000
0000
0000
0000
0000
0010
0000
0000
0000
0000
0000
0000
0000
0100
0000
0000
0000
0000
0000
0000
0000
1000
0000
0000
0000
0000
0000
0000
0000
0100
0000
0000
0000
0000
0000
0000
0000
0010
0000
0000
0000
0000
0000
0000
0000
0001
0000
0000
0000
0000
0000
0000
0000
0200
0300
0000
0000
0000
0000
0000
0000
,
0000
0000
0000
0000
0000
0000
0000
0000
0010
0000
0000
0000
0000
0000
0000
0000
1000
0000
0000
0000
0000
0000
0000
0000
0200
0300
0000
0000
0000
0000
0000
0000
0000
0000
0000
0000
0000
0000
0000
0000
0110
0000
0000
0000
0000
0000
0000
0000
2002
3003
0000
0000
0000
0000
0000
0000
0000
0000
0000
0000
0000
0000
0000
0000
,
1000
0000
0000
0000
0000
0000
0000
0000
0100
0000
0000
0000
0000
0000
0000
0000
0010
0000
0000
0000
0000
0000
0000
0000
0100
0000
0000
0000
0000
0000
0000
0000
0001
0000
0000
0000
0000
0000
0000
0000
0100
0000
0000
0000
0000
0000
0000
0000
1000
0000
0000
0000
0000
0000
0000
0000
0020
0030
0000
0000
0000
0000
0000
0000
,
0000
0000
0000
0000
0000
0000
0000
0000
0100
0000
0000
0000
0000
0000
0000
0000
0001
0000
0000
0000
0000
0000
0000
0000
0020
0030
0000
0000
0000
0000
0000
0000
0000
0000
0000
0000
0000
0000
0000
0000
0100
0000
0000
0000
0000
0000
0000
0000
1000
0000
0000
0000
0000
0000
0000
0000
0001
0000
0000
0000
0000
0000
0000
0000
,
1000
0010
0100
0010
0001
0010
1000
0100
,
0000
0010
0001
0000
0011
1001
0000
0000
,
2010
0000
0000
0100
0000
0000
0000
0010
,
0000
0100
0000
3000
0001
0000
1000
0000
,
0012
0000
0000
0100
0000
0000
0010
0000
,
1000
0000
0100
0003
1000
0000
0001
0000
,
0200
0000
0310
0000
0010
0000
0100
0010
,
0000
0010
1000
0100
0000
0000
0001
0010
,
0002
0000
0103
0010
1000
0100
0010
0002
,
0000
0000
0000
0000
0000
0000
0103
0010
,
2000
0000
3100
0010
0000
0010
0100
0010
,
0000
0100
1000
0010
0000
0100
0001
0010
,
0002
0000
0103
0010
0000
0010
0100
0010
,
0000
0100
0001
0010
0000
0100
1000
0010
,
1000
0001
0100
0010
0000
1000
0001
1000
,
0000
0100
1000
0010
0000
0001
0100
0001
,
0010
0100
1000
0010
0000
0100
0001
0010
,
0110
0000
0001
0000
1000
0000
0010
0000
1000
0000
0010
0100
0000
0001
0010
0000
,
0100
0000
1100
0000
0100
1000
0010
0000
,
1000
0010
0001
0000
0010
0100
0001
0000
,
0010
0000
0011
0000
0100
1000
0010
0000
,
0200
0000
0320
1030
0002
0013
0200
1300
,
0010
0000
0101
0000
0010
1000
0100
0000
,
0001
1000
0010
0000
0100
0010
0001
0000
,
1010
0000
0000
0000
1100
0000
0100
0010
0002
0000
0003
0000
0200
0000
0300
0000
,
0002
0000
2003
0000
3002
1000
1003
0010
,
1000
0100
0001
0100
1000
0001
0100
0010
,
0000
1000
0010
0001
0000
0010
1000
0100
,
0010
1001
0100
0110
,
0001
0000
0010
1000
0010
0100
1000
0010
,
0100
0001
0010
0100
2000
3010
0200
0301
,
0020
0130
1000
0001
0100
0010
1000
0001
,
0100
0000
0000
0010
0000
0000
1000
0000
0001
0000
0000
0100
0000
0000
0001
0000
,
1000
0000
0000
0001
0000
0000
1001
0000
0220
0000
0000
0000
0000
0000
0330
0000
,
0010
1000
0001
0100
1000
0100
0001
0010
,
0000
1000
0010
0100
0000
0100
0001
0010
,
0100
0000
1100
0000
0101
0000
0010
0100
,
0010
0000
0000
0001
0000
0000
1000
0000
0002
0000
0000
0000
1003
0000
0100
0000
,
0010
0000
0001
0100
1000
0000
1000
0010
,
0001
0000
0110
0000
1001
0000
0010
0100
,
0020
2030
3002
0203
,
0310
0000
0000
0001
0000
0000
2000
0000
0000
0000
0000
0000
3000
0000
0100
0000
,
0100
0010
0001
0020
0000
0030
0000
0100
,
0100
0010
1000
0020
0000
0030
0000
0001
,
2000
0000
0000
0000
3020
0000
0000
0000
0032
0000
0000
0000
0203
0000
0000
0300
,
2010
0000
0000
0100
0000
0000
0020
0000
0000
0000
0000
0030
3000
0000
0100
0000
,
0100
0010
1000
0020
0000
0030
0000
0100
,
0100
0010
0001
0020
0000
0030
0000
0001
,
1000
0010
0001
0100
0000
0002
0000
2000
,
0000
0000
0000
0000
,
3003
0000
0000
0000
;

//---------------dance-single - Copied from----------------
#NOTES:
     dance-single:
     Copied from:
     Medium:
     6:
     0.549,0.557,0.291,0.323,0.000,300.000,27.000,30.000,0.000,0.000:
0000
0000
0000
0000
,
1000
1000
0100
0010
,
0001
0100
1000
0100
,
0001
0001
0010
0100
,
0001
1010
0100
0011
,
1001
0100
0010
0001
0010
0000
0100
1000
,
0010
0100
0001
2000
0000
0000
0100
3000
,
1000
0100
0010
0001
0010
0000
0100
0010
,
1000
0001
1000
0110
0000
0000
1001
0000
,
1000
0001
0100
0001
0010
0000
1000
0001
,
0100
1000
0100
0010
0000
1000
0100
0001
,
0010
0000
0010
0000
0010
0000
0010
1001
,
0000
0001
0100
0000
0101
2000
0000
3000
,
0001
0000
0000
1000
0000
0000
0000
0100
,
0000
0010
0000
0000
0001
0000
1000
0000
,
0010
0000
0000
0100
0000
0000
0001
0000
,
1000
0100
0001
0100
,
1000
0000
0001
0100
0001
0000
0010
0100
,
0000
1000
0010
1000
0000
0000
0100
0010
,
0001
0000
0000
0000
1000
0010
0100
0002
,
0000
0000
0000
0000
0000
0000
2000
3003
,
1001
0000
1000
0100
0001
0100
0000
1000
,
0000
0010
0100
0020
0000
0000
0100
0030
,
1000
0000
0001
0100
0010
0100
0001
0010
,
0000
1000
0100
0020
0000
0000
0100
0030
,
0001
0000
1000
0001
1000
0100
0001
0010
,
0000
0100
0010
1000
0001
0001
0100
0020
,
0000
0000
0100
0000
0000
0000
0100
0030
,
1000
0001
0100
0001
0000
0110
0000
1010
,
0100
0110
1000
0001
,
0020
0000
0130
0000
0001
1000
0100
0000
,
0012
0203
0320
2030
,
3002
0000
1003
0000
0100
0001
0010
0000
,
0200
0000
0310
1000
0001
0010
0100
1000
,
0000
0100
0010
0001
0000
2000
0000
0000
,
3010
0100
0010
0000
2100
0000
3002
0000
,
0013
0110
1001
0110
,
1000
0001
0100
0001
1000
0001
0100
0001
,
1000
0000
0010
1000
0001
0010
1000
0010
,
0001
0000
0101
0000
0010
0100
0001
0000
,
1100
0000
0110
0000
0100
0010
1000
0100
,
1000
0001
1000
0001
0010
0000
1001
0000
,
2002
0000
0000
0000
3003
0001
0100
0001
,
1000
0000
1000
0100
1000
0001
0100
0010
,
0100
0010
1000
0001
1000
0001
0010
0000
,
0001
1000
0010
1000
0001
1000
0010
1000
,
0001
0000
0100
0001
1000
0100
0001
0100
,
1000
0000
1010
0000
0100
0001
0010
0000
,
1100
0000
0011
0000
0001
1000
0100
1000
,
0010
0000
0100
0001
0010
0000
0010
1000
,
0100
0000
1000
0001
0100
0000
0010
0010
,
0200
0302
2003
3002
,
0203
0000
0000
0000
0000
0000
0000
0301
,
1000
0100
0010
0002
0000
0000
0003
1000
,
0001
0100
0010
2000
0000
0000
3000
0010
,
0100
1001
0010
1001
,
0200
0000
0000
0000
0000
0000
0300
0001
,
0001
0100
1000
0002
0000
0000
0003
1000
,
1000
0100
0001
2000
0000
0000
3000
0010
,
0001
0100
0010
0100
0000
1001
0000
0200
,
0000
0000
0000
0000
0000
0000
0000
0300
;

//---------------dance-single - ----------------
#NOTES:
     dance-single:
     :
     Easy:
     4:
     0.399,0.458,0.226,0.248,0.000,215.000,21.000,23.000,0.000,0.000:
0000
0000
0000
0000
,
0001
0001
0100
0100
,
1000
1000
0010
0010
,
0100
0001
0100
1000
,
0010
0100
0110
1001
,
0200
0010
0001
0310
,
2000
0001
0000
3001
,
0002
0100
0010
0103
,
2000
0010
0000
3001
,
0200
1000
0010
0301
,
0002
0010
0000
0103
,
2000
0000
0001
0000
0001
0000
3001
0002
,
0000
0000
0100
0000
0000
0013
0000
0000
,
1000
0000
0100
0000
,
1000
0000
0001
0000
,
0001
0000
0010
0000
,
0001
0000
0100
0000
,
0010
0000
0010
0000
,
1000
0000
0100
0000
,
0001
0000
0001
0100
,
1000
0010
0000
1001
,
1100
0010
0100
0010
,
1000
0100
0001
0200
,
0000
0301
0010
0100
,
0010
0001
0100
1000
,
0200
0310
0010
0010
,
1000
0001
0101
1000
,
0100
0100
0100
0100
,
0001
0010
0100
0000
1000
0000
0101
0000
,
1000
0010
0001
0010
,
2000
0100
3010
0100
,
0001
0010
1000
0010
,
0002
0100
0100
0013
,
0100
0000
1000
0001
1000
0000
0100
0000
,
0010
0001
0100
0010
,
2000
0100
3001
0010
,
0100
0101
1000
0010
,
0100
0101
0100
0101
,
0010
1000
0001
0010
,
0100
1100
0100
1100
,
0010
1000
0001
0100
,
1000
0010
0100
0010
,
0001
0010
0100
0010
,
1000
0101
0001
1100
,
0001
0010
1000
0100
,
0001
0011
0001
0011
,
1000
0001
0100
0010
,
1000
1100
1000
1100
,
0001
0100
1000
0001
,
0200
0310
2000
3001
,
0020
0130
0001
1000
,
0100
0010
0100
0001
,
2000
0000
0000
3000
,
0001
0001
0001
1001
,
0100
0100
0100
1010
,
2000
3002
2003
3002
,
2003
0000
0000
3000
,
0010
0100
0010
1001
,
0100
0001
0010
1100
,
0010
0001
0100
0010
0000
1000
0000
0200
,
0000
0000
0000
0300
;

//---------------dance-single - ----------------
#NOTES:
     dance-single:
     :
     Challenge:
     15:
     1.000,1.000,1.000,1.000,0.662,536.000,166.000,126.000,0.000,31.000:
0000
0000
0000
0000
,
1002
0103
1020
0031
1200
0301
1020
0130
,
0021
1030
0201
0310
2001
3100
0021
0130
,
1002
0000
0103
0000
1020
0000
0031
0000
1200
0000
0310
0000
1000
0100
0010
0001
,
0100
1000
0010
0100
0202
0000
0000
0303
0010
0001
0100
0010
2020
0000
0000
3030
,
0101
1000
0010
1000
0100
1000
0010
0100
0001
0010
0001
0100
0010
1000
0202
0000
,
0313
0000
1000
0000
0110
0000
2002
0000
3013
0000
0001
0100
1000
0100
0010
0000
,
1010
0001
0100
0001
0010
0001
0100
0010
1000
0100
1000
0010
0100
0001
2200
0000
,
0000
3300
0010
0001
0100
0000
2002
0000
0000
0000
3113
0000
0022
0000
0133
0000
,
0011
1000
0100
1000
0010
1000
0100
0010
0001
1000
0001
0100
0010
1000
0202
0000
,
0313
0000
1000
0000
0101
0000
2020
0000
3130
0000
0001
0010
1000
0010
0100
0000
,
1001
0000
0010
0000
1001
0000
0010
0000
1001
0000
0100
1000
0010
0001
0220
0000
,
0330
0000
1000
0010
1001
0000
0100
0000
0011
1000
0022
0000
0000
0000
0033
0000
,
2100
0000
0000
0001
0000
0000
0000
0100
,
0000
0010
0000
3000
0011
0000
1010
0000
,
0102
0000
0000
1000
0000
0000
0010
1000
,
0100
0010
1000
0003
0100
0000
0010
0000
,
2002
0000
3113
0010
0110
0000
1001
1010
,
0000
1000
0100
0010
0001
0001
0010
0100
,
1000
0010
0100
0010
1000
0001
0100
0020
,
0100
0000
1000
0000
0001
0000
1000
0000
0100
0000
1000
0030
0001
0010
0100
1000
,
0012
0000
0103
1010
0000
0010
1100
0001
,
0000
0001
1100
0010
0000
0010
1100
0001
,
1000
0010
0101
0010
0000
0001
1100
0010
,
0000
0010
1100
0001
0000
0001
1100
0010
,
2001
0000
3110
0001
0000
1000
0101
1000
,
1002
0000
0113
1000
0000
0001
1010
0001
,
0100
1000
0101
0010
0100
1000
0101
0010
,
1001
0000
0100
0000
1010
0000
0001
0000
1100
0000
0001
0110
0000
1000
0011
0000
,
0101
1000
0110
1000
0011
0100
1001
0010
,
1100
0000
0010
0000
0100
0001
0010
0000
1100
0000
0010
0000
0100
0001
0010
0000
,
1010
0001
0110
0001
1100
0010
0101
1000
,
0021
0130
1020
0130
1002
0013
0201
0310
,
2002
0000
0100
0000
3013
0000
0101
1000
0010
0000
0100
0000
1001
0010
0100
0000
,
2020
0000
0001
0000
3130
0000
1001
0100
0010
0000
0100
0000
0011
1000
0100
0000
,
1001
0100
0010
1000
0100
1000
0010
0100
0001
0010
1000
0000
2100
0000
3010
0000
,
0002
0023
0230
2300
3002
0023
0230
2300
3010
0001
0100
0010
0001
1000
0010
0100
,
0011
1000
0001
1000
0010
1000
0001
0100
1010
0100
0001
0100
0010
1000
0001
0010
,
1001
0100
0010
0000
0101
0000
2010
0100
0001
0000
3020
0030
0001
0010
0100
1000
,
0011
0100
0001
1000
0011
0100
0001
1000
0210
0000
0301
0000
1020
0000
0130
0000
,
0201
0000
0000
0000
0300
0000
0000
0000
2000
0000
0000
0000
3000
0000
0000
0000
0201
0000
0000
0000
0300
0000
0000
0000
0020
0000
0000
0000
0000
0000
0000
0000
2032
0000
0000
0000
0000
0000
0000
0000
3003
0000
0000
0000
0000
0000
0000
0000
2222
3333
0000
0000
0000
0000
0000
0000
0000
0000
0000
0000
0000
0000
0000
0000
,
1001
0010
1010
0100
1100
0001
1100
0010
,
1000
0001
0100
0000
0110
0000
0001
1000
0100
0000
1001
0000
0110
0001
1000
0000
,
0021
0000
0000
0230
0001
0000
2300
0000
3020
0000
0000
0230
1001
0000
0320
0000
,
1031
0000
0000
1010
0000
0000
0101
0000
2012
3000
0103
1000
0220
0000
0000
0330
,
1010
0001
1000
0001
0100
0001
1000
0010
0101
1000
0010
0100
0001
0010
0001
1000
,
0101
0010
1000
0000
0011
0000
2100
0010
0100
0000
3012
0000
1003
0100
0010
0001
,
1010
0100
0001
0100
1010
0100
0001
1000
0120
0000
1030
0000
0201
0000
0310
0000
,
1020
0000
0000
0000
0030
0000
0000
0000
0200
0000
0000
0000
0300
0000
0000
0000
1020
0000
0000
0000
0030
0000
0000
0000
0002
0000
0000
0000
0003
0000
0000
0000
2002
0000
0000
0000
0000
0000
0000
0000
3003
0000
0000
0000
0000
0000
0000
0000
2222
3333
0000
0000
0000
0000
0000
0000
0000
0000
0000
0000
0000
0000
0000
0000
,
1001
0000
0100
0000
0011
0000
0100
0010
1001
0000
0100
0000
1010
0000
0100
1000
,
0011
0000
1000
0000
0110
0000
0001
0010
1100
0000
0010
0000
2002
0000
3003
0000
,
0202
0000
1303
0000
1010
0100
0001
0010
2200
0000
3301
0000
0022
1000
0133
0000
,
1001
0000
0000
0110
0000
0000
2002
0000
0000
0000
0000
0000
0000
0000
3003
0000
,
1100
0000
0010
0000
1100
0000
0001
0000
1100
0100
0010
0000
1100
0100
0001
0000
,
0011
0000
0100
0000
0011
0000
1000
0000
0011
0001
0100
0000
0011
0001
1000
0000
,
0202
0313
2020
3130
2200
3301
0022
0133
,
1001
0000
0000
0110
0000
0000
2002
0000
0000
0000
3103
0010
1000
0100
0010
0001
,
1200
0000
0310
0000
1201
0000
0310
0000
1100
0001
0010
0001
0100
0010
1000
0000
,
0021
0000
0130
0000
1021
0000
0130
0000
0011
1000
0100
1000
0010
0100
0001
0100
,
2001
0000
0000
0000
0000
0000
3200
0000
0000
0000
0000
0000
0320
0000
0000
0000
0000
0000
0032
0000
0000
0000
0000
0000
0000
0000
0000
0003
0000
0000
1100
0000
0010
0000
0001
0000
0100
0000
0000
0010
0000
0000
2002
0000
0000
0000
0000
0000
,
0000
0000
0000
0000
0000
0000
0000
0000
0000
0000
0000
0000
0000
0000
0000
0003
,
3000
0000
0000
0000
;
