#TITLE:Sakura Taisen;
#SUBTITLE:- Geki! Teikoku Kageki-Dan;
#ARTIST:Chisa Yokoyama;
#TITLETRANSLIT:;
#SUBTITLETRANSLIT:;
#ARTISTTRANSLIT:;
#CREDIT:;
#BANNER:SakuraLogo.jpg;
#BACKGROUND:SakuraBG.jpg;
#LYRICSPATH:;
#CDTITLE:;
#MUSIC:Sakura.mp3;
#OFFSET:0.705;
#SAMPLESTART:41.154;
#SAMPLELENGTH:12.000;
#SELECTABLE:YES;
#BPMS:0.000=142.500,191.000=71.250,207.000=142.500;
#STOPS:;
#BGCHANGES:20.000=SakuraWars.avi=1.000=0=0=1,
259.000=SakuraBG.png=1.000=0=0=1,
262.500=SakuraBG.jpg=1.000=0=0=1,
99999=-nosongbg-=1.000=0=0=0 // don't automatically add -songbackground-
;
// cache tags:
#FIRSTBEAT:20.000;
#LASTBEAT:262.500;
#SONGFILENAME:Songs/Anime Songs/Sakura Taisen/Sakura.sm;
#HASMUSIC:1;
#HASBANNER:1;
#MUSICLENGTH:118.964;
// end cache tags

//---------------dance-single - BASIC----------------
#NOTES:
     dance-single:
     BASIC:
     Easy:
     4:
     0.318,0.386,0.446,0.067,0.000,204.000,53.000,8.000,0.000,0.000:


0000
0000
0000
0000
,
0000
0000
0000
0000
,
0000
0000
0000
0000
,
0000
0000
0000
0000
,
0000
0000
0000
0000
,
0100
0100
0100
1001
,
1000
0100
0001
0100
,
1000
0100
0000
0010
,
0001
0010
0100
0001
,
0100
1000
0100
1001
,
1001
0010
0010
1001
,
1001
0100
0100
0110
,
0010
0010
0100
0110
,
0100
0200
0300
0100
,
0100
0100
0001
0100
,
0001
1000
1001
0000
,
0110
0000
0110
0000
,
0110
0001
0010
1001
,
0100
1000
0010
0100
,
0100
1000
0000
0100
,
1000
0100
0001
1001
,
1001
1100
0101
1001
,
1000
0001
1000
1000
,
0001
1000
0100
1100
,
0010
0101
0010
1000
,
0010
0010
1000
1000
,
0000
1000
0100
0010
,
0000
0100
0000
0001
,
0100
0010
0001
0100
,
0100
0100
0100
0001
,
0100
1001
0110
1001
,
0000
0100
0100
0100
,
0000
1001
1001
1001
,
0000
0010
0010
0010
,
0000
0110
1001
0110
,
0000
0100
0010
0100
,
1000
0010
0110
0110
,
0000
0100
0001
0001
,
0000
0110
1001
0110
,
0000
1000
1000
1000
,
0000
1001
1001
1001
,
0000
0001
0001
0001
,
0000
1001
0110
1001
,
0000
1000
0100
0010
,
0011
0101
0010
0100
,
1000
0100
0010
0100
,
0000
0001
0010
0100
,
0010
0010
0010
1001
,
0010
0100
0010
1000
,
0100
0010
0000
0100
,
1000
0100
0001
0010
,
0010
0200
0300
0110
,
0000
0100
0100
0010
,
0100
0100
0010
1001
,
0000
0000
0000
0000
0000
1001
0000
0000
,
0000
0110
0000
0000
0000
1001
0000
0000
,
0100
0010
0010
0100
,
0100
0000
0010
0010
,
0001
0100
0100
0000
,
0100
1000
1000
0010
,
0010
0000
1000
0000
0000
1001
0000
0000
,
0100
0100
0100
2000
,
3000
0002
0000
0003
2002
0000
3003
0000
,
1000
0001
1000
2002
,
0000
0000
3003
0000
0000
0000
0000
0110
,
0000
0000
0110
0000
0000
0110
0000
0000;

//---------------dance-single - ANOTHER----------------
#NOTES:
     dance-single:
     ANOTHER:
     Medium:
     6:
     0.431,0.496,0.496,0.134,0.017,284.000,59.000,16.000,0.000,0.000:


0000
0000
0000
0000
,
0000
0000
0000
0000
,
0000
0000
0000
0000
,
0000
0000
0000
0000
,
0000
0000
0000
0000
,
0011
0110
1100
1001
,
1001
1100
1001
0101
,
1001
0011
1001
1010
,
0110
1001
0100
0010
,
0100
0000
1001
0000
0010
0000
0110
0110
,
0110
0000
1000
0001
1000
0000
0110
0110
,
0110
0000
0001
1000
0001
0000
0100
1000
,
0100
0000
0001
0100
0001
0000
1000
0100
,
1000
0001
0200
0000
0300
0000
1001
0000
,
0100
1000
0100
0000
0000
0000
1000
0001
,
0100
0010
1000
0000
0000
0000
1000
0100
,
0010
0000
0001
0100
0010
0000
1001
0000
,
0100
0001
0100
1001
,
0010
1000
0100
0000
0010
0001
0200
0000
,
0000
0000
0300
0000
0000
0001
1000
0001
,
1000
0100
0000
0100
0010
0000
1001
0000
,
0100
1001
0000
1001
,
1000
0100
0002
0000
0003
0000
0010
0100
,
0010
0100
0010
0000
0000
0000
1001
0000
,
0010
0010
0010
0000
0100
0100
0100
0000
,
1000
0000
0001
0000
1001
0000
2002
3003
,
0000
0001
1000
0001
1000
0001
2000
0000
,
0000
3000
0100
0000
0000
0001
1000
0001
,
1000
0001
1000
0001
1000
0000
0100
1000
,
0100
1000
0100
1000
0100
0010
0001
0010
,
0001
0010
0001
0000
0110
0000
1000
0000
,
1001
0101
1001
1100
,
0000
1001
0100
1001
,
0000
1000
0001
1000
0001
1000
0100
0000
,
0010
1100
0010
0101
,
0000
0000
1100
0000
0010
0001
0100
0000
,
1001
0000
0010
1000
0100
0000
1001
0000
,
0000
0010
0001
1000
0001
1000
0100
0000
,
0000
1001
0100
1001
,
0001
0100
0001
0000
1000
0100
1000
0000
,
0000
1001
0100
1001
,
0000
0001
1000
0001
1000
0001
0100
0000
,
0010
1100
0001
0101
,
0000
0000
1001
0000
0010
1000
0100
0000
,
1001
0000
0010
0001
0100
0000
1001
0000
,
0000
0010
0001
1000
0001
1000
0100
0000
,
1000
0001
0100
0000
0000
1100
0000
0000
,
0000
0000
0000
0000
1100
0000
0000
0000
0101
0000
0000
0000
0200
0300
0000
0000
,
1000
0000
0000
0001
0000
0000
0200
0000
0000
0300
0000
0000
0010
0000
0000
0000
0000
0000
2000
0000
3000
0000
0000
0000
,
0100
0000
0010
0000
0002
0000
0000
0000
0000
0003
0000
0000
0200
0000
0300
0000
,
1000
0010
0200
0000
0000
0000
0320
0000
,
0000
0030
0002
0000
0003
0000
0110
0000
,
0001
0000
1000
0001
0010
0000
1001
0000
,
1000
0000
0001
1000
0010
0000
1001
0000
,
0000
0000
0000
1000
1000
0100
0000
0001
,
0001
0100
0000
0100
0100
0100
0000
0000
,
0100
1000
0100
0000
0001
0000
0100
0000
,
1000
0100
0000
0000
0010
1000
0010
0000
,
0100
0001
0000
0000
1000
0001
0000
0001
,
0100
0000
1000
0100
1000
0000
0010
0001
,
0010
0000
0000
1000
0001
0100
0000
1000
,
0100
0000
0000
0000
0000
0000
0000
0000
0000
0000
0000
0000
1000
0000
0000
0100
,
0000
0000
0001
0000
0000
0010
0000
0000
1000
0000
0000
0100
0000
0000
0000
0000
,
1000
0000
0100
0000
0001
0000
0100
0000
1000
0000
0000
0000
0110
0000
0000
2002
,
0000
0000
0000
0000
0000
3003
0000
0000
0000
0000
0000
0000
1000
0000
1000
0000
,
0000
0001
0001
0000
0100
0100
0000
0000;

//---------------dance-single - MANIAC----------------
#NOTES:
     dance-single:
     MANIAC:
     Hard:
     8:
     0.556,0.579,0.588,0.177,0.151,372.000,70.000,21.000,0.000,0.000:

0000
0000
0000
0000
,
0000
0000
0000
0000
,
0000
0000
0000
0000
,
0000
0000
0000
0000
,
0000
0000
0000
0000
,
1010
0110
0101
1001
,
0100
1000
0010
0000
0100
0001
0010
1000
,
0010
0000
0001
0000
0100
0000
0000
0000
1010
0000
0000
0000
0100
0000
0000
0100
,
0001
0000
0100
0000
0010
0000
1000
0000
0100
0000
0010
0000
0001
0000
0100
0010
,
0100
0010
1000
0000
0100
0000
1100
1100
,
1100
0000
0000
0000
0010
0001
0010
0001
0010
0000
0000
0000
0101
0000
0101
0000
,
0101
0000
0000
0000
0010
1000
0010
1000
0010
0000
0000
0000
0100
0000
0001
0000
,
0010
0000
1000
0000
0010
0000
0001
0000
0100
0000
0000
0000
0100
0010
0000
0010
,
1000
0000
0000
1000
0200
0000
0000
0000
0000
0000
0000
0010
0300
0000
0000
0000
,
0100
0000
1000
0000
0101
0000
0000
0000
0000
0000
0000
0000
0100
0000
0010
0001
,
0000
0000
1000
0000
0100
0000
0000
0000
1001
0000
0000
0000
1000
0000
0000
1000
,
0100
0000
0010
0000
0001
0000
0000
0001
0100
0000
0010
0000
1000
0000
0000
0000
,
0100
0010
0001
0100
0010
1000
1001
0000
,
0100
0001
1000
0100
0010
0001
0200
0000
,
0300
0000
0000
0010
1000
0010
0000
0000
0000
0000
0100
0001
0100
0000
0010
0000
,
1000
0200
0000
0310
0001
0000
1001
0000
,
1001
0000
1100
0010
0101
0000
1001
0000
,
1000
0100
0001
0100
1000
0001
1000
0010
,
0001
0000
0010
0000
1000
0000
0000
0000
0100
0000
0000
0000
1100
0000
0000
0100
,
0010
0000
0010
0000
0101
0000
0000
0100
0010
0000
0010
0000
1000
0000
0100
0000
,
0010
0001
0010
0100
1000
0001
2000
0000
,
0000
3000
0001
0000
1000
0000
0001
0000
0100
0000
1000
0000
0020
0000
0000
0000
,
0000
0000
0130
0000
0000
0100
0001
0010
,
0100
1000
0010
0100
0002
0003
0100
1000
,
0100
0010
0100
1000
0100
0010
0001
0010
,
0100
0010
1001
0000
0110
0000
1001
0100
,
0010
0001
0100
1000
0100
0001
0010
0000
,
0000
1100
0011
0101
,
0000
0010
1000
0100
0010
0001
0100
0000
,
0100
0000
0002
0003
1000
0001
0020
0000
,
0030
0000
0000
0000
0100
1000
0100
0000
0010
0000
0001
0000
0100
0000
0010
0000
,
1000
0100
0010
0001
0110
0101
2200
3300
,
0000
1000
0100
0010
0001
0100
0001
0000
,
0000
0000
1001
0000
0110
0000
1001
0100
,
0010
1000
0100
0001
0100
1000
0010
0100
,
0001
0010
0101
0000
0110
0000
1010
0100
,
0001
0100
1000
0010
0100
0001
0010
0000
,
0100
0000
2000
3000
0001
1000
0020
0000
,
0030
0000
0000
0000
1000
0100
0010
0000
0001
0000
0100
0000
0010
0000
1000
0000
,
0100
0010
0001
0100
1010
0110
0202
0303
,
0000
0000
0001
0000
0100
0000
0001
0000
1000
0000
0100
0000
1000
0000
0000
0010
,
0000
0001
0100
0010
1000
1100
0000
1000
,
0100
0010
0011
0000
1100
0000
0200
0300
,
1000
0000
0000
0000
0000
0000
0001
0000
0000
0000
0000
0000
0100
0000
0000
0001
0000
0000
0000
0000
0000
0001
0000
0000
0010
0000
0000
0000
0000
0000
0100
0000
0000
0000
0000
0000
2000
0000
0000
0000
3000
0000
0000
0000
0000
0001
0000
0000
,
0100
0000
0010
0100
0020
0000
0000
0000
0000
0000
0030
0000
0200
0000
0300
0000
,
1000
0000
0010
0000
0100
0001
0000
0100
0001
0000
1000
0100
0010
0000
0001
0100
,
0010
0000
1000
0000
0200
0000
0000
0000
0000
0300
0000
0000
0110
0000
0000
0000
,
1000
0100
0001
0100
1000
0000
1001
0000
,
1000
0100
0010
0001
0101
0000
1001
0000
,
0000
0000
0000
1000
0100
1100
0000
0001
,
0100
0101
0000
1000
0100
1100
0000
0000
,
1000
0001
0010
0000
0011
0000
1100
0000
,
1000
0100
0000
0001
0100
0000
0110
0000
,
0010
0100
0000
0000
0010
1001
0000
1001
,
0100
0000
1000
0100
0010
0000
0001
0100
,
0010
1000
0100
0010
0001
0110
0000
1100
,
0110
0000
0000
0000
0011
0000
0000
0000
0000
0000
0000
0000
1100
0000
0000
1010
,
0000
0000
0011
0000
0000
0101
0000
0000
0110
0000
0000
1001
0000
0000
0000
0000
,
1000
0100
0000
0000
0100
0010
0000
0000
0010
0001
0000
0000
0002
0000
0000
0200
,
0000
0000
0000
0303
0000
0000
0110
1001
,
0000
1001
0110
0000
0110
1001
0000
0000;
