#TITLE:Extratone Firestorm;
#SUBTITLE:~carpal tunnel exclusive~;
#ARTIST:Annoying Ringtone;
#TITLETRANSLIT:;
#SUBTITLETRANSLIT:;
#ARTISTTRANSLIT:;
#CREDIT:;
#BANNER:Extratone Firestorm - bn.png;
#BACKGROUND:Extratone Firestorm - bg.png;
#LYRICSPATH:;
#CDTITLE:../aCD.png;
#MUSIC:Extratone Firestorm.ogg;
#OFFSET:0.009;
#SAMPLESTART:80.060;
#SAMPLELENGTH:12.000;
#SELECTABLE:YES;
#BPMS:0.000=300.000;
#STOPS:;
#BGCHANGES:;
// cache tags:
#FIRSTBEAT:0.000;
#LASTBEAT:836.000;
#SONGFILENAME:Songs/Aoreo's Index Jawn/Extratone Firestorm - [Aoreo]/Extratone Firestorm.sm;
#HASMUSIC:1;
#HASBANNER:1;
#MUSICLENGTH:171.000;
// end cache tags

//---------------dance-single - J. Nero----------------
#NOTES:
     dance-single:
     J. Nero:
     Challenge:
     28:
     1.000,1.000,0.181,0.298,1.000,2100.000,31.000,51.000,0.000,3.000:
1000
0001
0100
0010
0100
0001
1000
0100
0010
0001
0100
0010
0100
0001
1000
0100
,
0010
0100
1000
0001
0100
0010
0100
0001
1000
0100
1000
0001
0100
0010
0100
0001
,
1000
0100
0010
0100
1000
0010
0100
0001
1000
0001
0010
0100
1000
0001
0100
0001
,
1000
0100
0010
0001
1000
0010
0100
0010
1000
0100
1000
0001
0100
0001
1000
0100
,
0010
0001
0100
0010
0100
0001
1000
0100
0010
0100
1000
0001
0100
0001
0100
0010
,
1000
0001
0100
0010
0100
0001
1000
0100
0010
0001
1000
0100
1000
0001
0100
0010
,
0100
0001
0010
0100
1000
0001
0100
0010
0100
0001
1000
0100
0010
0100
1000
0001
,
0100
0001
1000
0010
1000
0100
0010
0001
1000
0010
0100
0010
1000
0001
0010
0100
,
1000
0001
0100
0010
0100
0001
1000
0100
0010
0100
1000
0001
0100
0010
0100
0001
,
1000
0100
0010
0100
1000
0001
0100
0010
0100
0001
0010
0100
1000
0001
0100
0001
,
1000
0100
0010
0001
1000
0100
1000
0001
0100
0001
1000
0100
0010
0100
1000
0001
,
0100
0001
0100
0010
1000
0001
0100
0001
1000
0100
0010
0001
1000
0100
1000
0001
,
0100
0010
0100
0001
1000
0001
0100
0010
0100
0001
1000
0100
0010
0001
1000
0100
,
0010
0100
1000
0010
0100
0010
1000
0001
0100
0001
1000
0100
0010
0100
1000
0010
,
0100
0010
1000
0001
0010
0100
1000
0001
0100
0010
0100
0001
1000
0100
0010
0100
,
1000
0010
0100
0010
1000
0100
0010
0001
0100
0001
1000
0010
1000
0100
0010
0001
,
1000
0000
0100
0010
0000
0010
0001
0000
,
1000
0000
0010
0000
0000
0000
0010
0000
0100
0000
0000
0000
0001
0100
0001
1000
,
0100
0010
0001
1000
0001
0100
0010
0100
0001
1000
0100
0010
0001
1000
0010
1000
,
0001
0100
0001
0010
0100
1000
0001
0100
0001
1000
0100
0010
0001
1000
0010
0100
,
0001
0000
0010
0100
0000
0100
1000
0000
,
0010
0000
0100
0000
0000
0000
0100
0000
0001
0000
0000
0000
1000
0010
1000
0001
,
0100
0001
0010
0100
1000
0001
1000
0010
0100
0010
1000
0100
0010
0001
1000
0001
,
0100
0010
0100
0001
1000
0001
0010
0100
1000
0001
0100
0001
1000
0010
0100
0010
,
1000
0000
0010
0100
0000
0100
0001
0000
,
0010
0000
0100
0000
0000
0000
0100
0000
1000
0000
0000
0000
0001
0010
0100
0010
,
0001
0100
0010
1000
0001
1000
0100
0010
0001
0100
0010
0100
0001
1000
0100
0010
,
0001
1000
0100
1000
0001
0100
0010
0100
0001
1000
0100
0010
0001
1000
0010
0100
,
0010
0000
1000
0010
0000
0010
0100
0000
,
0001
0000
0010
0000
0000
0000
0010
0000
0100
0000
0000
0000
1000
0100
0010
0001
,
1000
0001
0100
0010
0100
0001
1000
0100
0010
0001
1000
0010
0100
0010
1000
0001
,
0010
0100
1000
0010
0100
0001
0010
0001
0100
0010
1000
0100
0010
0001
1000
0010
,
1000
0010
0100
0001
0010
0100
1000
0001
,
0010
0100
1000
0010
0100
0001
1000
0100
,
1100
1000
0001
0100
0010
1000
0100
0010
,
0001
1000
0001
0100
0010
0100
0001
1000
,
1001
0001
0100
0010
0100
0001
0010
0100
,
1000
0001
1000
0100
0010
0100
1000
0001
,
0101
0100
0010
1000
0001
0010
0100
1000
,
1001
0000
1001
0000
0001
0100
0010
1000
,
1010
0010
0100
0001
0010
0100
1000
0001
,
0100
0010
0100
0001
0010
0100
1000
0001
,
1001
1000
0100
0010
0100
1000
0001
1000
,
0010
0100
0001
1000
0100
1000
0001
0010
,
0110
1100
1001
0101
,
0100
0010
0100
0001
0010
0100
1000
0001
,
2002
0000
0000
3003
0000
0000
0000
0000
,
1101
1101
1101
0000
,
1000
0001
0100
0001
1000
0100
0010
0001
1000
0100
1000
0001
0100
0010
0100
0001
,
1000
0100
0010
0100
1000
0001
0100
0001
1000
0010
0100
0010
1000
0001
0100
0010
,
1000
0001
0100
0001
1000
0100
0010
0100
1000
0001
0100
0001
1000
0100
1000
0001
,
0100
0010
0100
0001
1000
0100
0010
0001
1000
0100
1000
0001
0100
0001
1000
0100
,
1000
0001
0010
0100
1000
0001
1000
0010
0100
0010
1000
0001
1000
0100
0010
0001
,
1000
0010
0100
0010
1000
0001
0010
0100
1000
0001
0100
0010
0100
0001
1000
0100
,
0010
0001
1000
0001
0100
0010
0100
0001
1000
0001
0100
0010
0100
0001
1000
0100
,
0010
0001
0100
0001
1000
0010
0100
0010
1000
0001
0010
0100
1000
0001
0100
0001
,
1000
0010
0100
0010
1000
0001
0010
0100
1000
0001
0100
0001
1000
0010
0100
0010
,
1000
0001
1000
0100
0010
0001
0100
0001
1000
0010
1000
0001
0100
0010
0100
0001
,
1000
0100
0010
0001
1000
0100
0010
0100
1000
0001
0100
0010
0100
0001
1000
0010
,
0100
0010
1000
0001
0100
0001
1000
0100
0010
0001
1000
0100
1000
0001
0100
0001
,
1000
0010
1000
0001
0100
0010
0100
0001
1000
0100
0010
0001
1000
0100
1000
0001
,
0100
0010
0100
0001
1000
0100
0010
0100
1000
0001
0100
0001
1000
0100
0010
0100
,
1000
0001
0100
0010
0100
0001
1000
0100
0010
0001
1000
0100
1000
0001
0100
0001
,
0010
0100
1000
0001
0100
0010
0100
0001
1000
0001
0010
0100
1000
0001
0100
0001
,
1000
0000
0001
0010
0000
0010
0100
0000
,
1000
0000
0010
0000
0000
0000
0010
0000
0100
0000
0000
0000
0001
0100
0010
0100
,
0001
1000
0010
0100
0010
1000
0001
0010
0100
1000
0001
0100
0010
0100
0001
1000
,
0001
0010
0100
1000
0001
0100
0010
0100
0001
0000
0010
0000
0100
0000
1000
0000
,
0001
1000
0010
0100
0001
0100
0010
1000
,
0001
0000
1000
0000
0100
0000
1000
0000
0001
0000
0100
0000
0001
1000
0001
0100
,
0010
0100
0001
1000
0100
0010
0001
1000
0010
1000
0001
0100
0010
0100
0001
1000
,
0100
0010
0001
1000
0001
0100
0010
0100
0001
1000
0100
0010
0100
1000
0010
0100
,
0001
1000
0100
0010
0001
0000
0010
0000
0000
0000
0010
0000
0100
0000
0000
0000
,
1000
0000
0001
0000
0000
0000
0001
0000
1000
0000
0000
0000
0001
0100
0010
0100
,
0001
1000
0100
0010
0001
1000
0010
1000
0001
0010
0100
1000
0001
0100
0010
0100
,
0001
1000
0100
0010
0001
1000
0001
0100
0010
0100
0001
1000
0100
0010
0001
1000
,
0001
0100
0100
1000
0001
0100
0100
1000
,
0001
0000
0100
0000
0100
0000
1000
0000
0001
0000
0100
0000
0010
1000
0010
0100
,
0001
1000
0100
0010
0001
1000
0001
0100
0010
0100
0001
1000
0100
0010
0100
1000
,
0010
0100
0001
1000
0100
0010
0001
0100
0001
1000
0100
0010
0100
1000
0010
0100
,
0002
0003
0000
0000
,
0000
0000
0000
0000
,
2002
3003
0000
0000
,
0000
0000
0000
0000
,
2002
3003
0000
0000
,
2002
3003
0000
0000
,
2002
3003
2002
3003
2002
3003
0000
0000
,
1000
0010
1000
0001
0100
0001
1000
0100
0010
0100
1000
0001
0100
0001
1000
0010
,
1000
0100
0010
0001
0100
0001
1000
0010
0100
0010
1000
0001
1000
0100
0010
0001
,
1000
0001
0100
0010
0100
0001
1000
0100
0010
0100
1000
0001
0100
0001
1000
0010
,
0100
0010
1000
0001
1000
0100
0010
0001
1000
0001
0100
0010
0100
0001
1000
0001
,
0100
0010
0100
0001
1000
0001
0010
0100
1000
0001
0100
0001
0100
0010
1000
0001
,
1000
0100
0010
0100
1000
0001
0100
0001
1000
0010
0100
0010
1000
0001
0100
0001
,
1000
0100
0010
0001
1000
0001
0100
0010
0100
0001
1000
0100
0010
0100
1000
0001
,
0100
0001
0100
0010
1000
0001
1000
0100
0010
0001
1000
0001
0100
0010
0100
0001
,
1000
0001
0010
0100
1000
0001
0100
0001
1000
0010
0100
0010
1000
0001
1000
0100
,
0010
0100
1000
0010
1000
0001
0010
0100
1000
0001
0100
0001
1000
0100
0010
0100
,
1000
0010
0100
0010
1000
0001
0010
0100
1000
0001
0100
0001
1000
0100
0010
0100
,
1000
0001
0100
0001
1000
0010
0100
0010
1000
0001
1000
0100
0010
0001
1000
0010
,
0100
0010
1000
0001
0010
0100
1000
0010
1000
0001
0100
0001
1000
0100
0010
0100
,
1000
0010
1000
0001
0100
0001
0010
0100
1000
0001
0100
0001
1000
0100
0010
0100
,
1000
0010
0100
0010
1000
0001
0010
0100
0010
0001
1000
0001
0100
0010
0100
0001
,
1000
0100
0010
0001
0100
0001
1000
0100
0010
0100
1000
0001
0100
0010
0100
0001
,
1000
0100
0010
0001
0100
0001
1000
0100
0010
0001
0100
0001
1000
0100
0010
0001
,
1000
0000
0001
0010
0000
0010
0100
0000
,
1000
0010
0000
0010
0100
0000
0001
0000
,
1000
0100
0010
0100
1000
0001
0100
0010
0100
0001
1000
0100
0010
0001
1000
0001
,
0100
0010
0100
0001
1000
0001
0010
0100
1000
0001
0100
0010
0100
0001
1000
0010
,
1000
0000
0100
0010
0000
0010
0001
0000
,
1000
0010
0000
0010
0100
0000
0001
0000
,
1000
0001
0100
0001
1000
0010
0100
0010
1000
0001
0010
0100
1000
0001
0100
0001
,
0100
0010
1000
0010
0100
0001
1000
0100
0010
0100
1000
0001
0100
0001
1000
0100
,
0010
0100
1000
0001
0100
0010
0100
0001
1000
0100
0010
0001
1000
0010
0100
0010
,
1000
0001
0010
0100
1000
0001
0100
0010
0100
0001
1000
0100
0010
0100
1000
0001
,
0100
0010
0100
0001
1000
0100
0010
0001
1000
0001
0100
0010
0100
0001
1000
0100
,
0010
0001
1000
0100
1000
0001
0100
0001
0100
0010
1000
0001
0010
0100
0010
0001
,
1000
0010
0100
0010
1000
0001
1000
0100
0010
0001
0100
0001
1000
0100
0010
0100
,
1000
0001
0100
0001
1000
0100
0010
0001
1000
0010
0100
0010
1000
0001
0010
0100
,
2000
3000
0000
0000
0000
0000
0000
0000
0200
0000
0300
0000
0000
0000
0000
0000
0020
0000
0000
0030
0000
0000
0000
0000
0200
0000
0000
0000
0300
0000
0000
0000
2000
0000
0000
0000
0000
3000
0000
0000
0020
0000
0000
0000
0000
0000
0030
0000
0200
0000
0000
0000
0000
0000
0000
0300
0002
0000
0000
0000
0000
0000
0000
0000
,
1003
0100
0010
0001
1000
0001
0100
0010
1000
0001
0010
0100
1000
0001
0100
0001
,
1000
0000
0000
0000
,
0000
0000
0000
0000
0000
0000
0000
0000
0000
0000
0000
0000
0001
0100
0001
0010
,
0100
0000
0000
0000
,
0000
0000
0000
0000
,
2000
0000
0000
0000
,
0000
0000
0000
0000
0000
0000
0000
3000
,
1001
0000
0000
0000
,
0002
0000
0000
0000
0000
0000
0000
0003
,
0101
0100
0001
0010
0100
1000
0001
0100
,
0010
0000
0100
0000
0001
0000
1000
0000
0100
0000
0010
0000
0001
1000
0001
0010
,
0100
1000
0010
0100
0010
1000
0100
0010
,
0001
1000
0001
0100
0010
0100
0001
1000
,
1001
0001
0010
0100
1000
0010
0100
0010
,
1000
0100
0010
0001
0100
0010
0100
0001
,
0011
0010
0100
1000
0010
0100
0010
1000
,
1100
0100
0010
0001
1001
1000
0010
0100
,
0101
0001
0010
0100
1000
0001
0100
0010
,
0100
0000
0001
0000
1000
0000
0100
0000
0010
0000
0001
0000
1000
0010
1000
0001
,
0100
0001
0010
0100
1000
0010
0100
0010
,
1000
0100
0010
0001
1000
0001
0100
0010
,
2000
3010
0100
0010
1000
0100
0010
0100
,
1000
0001
0100
0010
0100
0001
0010
0100
,
2000
3001
0100
0010
0100
0001
1000
0100
,
2000
3010
0100
0001
0010
0100
1000
0010
,
0200
0300
0001
0000
0010
0000
0100
0000
,
1000
0000
0000
0000
0001
0000
0000
0000
0100
0000
0000
0000
0010
1000
0010
0100
,
0002
0003
0010
0000
0100
0000
1000
0000
,
0010
0000
0100
0000
0010
0000
1000
0100
,
0020
0030
0100
0000
1000
0000
0010
0000
,
0100
0000
0000
0000
,
0001
0100
0001
1000
0010
0100
0010
1000
0001
1000
0100
0010
0100
1000
0001
0100
,
0001
1000
0010
0100
0010
1000
0001
1000
0100
0010
0001
1000
0001
0100
0010
0100
,
0002
0000
0000
0003
0000
0000
0002
0000
0003
0000
0000
0000
1000
0000
0000
0100
0000
0000
0010
0000
0000
0000
0000
0000
,
0001
0100
0001
0010
0001
1000
0100
0010
,
0001
0100
0100
1000
0001
0100
0100
1000
,
0001
0010
0010
1000
0001
0100
0100
1000
,
0020
0030
0020
0030
0100
0001
1000
0000
,
0001
0000
0000
0000
0000
0000
0000
0000
0001
0000
0000
0000
0000
0000
0000
0000
0020
0030
0000
0000
0000
0000
0000
0000
0020
0030
0000
0000
0000
0000
0000
0000
,
0001
0100
0100
1000
0001
0100
0100
1000
,
0100
0100
0100
0100
0004
0000
0000
0003
,
2000
3000
2000
3000
0010
0100
0001
0000
,
1000
0100
1000
0010
1000
0001
0100
0001
,
1000
0100
0100
0001
1000
0100
0100
0001
,
1000
0010
0010
0001
1000
0100
0100
0001
,
2000
3000
2000
3000
0100
0010
0001
0000
,
0100
0000
0020
0030
0000
0000
0000
0000
0200
0300
0000
0000
0200
0300
0000
0000
,
0001
0100
0100
1000
0001
0100
0100
1000
,
0010
0100
0001
4000
3000
0000
1000
0000
,
0001
0100
0001
1000
0010
0100
0010
1000
0001
1000
0100
0010
0001
1000
0100
1000
,
0001
0100
0001
1000
0010
0100
0010
1000
0001
1000
0100
0010
0100
1000
0001
0100
,
0001
0100
0010
1000
0010
0100
0001
1000
0100
0010
0100
1000
0001
0100
0001
1000
,
0010
1000
0001
0100
0001
1000
0100
0010
0001
1000
0001
0100
0010
0100
0001
1000
,
0100
0010
0001
1000
0001
0100
0010
0100
0001
1000
0100
0010
0100
1000
0001
0100
,
0001
1000
0100
0010
0001
1000
0001
0100
0010
0100
0001
1000
0100
0010
0100
1000
,
0001
0100
0001
0100
0010
1000
0010
0100
0001
1000
0100
0010
0001
1000
0001
0010
,
0100
1000
0001
0100
0004
0000
0000
0000
0000
0000
0000
0000
0003
0000
0000
0000
,
1000
0100
0010
0100
1000
0001
0100
0001
1000
0010
0100
0010
1000
0001
1000
0100
,
0010
0001
1000
0001
0100
0010
0100
0001
1000
0001
0010
0100
1000
0001
0100
0010
,
0100
0001
1000
0100
0010
0001
1000
0010
0100
0010
1000
0001
1000
0100
0010
0001
,
1000
0010
0100
0010
1000
0001
0010
0100
0010
0001
1000
0001
0100
0010
0100
0001
,
1000
0000
0000
0001
,
1001
0000
0000
0000
,
1000
0000
0000
1000
0000
0000
0010
0000
,
0110
0000
0000
0100
0000
0000
0101
0000
,
0002
0000
0000
0103
,
0000
0000
0000
0000
,
0002
0000
0000
1000
0000
0000
1003
0000
,
0000
0000
0000
0000
,
0020
0000
0000
0000
0000
0030
0000
0000
,
0000
0000
0000
0000
,
2000
0000
0000
0000
0000
3000
0000
0000
,
0000
0000
0000
0000
,
0001
0100
0001
0010
0100
1000
0010
0100
0010
1000
0100
0010
0001
0100
0001
1000
,
0100
1000
0001
0100
0010
0100
0001
0010
0100
1000
0001
1000
0010
0100
0010
1000
,
0100
0010
0001
1000
0001
0100
0010
0100
0001
1000
0010
1000
0100
0010
0001
1000
,
0001
0010
0100
0010
0001
0100
0010
0100
0001
1000
0100
0010
0001
0100
0001
1000
,
0100
0010
0100
1000
0001
1000
0010
0100
0010
1000
0100
0010
0001
0100
0001
1000
,
0010
0100
0010
1000
0100
0010
0001
1000
0100
1000
0010
0100
0010
1000
0001
0100
,
0001
0010
0100
1000
0001
0100
0001
1000
0100
0010
0001
0100
0001
1000
0010
0100
,
0010
1000
0001
0010
0100
1000
0010
1000
0001
0100
0001
1000
0100
0010
0100
1000
,
0001
0000
0000
0000
,
0000
0000
0000
0000
,
2000
0000
0000
0000
,
3000
0000
0000
0000
,
0002
0000
0000
0000
,
0003
0000
0000
0000
,
0200
0000
0000
0000
,
0000
0000
0000
0000
,
0000
0000
0000
0000
,
0300
0000
0000
0000
;
