#TITLE:Merry Fuckmas;
#SUBTITLE:;
#ARTIST:Evil-dog;
#TITLETRANSLIT:;
#SUBTITLETRANSLIT:;
#ARTISTTRANSLIT:;
#CREDIT:;
#BANNER:BANNER.PNG;
#BACKGROUND:Fondo.PNG;
#LYRICSPATH:;
#CDTITLE:firma.PNG;
#MUSIC:113475_MerryFuckmas.mp3;
#OFFSET:-0.180;
#SAMPLESTART:40.180;
#SAMPLELENGTH:12.000;
#SELECTABLE:YES;
#BPMS:0.000=180.000,124.000=200.000;
#STOPS:;
#BGCHANGES:0.000=Fondo.PNG=1.000=1=0=1,
99999=-nosongbg-=1.000=0=0=0 // don't automatically add -songbackground-
;
// cache tags:
#FIRSTBEAT:0.250;
#LASTBEAT:136.000;
#SONGFILENAME:Songs/new cedric/MerryFuckmas/113475_MerryFuckmas.sm;
#HASMUSIC:1;
#HASBANNER:1;
#MUSICLENGTH:55.954;
// end cache tags

//---------------pump-single - ONLY FOR PUMP IT UP----------------
#NOTES:
     pump-single:
     ONLY FOR PUMP IT UP:
     Hard:
     9:
     0.789,0.851,0.768,0.733,1.000,225.000,43.000,41.000,70.000,0.000:
00000
01000
00010
00000
01010
00000
00000
00000
00100
00010
00000
10001
00000
00000
00000
10000
,
01000
00000
10001
00000
00000
00100
00010
00000
10001
00000
00000
00000
00000
00100
01000
00000
,
10010
00000
00000
00100
00010
00000
01001
00000
00000
00000
00100
00010
00000
01001
00000
00000
,
00100
00010
00000
10010
00000
00000
00000
00100
00010
00000
01100
00000
10010
00000
00000
01001
,
00000
00000
10010
00000
00000
01001
00000
00000
10100
00000
00000
00101
00000
00000
01100
00000
,
00000
00110
00000
00000
11000
00000
00000
00011
00000
00000
01010
00000
00000
10001
00000
00000
,
01010
00000
00000
10010
00000
00000
01001
00000
01000
00100
01000
00100
01000
00100
00000
20000
,
00000
00000
30000
01000
00010
00000
00200
00000
00000
00300
10000
00000
01000
00000
00010
20000
,
00000
00000
30000
00200
00300
00001
00000
00000
00000
00001
00010
00100
01000
00000
00100
00000
,
20010
00000
00000
00000
00000
00000
30000
02000
03000
00200
00300
00020
00030
00001
00020
00000
,
00000
00000
00000
00000
00030
20000
00000
00000
00000
30000
00100
00000
00110
00000
10000
00000
,
10010
00000
00000
00101
00000
00000
10010
00000
00001
00200
00000
00000
00300
00002
00000
00003
,
10000
01000
00100
00010
00001
01100
00000
00020
00000
00000
00030
00000
20000
30000
00200
00300
,
00020
00030
02000
00000
00000
03000
00200
00000
00000
00300
00000
00000
00000
20000
00000
00000
,
00000
30000
00101
00000
00010
00000
10000
00000
01000
00002
00003
00200
00300
20000
30000
00200
,
00000
00000
00000
00300
20000
00000
00000
30000
01000
00010
00000
00010
10000
00000
00100
00000
,
20000
00000
00000
30000
02000
03000
00002
00003
00020
00000
00030
20000
00000
00000
00000
00000
,
30000
00000
02000
00000
00000
00000
00000
03000
00010
10000
00000
00000
00100
00001
00000
10000
,
00000
01000
00010
00000
00001
00000
10000
00000
02000
00000
00000
03000
00002
00000
00003
10000
,
01000
00100
00010
00001
01000
00200
00000
00000
00000
00000
00300
00020
00030
20000
30000
00200
,
00300
00002
00000
00003
00010
00100
00010
00100
00010
00100
00000
01000
00100
01000
00000
00100
,
01001
00000
00010
00100
00010
00100
00000
00100
10001
00000
00010
00100
00010
00100
00000
00100
,
01010
00000
00001
00100
00001
00100
00000
00100
10010
00000
01000
00100
01000
00100
00000
00100
,
10010
00000
10000
00100
10000
00100
00000
00100
10001
00000
00000
01010
00000
00000
00000
00000
,
00000
00000
01010
00000
10000
00100
00000
00010
10000
01000
00000
00000
00100
00000
00010
00000
,
10000
00000
00000
00100
00000
00000
00001
00000
00100
00000
00000
00000
10000
01000
00100
00010
,
00002
00000
00000
00000
00000
00000
00000
00000
00003
10000
00000
00100
00000
00010
00000
10000
,
00000
02000
00000
03000
00100
01000
00100
01000
00100
00000
00200
00000
00000
00300
10000
00000
,
01000
00000
00010
10000
00000
01000
00100
00000
10000
00000
00010
00000
00000
00001
00000
10000
,
00000
00000
00000
10000
01000
00100
00010
00001
01000
00002
00000
00000
00000
00000
00003
00000
,
01010
10010
01001
10001
00000
00000
00000
00000
,
M0M00
MMM00
M0M00
00000
00MMM
00M0M
00MMM
00000
M0M00
MMM00
M0M00
00000
00MMM
00M0M
00MMM
00000
,
M0M00
MMM00
M0M00
00000
00MMM
00M0M
00MMM
00000
M0000
M0000
M0000
M0000
M0000
M0000
M0000
M0000
,
M0000
M0000
M0000
M0000
M0000
M0000
M0000
M0000
M0000
M0000
M0000
M0000
M0000
M0000
M0000
M0000
,
M0000
00000
00000
00000
;

//---------------pump-single - Copied from ONLY FOR----------------
#NOTES:
     pump-single:
     Copied from ONLY FOR:
     Medium:
     6:
     0.562,0.638,0.036,0.679,0.885,180.000,2.000,38.000,70.000,0.000:
00000
01000
00010
00000
01000
00000
00000
00000
00100
00010
00000
10000
00000
00000
00000
10000
,
01000
00000
00001
00000
00000
00100
00010
00000
00001
00000
00000
00000
00000
00100
01000
00000
,
00010
00000
00000
00100
00010
00000
00001
00000
00000
00000
00100
00010
00000
00001
00000
00000
,
00100
00010
00000
10000
00000
00000
00000
00100
00010
00000
01000
00000
00010
00000
00000
01000
,
00000
00000
00010
00000
00000
01000
00000
00000
10000
00000
00000
00001
00000
00000
01000
00000
,
00000
00010
00000
00000
01000
00000
00000
00010
00000
00000
00010
00000
00000
10000
00000
00000
,
01000
00000
00000
00010
00000
00000
00001
00000
01000
00000
00100
00000
01000
00000
00000
20000
,
00000
00000
30000
00000
00010
00000
00200
00000
00000
00300
00000
00000
01000
00000
00010
20000
,
00000
00000
30000
00200
00300
00001
00000
00000
00000
01000
00010
00000
01000
00000
00100
00000
,
20010
00000
00000
00000
00000
00000
30000
01000
00000
00100
00000
00010
00000
00000
00020
00000
,
00000
00000
00000
00000
00030
20000
00000
00000
00000
30000
00100
00000
00010
00000
10000
00000
,
00010
00000
00000
00001
00000
00000
10000
00000
00001
00200
00000
00000
00300
00002
00000
00003
,
10000
00010
10000
00010
00000
01000
00000
00020
00000
00000
00030
00000
20000
30000
00200
00300
,
00020
00030
02000
00000
00000
03000
00200
00000
00000
00300
00000
00000
00000
20000
00000
00000
,
00000
30000
00001
00000
00010
00000
10000
00000
01000
00002
00003
00200
00300
20000
30000
00200
,
00000
00000
00000
00300
20000
00000
00000
30000
00000
00010
00000
00010
10000
00000
00100
00000
,
20000
00000
00000
30000
02000
03000
00002
00003
00020
00000
00030
20000
00000
00000
00000
00000
,
30000
00000
02000
00000
00000
00000
00000
03000
00010
10000
00000
00000
00100
00001
00000
10000
,
00000
01000
00010
00000
00001
00000
10000
00000
02000
00000
00000
03000
00002
00000
00003
10000
,
00001
10000
00001
00000
01000
00200
00000
00000
00000
00000
00300
00020
00030
20000
30000
00200
,
00300
00002
00000
00003
00010
00000
00100
00000
00010
00000
00000
10000
00000
00000
00000
00100
,
00000
00001
00000
00100
00000
00000
00000
01000
00000
00000
00000
00000
00100
00000
00010
00000
,
00001
00000
00000
00000
00000
00100
00000
01000
00000
10000
00000
00000
00100
00000
00010
00000
,
00001
00000
00000
10000
00000
00000
00100
00000
00000
01010
00000
00000
00000
00000
00000
00000
,
00000
00000
00010
00000
10000
00100
00000
00010
00000
01000
00000
00000
00100
00000
00010
00000
,
10000
00000
00000
00100
00000
00000
00001
00000
00100
00000
00000
00000
10000
00000
00100
00000
,
00002
00000
00000
00000
00000
00000
00000
00000
00003
10000
00000
00100
00000
00010
00000
10000
,
00000
02000
00000
03000
00000
00000
00000
00200
00000
00000
00000
00000
00000
00300
10000
00000
,
01000
00000
00010
00000
00000
01000
00000
00000
10000
00000
00010
00000
00000
00001
00000
10000
,
00000
00000
00000
10000
00000
00100
00000
10000
00000
00002
00000
00000
00000
00000
00003
00000
,
01000
00010
00001
10000
00000
00000
00000
00000
,
M0M00
MMM00
M0M00
00000
00MMM
00M0M
00MMM
00000
M0M00
MMM00
M0M00
00000
00MMM
00M0M
00MMM
00000
,
M0M00
MMM00
M0M00
00000
00MMM
00M0M
00MMM
00000
M0000
M0000
M0000
M0000
M0000
M0000
M0000
M0000
,
M0000
M0000
M0000
M0000
M0000
M0000
M0000
M0000
M0000
M0000
M0000
M0000
M0000
M0000
M0000
M0000
,
M0000
00000
00000
00000
;
