#TITLE:Planetz;
#SUBTITLE:;
#ARTIST:DJ Sharpnel;
#TITLETRANSLIT:;
#SUBTITLETRANSLIT:;
#ARTISTTRANSLIT:;
#CREDIT:;
#BANNER:planetz bn.png;
#BACKGROUND:planetz bg.png;
#LYRICSPATH:;
#CDTITLE:;
#MUSIC:Planetz.ogg;
#OFFSET:-23.991;
#SAMPLESTART:171.789;
#SAMPLELENGTH:20.210;
#SELECTABLE:YES;
#DISPLAYBPM:190.000;
#BPMS:0.000=190.000;
#STOPS:;
#BGCHANGES:;
// cache tags:
#FIRSTBEAT:8.000;
#LASTBEAT:552.000;
#SONGFILENAME:Songs/SHARPNELSTREAMZ v2/Planetz/Planetz.sm;
#HASMUSIC:1;
#HASBANNER:1;
#MUSICLENGTH:199.600;
// end cache tags

//---------------dance-single - 13+ (TYLR)----------------
#NOTES:
     dance-single:
     13+ (TYLR):
     Hard:
     13:
     1.000,1.000,0.286,0.446,1.000,1296.000,57.000,89.000,69.000,0.000:
0000
0000
0000
0000
,
0000
0000
0000
0000
,
1100
0100
0010
0001
0010
0001
0010
0001
,
1000
0010
0100
0001
0100
0001
0100
0001
,
0010
0100
1000
0001
1000
0001
1000
0001
,
0100
0001
0040
M00M
1030
0040
M00M
0031
,
0100
0010
1000
0010
1000
0010
1000
0010
,
0100
0001
0010
0001
0010
0001
0010
0001
,
0100
0010
1000
0001
1000
0001
1000
0001
,
0010
0001
0400
M00M
1300
0400
M00M
0301
,
0020
0000
0000
0000
0000
0000
0000
0000
0031
0010
0001
1000
0001
0100
0010
1000
,
0001
0010
0100
1000
0100
1000
0100
1000
,
0001
0100
0010
1000
0010
1000
0010
1000
,
0100
0010
0001
1000
0001
1000
0001
1000
,
0100
0000
1000
0000
0040
0000
M00M
0000
0031
0000
0040
0000
0M0M
1030
0001
0000
,
0100
0010
1000
0010
1000
0010
1000
0010
,
0100
0001
0010
0001
0010
0001
0010
0001
,
0010
0100
1000
0001
1000
0001
1000
0001
,
0101
0000
0000
1010
0000
0000
0001
1000
1001
0000
0000
1100
0000
0000
0010
0001
,
1001
0000
0002
0003
0100
0000
0002
0003
0100
0000
0002
0003
0100
0000
0002
0003
,
0020
0030
0200
0300
1000
0000
0200
0300
1000
0000
0200
0300
1000
0000
0200
0300
,
0020
0030
0002
0003
1000
0000
0002
0003
1000
0000
0002
0003
1000
0000
0002
0003
,
2000
3000
0020
0030
0400
0000
M00M
0000
1300
0010
1000
0001
1000
0100
0010
0001
,
2000
3000
0002
0003
0100
0000
0002
0003
0100
0000
0002
0003
0100
0000
0002
0003
,
0020
0030
0200
0300
1000
0000
0200
0300
1000
0000
0200
0300
1000
0000
0200
0300
,
0020
0030
0002
0003
1000
0000
0002
0003
1000
0000
0002
0003
1000
0000
0002
0003
,
0101
0000
0000
1010
0000
0000
1000
0001
1001
0000
0000
0011
0000
0000
0010
0100
,
1200
0300
2000
3000
0001
0000
2000
3000
0001
0000
2000
3000
0001
0000
2000
3000
,
0020
0030
0200
0300
0001
0000
0200
0300
0001
0000
0200
0300
0001
0000
0200
0300
,
0020
0030
2000
3000
0100
0000
2000
3000
0100
0000
2000
3000
0100
0000
2000
3000
,
0002
0003
0200
0300
0040
0000
0M0M
0000
0031
1000
0100
0010
0001
1000
0001
0010
,
0200
0300
2000
3000
0001
0000
2000
3000
0001
0000
2000
3000
0001
0000
2000
3000
,
0020
0030
0200
0300
0001
0000
0200
0300
0001
0000
0200
0300
0001
0000
0200
0300
,
0010
1000
0010
1000
0001
1000
0001
1000
0001
0010
0001
0010
0100
1000
0100
1000
,
0001
0100
0010
1000
0001
1000
0010
0100
0001
0010
0100
1000
0001
1000
0100
0010
,
0002
M000
0M00
0000
0M00
0000
M000
0M00
,
0000
00M0
0M00
0000
0M00
0000
00M0
0M00
,
0000
M000
00M0
0000
00M0
0000
M000
00M0
,
0000
0000
0M00
0000
M000
0000
0000
0000
M003
0000
0000
00M0
0000
0000
00M0
0000
,
0000
000M
0M00
0000
0M00
0000
000M
0M00
,
0000
M000
00M0
0000
00M0
0000
M000
00M0
,
0000
0M00
000M
0000
000M
0000
0M00
000M
,
0000
0000
00M0
0000
0M00
0000
0000
0000
1000
0001
1000
0001
1000
0000
0001
0000
,
1001
0000
1000
0000
0100
0010
0100
0000
1000
0100
1000
0000
0001
0000
1000
0100
,
1000
0000
0001
0000
0100
0010
0100
0000
0001
0100
0001
0000
1000
0000
0001
0100
,
0001
0000
1000
0000
0100
0010
0100
0000
1000
0001
1000
0000
0100
0000
1000
0001
,
1000
0000
0010
0000
0100
0001
0100
0000
0010
1000
0010
0100
0000
0000
0001
0100
,
0001
0000
1000
0000
0001
0100
0001
0000
1000
0001
1000
0000
0100
0000
1000
0001
,
1000
0000
0010
0000
1000
0100
1000
0000
0001
0010
0001
0000
1000
0000
0001
0010
,
0001
1000
0001
1000
0001
0100
0001
0100
0010
1000
0010
1000
0001
0010
0001
0010
,
0100
1000
0001
0010
0100
0010
0001
1000
0100
0010
0001
1000
0010
0100
0001
0010
,
0100
0000
0000
0000
0000
0000
0000
0000
0010
0001
1000
0001
0100
0010
1000
0001
,
1000
0100
0000
0100
0010
0000
0001
0010
0001
1000
0001
1000
0010
0000
0100
0010
,
1000
0001
0000
0001
0010
0000
0100
1000
0001
1000
0001
1000
0010
0000
1000
0001
,
0010
0100
0000
0100
1000
0000
0001
1000
0100
0010
0100
0010
0001
0000
1000
0010
,
0100
0001
0000
0001
0400
0000
M00M
0000
1300
0000
0400
0000
M00M
0000
0301
0000
,
0010
0100
0000
0100
1000
0000
0001
1000
0100
0010
0100
0010
0001
0000
1000
0001
,
0100
0010
0000
0010
1000
0000
0001
1000
0100
0010
0100
0010
0001
0000
1000
0001
,
0010
0100
0000
0100
1000
0000
0001
1000
0010
0100
0010
0100
0001
0000
1000
0001
,
0101
0000
0000
0101
0000
0000
0010
1000
1001
0000
0000
1100
0000
0000
0010
0001
,
1000
0001
0000
0001
0100
0000
0010
1000
0001
0010
0001
0010
0100
0000
1000
0001
,
0100
0010
0000
0010
1000
0000
0001
0010
0100
1000
0100
1000
0001
0000
0100
0010
,
1000
0001
0000
0001
0010
0000
0100
1000
0001
1000
0001
1000
0010
0000
0100
0010
,
1000
0001
0000
0001
0040
0000
M00M
0000
1030
0000
0040
0000
M00M
0000
0031
0000
,
0100
0010
0000
0010
1000
0000
0001
0010
0100
1000
0100
1000
0001
0000
0100
0010
,
1000
0001
0000
0001
0010
0000
0100
1000
0001
0100
0001
0100
0010
0000
1000
0001
,
0010
0100
0000
0100
1000
0000
0001
1000
0010
0100
0010
0100
0001
0000
1000
0100
,
0110
0000
0000
0110
0000
0000
0010
0001
0011
0000
0000
1001
0000
0000
0001
0100
,
0010
1000
0000
1000
0100
0000
0010
0001
1000
0010
0100
0001
0010
0000
0001
1000
,
0010
0100
0000
0100
0001
0000
1000
0100
0010
0001
1000
0010
0100
0000
0001
1000
,
0100
0010
0000
0010
0001
0000
1000
0010
0100
0001
0010
0100
1000
0000
0001
0010
,
0100
1000
0000
1000
0040
0000
M00M
0000
0031
0000
0040
0000
M00M
0000
1030
0000
,
0001
0010
0000
0010
0100
0000
1000
0001
1000
0100
0010
0001
0100
0000
0001
0010
,
0100
1000
0000
1000
0010
0000
0100
0001
1000
0001
0100
0010
1000
0000
0001
1000
,
0100
0010
0000
0010
0001
0000
1000
0001
0010
0100
1000
0001
0100
0000
0010
0100
,
0101
0000
0000
0101
0000
0000
0001
1000
1001
0000
0000
1100
0000
0000
0100
0010
,
0001
0100
0000
0100
0010
0000
1000
0100
0010
0001
1000
0010
0100
0000
0010
1000
,
0001
0010
0000
0010
0100
0000
1000
0001
0100
0010
1000
0100
0010
0000
0001
1000
,
0010
0100
0000
0100
0001
0000
1000
0100
0010
0001
1000
0010
0100
0000
0010
1000
,
0001
0010
0000
0010
0400
0000
M00M
0000
0301
0000
0400
0000
M00M
0000
1300
0000
,
0010
1000
0000
1000
0100
0000
0010
0001
1000
0100
0010
0001
1000
0000
0001
0010
,
0100
1000
0000
1000
0010
0000
0100
0001
1000
0001
0100
0010
1000
0000
0001
1000
,
0100
0010
0100
0010
0001
0010
0001
0010
0001
1000
0010
1000
0001
0100
0010
1000
,
0100
0010
0001
1000
0100
1000
0001
0100
0010
1000
0100
0010
0001
0100
0010
1000
,
1001
0000
0000
0000
,
1001
0001
0100
0010
,
1000
0001
0010
0001
,
0100
0010
1000
0001
,
0010
0100
1000
0100
,
0010
0001
1000
0010
,
0100
0001
1000
0001
,
0100
0010
1000
0100
,
1000
0000
0000
0000
0001
0000
0000
0000
1000
0010
1000
0010
1000
0000
0001
0000
,
1001
1000
0100
0010
0002
0203
0301
2000
,
3200
1300
0010
1000
0002
0013
0001
0200
,
0310
1000
0001
1000
0020
0230
0310
2000
,
3200
0310
0001
0100
0020
0130
0001
2000
,
3100
1000
0001
0010
0100
0010
0001
0200
,
0320
0230
0301
2000
3200
1300
0020
0130
,
0001
1000
0001
1000
0001
0100
0010
1000
0001
1000
0010
0100
0001
0010
0100
1000
,
0001
0000
0000
0000
0000
0000
0000
0000
1000
0100
1000
0001
1000
0010
0100
0001
,
1000
0000
0100
0010
0100
0000
1000
0001
0100
0000
0010
1000
0001
0000
0010
0100
,
1000
0000
0001
1000
0001
0000
0100
0010
1000
0000
0001
0100
0001
0000
0010
0100
,
1000
0000
0001
0010
0001
0000
1000
0001
0100
0000
0010
1000
0001
0000
0010
0001
,
0100
0000
0010
1000
0010
0000
0100
0001
0010
0000
0100
1000
0100
0000
0010
0001
,
1000
0000
0010
0100
0010
0000
1000
0001
0010
0000
0001
1000
0100
0000
1000
0010
,
0100
0000
0001
0010
0100
0000
0010
0001
1000
0000
0100
1000
0100
0000
0010
0001
,
0100
0000
0010
1000
0001
0000
1000
0010
0100
0000
0001
0010
0100
0000
0010
0001
,
1001
0000
0000
1100
0000
0000
1000
0001
1001
0000
0000
0101
0000
0000
0100
0010
,
1010
0000
0100
0001
1000
0000
0010
0100
0001
0000
1000
0001
0010
0000
0100
1000
,
0010
0000
0100
0001
0100
0000
0010
1000
0001
0000
0010
0100
0010
0000
0001
1000
,
0010
0000
0100
0001
0100
0000
0010
1000
0001
0000
0100
0001
1000
0000
0100
0010
,
0001
0000
0010
0100
0010
0000
0001
1000
0010
0000
0100
0001
0100
0000
0010
1000
,
1001
0000
0001
0000
0100
0000
0001
0000
1000
0000
0100
0000
2000
3000
2000
3000
,
0020
0000
0130
0002
1003
0000
0200
0000
0320
0000
0031
0000
2000
0000
3010
0000
,
0200
0000
0301
0000
1000
0000
0200
0300
0200
0000
0310
0000
0001
0000
0010
0000
,
0110
0000
0000
1100
0000
0000
1000
0001
1001
0000
0000
1010
0000
0000
0010
0100
,
0001
1000
0100
1000
0001
0010
0001
1000
0010
0100
0001
1000
0100
1000
0010
0100
,
0010
1000
0001
0100
0010
0100
0001
1000
0100
0010
0001
0010
0100
1000
0001
0100
,
0001
1000
0100
0010
0001
0010
0100
1000
0001
0100
0010
1000
0010
0100
0001
0010
,
0001
0010
0100
1000
0001
1000
0100
0010
0001
0100
0010
1000
0001
1000
0010
0100
,
0001
1000
0100
1000
0001
0010
0001
1000
0010
0100
0001
1000
0010
1000
0100
1000
,
0100
0010
0001
1000
0001
0010
0100
1000
0001
1000
0001
0100
0010
0100
0001
1000
,
0100
0010
0001
1000
0001
0010
0100
1000
0001
0100
0010
1000
0001
1000
0010
0100
,
0101
0000
0000
0110
0000
0000
0010
1000
1001
0000
0000
0011
0000
0000
0010
0100
,
1000
0100
0010
0001
1000
0001
0010
0100
1000
0001
0100
0010
0100
0001
0010
0001
,
0010
0100
1000
0001
0010
0001
1000
0100
1000
0001
1000
0001
0100
0010
1000
0010
,
0100
0001
1000
0001
0100
0010
1000
0001
0010
0100
1000
0001
0100
0001
0010
0001
,
0010
0100
1000
0001
0010
0001
1000
0100
0010
0001
1000
0010
0100
0001
0010
0100
,
1000
0001
0010
0001
1000
0100
1000
0001
0010
0001
1000
0001
0100
0010
1000
0001
,
1000
0100
0010
0001
1000
0010
0100
0010
1000
0001
0100
0001
1000
0010
1000
0001
,
1000
0100
0010
0001
1000
0001
0010
0100
1000
0010
0100
0001
1000
0001
0100
0010
,
0100
0001
1000
0001
1000
0100
0010
0001
1000
0001
0010
0100
1000
0010
0100
0001
,
1000
0200
0000
0000
0000
0000
0000
0000
,
0000
0000
0000
0000
,
0000
0000
0000
0000
,
0000
0000
0000
0000
,
0000
0000
0000
0000
,
0300
0000
0000
0000
;

//---------------dance-single - 14 (TYLR)----------------
#NOTES:
     dance-single:
     14 (TYLR):
     Challenge:
     14:
     1.000,1.000,0.240,0.155,1.000,1426.000,48.000,31.000,53.000,0.000:
0000
0000
0000
0000
,
0000
0000
0000
0000
,
0011
0000
0010
0000
0100
0000
1000
0000
0001
1000
0001
0000
0100
0000
0001
0000
,
1000
0000
0010
0000
0100
0000
0010
0000
1000
0001
1000
0000
0100
0000
0010
0000
,
0001
0000
1000
0000
0010
0000
1000
0000
0001
1000
0001
0000
0010
0000
0001
0000
,
1000
0001
0400
M00M
1300
0400
M00M
0301
,
0010
0000
0100
0000
0010
0000
0001
0000
1000
0001
1000
0000
0010
0000
1000
0000
,
0001
0000
0100
0000
0010
0000
0100
0000
0001
1000
0001
0000
0010
0000
0100
0000
,
1000
0000
0001
0000
0100
0000
0001
0000
1000
0001
1000
0000
0100
0000
1000
0000
,
0001
1000
0040
M00M
0031
0040
M00M
1030
,
0200
0000
0000
0000
0000
0000
0000
0000
1300
0100
1000
0001
1000
0010
0100
0001
,
1000
0000
0100
0000
0010
0000
0100
0000
1000
0001
1000
0000
0010
0000
1000
0000
,
0001
0000
0010
0000
0100
0000
0010
0000
0001
1000
0001
0000
0100
0000
0001
0000
,
1000
0000
0010
0000
0100
0000
0010
0000
1000
0001
1000
0000
0100
0000
1000
0000
,
0001
1000
0400
M00M
0301
0400
M0M0
1300
,
0001
0000
0100
0000
0010
0000
0100
0000
0001
1000
0001
0000
0010
0000
0001
0000
,
1000
0000
0010
0000
0100
0000
0010
0000
1000
0001
1000
0000
0100
0000
1000
0000
,
0001
0000
0010
0000
0100
0000
0010
0000
0001
1000
0001
0000
0100
0000
0001
0000
,
0011
0000
0000
1100
0000
0000
1000
0001
1001
0000
0000
0101
0000
0000
0100
0001
,
1001
0000
1000
0000
0100
0000
0010
0000
0001
0010
0001
0000
0010
0100
0010
0000
,
0001
0000
1000
0000
0010
0000
1000
0000
0001
0100
0001
0000
1000
0001
1000
0000
,
0100
0000
0010
0000
0001
0000
0010
0000
0100
1000
0001
0000
0100
0001
1000
0000
,
0001
0000
1000
0000
0400
0000
M00M
0000
0301
0010
0001
1000
0001
0010
0100
1000
,
0001
0000
1000
0000
0010
0000
0100
0000
0001
0100
0001
0000
0100
0010
0100
0000
,
0001
0000
1000
0000
0100
0000
1000
0000
0001
0010
0001
0000
1000
0001
1000
0000
,
0010
0000
0100
0000
0001
0000
0100
0000
0010
1000
0001
0000
0010
0001
1000
0000
,
1100
0000
0000
0011
0000
0000
0001
1000
1001
0000
0000
1010
0000
0000
0010
0100
,
0101
0000
0001
0000
0010
0000
0100
0000
1000
0100
1000
0000
0100
0010
0100
0000
,
1000
0000
0001
0000
0100
0000
0001
0000
1000
0010
1000
0000
0001
1000
0001
0000
,
0010
0000
0100
0000
1000
0000
0100
0000
0010
0001
1000
0000
0010
1000
0001
0000
,
1000
0000
0001
0000
0040
0000
M00M
0000
1030
0100
1000
0001
1000
0100
0010
0001
,
1000
0000
0001
0000
0100
0000
0010
0000
1000
0010
1000
0000
0010
0100
0010
0000
,
1000
0000
0001
0000
0010
0000
0001
0000
1000
0100
1000
0000
0001
1000
0001
0000
,
1000
0010
0100
0001
1000
0100
0010
0001
0100
0010
1000
0001
0010
0100
1000
0010
,
0100
0001
0010
0100
1000
0010
0100
0001
1000
0100
0010
0001
0100
0010
1000
0100
,
0020
000M
M000
0000
M000
0000
000M
M000
,
0000
0M00
M000
0000
M000
0000
0M00
M000
,
0000
000M
0M00
0000
0M00
0000
000M
0M00
,
0030
0000
M000
0000
000M
0000
0000
0000
000M
0000
0000
0M00
0000
0000
0M00
0000
,
0000
M000
00M0
0000
00M0
0000
M000
00M0
,
0000
000M
0M00
0000
0M00
0000
000M
0M00
,
0000
00M0
M000
0000
M000
0000
00M0
M000
,
0000
0000
0M00
0000
00M0
0000
0000
0000
0001
1000
0001
1000
0001
0000
1000
0000
,
1001
0000
0001
0000
0010
0100
0010
0000
0001
0010
0001
0000
1000
0000
0001
0010
,
0001
0000
1000
0000
0010
0100
0010
0000
1000
0010
1000
0000
0001
0000
1000
0010
,
1000
0000
0001
0000
0010
0100
0010
0000
0001
1000
0001
0000
0010
0000
0001
1000
,
0001
0000
0100
0000
0010
1000
0010
0000
0100
0001
0100
0010
0000
0000
1000
0010
,
1000
0000
0001
0000
1000
0010
1000
0000
0001
1000
0001
0000
0010
0000
0001
1000
,
0001
0000
0100
0000
0001
0010
0001
0000
1000
0100
1000
0000
0001
0000
1000
0100
,
0010
0001
1000
0001
1000
0010
0100
0001
1000
0001
1000
0100
0010
0001
0100
0010
,
1000
0001
0010
0100
1000
0010
0100
0001
0010
0001
0100
0010
1000
0100
0010
0001
,
1000
0000
0000
0000
0000
0000
0000
0000
0001
0010
0100
1000
0001
0100
0010
1000
,
0001
0010
0100
1000
0010
1000
0001
0010
0100
1000
0100
1000
0010
0100
0001
1000
,
0001
0010
0100
1000
0010
1000
0001
0010
0100
1000
0100
1000
0010
0100
0001
1000
,
0001
0010
0100
1000
0010
1000
0001
0010
0100
1000
0100
1000
0010
0100
0001
1000
,
0001
0000
0010
0000
0100
0000
1000
0000
0040
0030
0100
0000
0040
0030
0100
0000
0001
0000
1000
0000
0040
0030
0100
0000
0040
0030
0100
0000
0001
0000
0010
0000
,
0001
0100
0010
1000
0100
1000
0001
0100
0010
1000
0010
1000
0100
0010
0001
1000
,
0001
0100
0010
1000
0100
1000
0001
0100
0010
1000
0010
1000
0100
0010
0001
1000
,
0001
0100
0010
1000
0100
1000
0001
0100
0010
1000
0010
1000
0100
0010
0001
1000
,
1001
0000
0000
1001
0000
0000
1000
0010
1010
0000
0000
0101
0000
0000
1000
0001
,
1000
0100
0010
0001
0100
0001
1000
0100
0010
0001
0010
0001
0100
0010
1000
0001
,
1000
0100
0010
0001
0100
0001
1000
0100
0010
0001
0010
0001
0100
0010
1000
0001
,
1000
0100
0010
0001
0100
0001
1000
0100
0010
0001
0010
0001
0100
0010
1000
0001
,
1000
0000
0100
0000
0010
0000
0001
0000
0400
0300
0010
0000
0400
0300
0010
0000
1000
0000
0001
0000
0400
0300
0010
0000
0400
0300
0010
0000
1000
0000
0100
0000
,
1000
0010
0100
0001
0010
0001
1000
0010
0100
0001
0100
0001
0010
0100
1000
0001
,
1000
0010
0100
0001
0010
0001
1000
0010
0100
0001
0100
0001
0010
0100
1000
0001
,
1000
0010
0100
0001
0010
0001
1000
0010
0100
0001
0100
0001
0010
0100
1000
0001
,
1001
0000
0000
1001
0000
0000
0001
0100
0101
0000
0000
1010
0000
0000
0001
0010
,
0001
0010
0100
1000
0010
1000
0001
0010
0100
1000
0100
1000
0010
0100
0001
1000
,
0001
0010
0100
1000
0010
1000
0001
0010
0100
1000
0100
1000
0010
0100
0001
1000
,
0001
0010
0100
1000
0010
1000
0001
0010
0100
1000
0100
1000
0010
0100
0001
1000
,
0001
0000
0010
0000
0100
0000
1000
0000
0040
0030
0100
0000
0040
0030
0100
0000
0001
0000
1000
0000
0040
0030
0100
0000
0040
0030
0100
0000
0001
0000
0010
0000
,
0001
0100
0010
1000
0100
1000
0001
0100
0010
1000
0010
1000
0100
0010
0001
1000
,
0001
0100
0010
1000
0100
1000
0001
0100
0010
1000
0010
1000
0100
0010
0001
1000
,
0001
0100
0010
1000
0100
1000
0001
0100
0010
1000
0010
1000
0100
0010
0001
1000
,
1001
0000
0000
1001
0000
0000
1000
0010
1010
0000
0000
0101
0000
0000
1000
0001
,
1000
0100
0010
0001
0100
0001
1000
0100
0010
0001
0010
0001
0100
0010
1000
0001
,
1000
0100
0010
0001
0100
0001
1000
0100
0010
0001
0010
0001
0100
0010
1000
0001
,
1000
0100
0010
0001
0100
0001
1000
0100
0010
0001
0010
0001
0100
0010
1000
0001
,
1000
0000
0100
0000
0010
0000
0001
0000
0400
0300
0010
0000
0400
0300
0010
0000
1000
0000
0001
0000
0400
0300
0010
0000
0400
0300
0010
0000
1000
0000
0100
0000
,
1000
0010
0100
0001
0010
0001
1000
0010
0100
0001
0100
0001
0010
0100
1000
0001
,
1000
0010
0100
0001
0010
0001
1000
0010
0100
0001
0100
0001
0010
0100
1000
0001
,
1000
0010
0100
0001
0010
0001
1000
0010
0100
0001
0100
0001
0010
0100
1000
0001
,
0100
0001
1000
0100
1000
0001
0100
0001
0010
0100
1000
0010
0100
0001
0010
0100
,
1000
0000
0000
0000
,
1001
1000
0010
0100
,
0001
1000
0100
1000
,
0010
0100
0001
1000
,
0100
0010
0001
0010
,
0100
1000
0001
0100
,
0010
1000
0001
1000
,
0010
0100
0001
0010
,
0001
0000
0000
0000
1000
0000
0000
0000
0001
0100
0001
0100
0001
0000
1000
0000
,
1001
0001
0010
0100
2000
3020
1030
0002
,
0023
0031
0100
0001
2000
3100
1000
0020
,
0130
0001
1000
0001
0200
0320
0130
0002
,
0023
0130
1000
0010
0200
0310
1000
0002
,
0013
0001
1000
0100
0010
0100
1000
0020
,
0230
0320
1030
0002
0023
0031
0200
0310
,
1000
0001
1000
0001
1000
0010
0100
0001
1000
0001
0100
0010
1000
0100
0010
0001
,
1000
0000
0000
0000
0000
0000
0000
0000
0001
0010
0001
1000
0001
0100
0010
1000
,
0001
0000
0010
0100
0010
0000
0001
1000
0010
0000
0100
0001
1000
0000
0100
0010
,
0001
0000
1000
0001
1000
0000
0010
0100
0001
0000
1000
0010
1000
0000
0100
0010
,
0001
0000
1000
0100
1000
0000
0001
1000
0010
0000
0100
0001
1000
0000
0100
1000
,
0010
0000
0100
0001
0100
0000
0010
1000
0100
0000
0010
0001
0010
0000
0100
1000
,
0001
0000
0100
0010
0100
0000
0001
1000
0100
0000
1000
0001
0010
0000
0001
0100
,
0010
0000
1000
0100
0010
0000
0100
1000
0001
0000
0010
0001
0010
0000
0100
1000
,
0010
0000
0100
0001
1000
0000
0001
0100
0010
0000
1000
0100
0010
0000
0100
1000
,
1001
0000
0000
0011
0000
0000
0001
1000
1001
0000
0000
1010
0000
0000
0010
0100
,
0101
0000
0010
1000
0001
0000
0100
0010
1000
0000
0001
1000
0100
0000
0010
0001
,
0100
0000
0010
1000
0010
0000
0100
0001
1000
0000
0100
0010
0100
0000
1000
0001
,
0100
0000
0010
1000
0010
0000
0100
0001
1000
0000
0010
1000
0001
0000
0010
0100
,
1000
0000
0100
0010
0100
0000
1000
0001
0100
0000
0010
1000
0010
0000
0100
0001
,
1001
0000
1000
0000
0010
0000
1000
0000
0001
0000
0010
0000
0002
0003
0002
0003
,
0200
0000
0310
2000
3001
0000
0020
0000
0230
0000
1300
0000
0002
0000
0103
0000
,
0020
0000
1030
0000
0001
0000
0020
0030
0020
0000
0130
0000
1000
0000
0100
0000
,
0110
0000
0000
0011
0000
0000
0001
1000
1001
0000
0000
0101
0000
0000
0100
0010
,
1000
0001
0010
0001
1000
0100
1000
0001
0100
0010
1000
0001
0010
0001
0100
0010
,
0100
0001
1000
0010
0100
0010
1000
0001
0010
0100
1000
0100
0010
0001
1000
0010
,
1000
0001
0010
0100
1000
0100
0010
0001
1000
0010
0100
0001
0100
0010
1000
0100
,
1000
0100
0010
0001
1000
0001
0010
0100
1000
0010
0100
0001
1000
0001
0100
0010
,
1000
0001
0010
0001
1000
0100
1000
0001
0100
0010
1000
0001
0100
0001
0010
0001
,
0010
0100
1000
0001
1000
0100
0010
0001
1000
0001
1000
0010
0100
0010
1000
0001
,
0010
0100
1000
0001
1000
0100
0010
0001
1000
0010
0100
0001
1000
0001
0100
0010
,
1010
0000
0000
0110
0000
0000
0100
0001
1001
0000
0000
1100
0000
0000
0100
0010
,
0001
0010
0100
1000
0001
1000
0100
0010
0001
1000
0010
0100
0010
1000
0100
1000
,
0100
0010
0001
1000
0100
1000
0001
0010
0001
1000
0001
1000
0010
0100
0001
0100
,
0010
1000
0001
1000
0010
0100
0001
1000
0100
0010
0001
1000
0010
1000
0100
1000
,
0100
0010
0001
1000
0100
1000
0001
0010
0100
1000
0001
0100
0010
1000
0100
0010
,
0001
1000
0100
1000
0001
0010
0001
1000
0100
1000
0001
1000
0010
0100
0001
1000
,
0001
0010
0100
1000
0001
0100
0010
0100
0001
1000
0010
1000
0001
0100
0001
1000
,
0001
0010
0100
1000
0001
1000
0100
0010
0001
0100
0010
1000
0001
1000
0010
0100
,
0010
1000
0001
1000
0001
0010
0100
1000
0001
1000
0100
0010
0001
0100
0010
1000
,
0001
0020
0000
0000
0000
0000
0000
0000
,
0000
0000
0000
0000
,
0000
0000
0000
0000
,
0000
0000
0000
0000
,
0000
0000
0000
0000
,
0030
0000
0000
0000
;
