#TITLE:Peak 1.1;
#SUBTITLE:;
#ARTIST:Darwin;
#TITLETRANSLIT:;
#SUBTITLETRANSLIT:;
#ARTISTTRANSLIT:;
#CREDIT:Mad Matt;
#BANNER:../Tachyon Gamma-bn.png;
#BACKGROUND:../Tachyon Gamma-bg.png;
#LYRICSPATH:;
#CDTITLE:;
#MUSIC:Peak 1.1.ogg;
#OFFSET:-0.060;
#SAMPLESTART:84.000;
#SAMPLELENGTH:12.000;
#SELECTABLE:YES;
#DISPLAYBPM:180.070;
#BPMS:0.000=180.070;
#STOPS:;
#BGCHANGES:;
// cache tags:
#FIRSTBEAT:16.000;
#LASTBEAT:383.500;
#SONGFILENAME:Songs/Tachyon Gamma/Peak 1.1 - [Mad Matt]/Peak 1.1.sm;
#HASMUSIC:1;
#HASBANNER:1;
#MUSICLENGTH:127.981;
// end cache tags

//---------------dance-single - Mad Matt----------------
#NOTES:
     dance-single:
     Mad Matt:
     Challenge:
     14:
     1.000,1.000,0.086,1.000,1.000,1096.000,11.000,129.000,54.000,0.000:

0000
0000
0000
0000
,
0000
0000
0000
0000
,
0000
0000
0000
0000
,
0000
0000
0000
0000
,
1010
0110
0101
0011
,
0110
1100
1010
0110
,
0101
0000
0000
0001
0010
0000
0100
0000
0000
1000
0010
0000
0100
0000
0010
1000
,
0001
0000
0000
0000
0000
0000
1000
0000
0100
0000
1000
0000
0010
0000
0000
0100
0000
0000
0001
0000
0000
0000
0000
0000
1000
0000
0100
0000
0010
0000
0001
0000
0000
1000
0000
0000
0010
0000
1000
0000
0001
0000
0100
0000
0001
0000
0100
0000
,
0001
0000
0001
0000
0001
0000
0001
1000
,
0010
0010
0010
0010
,
0110
0100
0100
0100
,
0001
0001
0001
0001
,
0011
0000
0010
0000
0010
0000
0010
0100
,
1000
0001
1000
0001
0100
0001
0100
0001
0010
0001
0010
0001
1000
0010
1000
0010
,
1000
0100
1000
0100
1000
0010
1000
0010
0100
0001
0100
0001
0010
0001
0010
0001
,
1000
0000
0000
0100
0000
0000
0010
0000
0000
0001
0000
0000
1000
0000
0000
0010
0000
0000
0100
0000
0000
0001
0000
0000
1000
0000
0100
0000
0010
0000
0001
0000
1000
0000
0100
0000
1000
0000
0001
0000
0010
0000
0100
0000
1000
0000
0001
0000
,
1000
0000
0010
1000
0010
0000
0100
0001
0100
0000
0001
0010
0001
0000
1000
0100
,
1000
0000
0010
0100
0010
0000
1000
0100
1000
0000
0001
0100
0001
0000
0100
0001
,
0010
0000
0100
1000
0100
0000
1000
0001
1000
0000
0010
0100
0010
0000
1000
0100
,
1000
0000
0001
0100
0001
0000
1000
0010
1000
0000
0001
0010
0001
0000
0010
0001
,
0100
0000
0010
1000
0010
0000
0100
0001
0100
0000
0001
0010
0001
0000
1000
0010
,
1000
0000
0100
0010
0100
0000
1000
0010
1000
0000
0001
0010
0001
0000
0010
0001
,
0100
0000
0010
1000
0100
0000
0010
0001
0100
0000
0010
1000
0100
0000
0010
0001
,
1000
0000
0000
0000
0000
0000
0010
0000
0000
1000
0000
0000
0001
0000
0000
0000
0000
0000
0010
0000
0100
0000
1000
0000
0001
0000
0000
0100
0000
0000
0010
0000
1000
0000
0001
0000
0100
0000
0010
0000
1000
0000
0001
0000
1000
0000
0001
0000
,
1000
0000
0010
0100
0010
1000
0010
0100
0010
0100
0001
0010
0100
1000
0010
1000
,
0010
1000
0100
1000
0010
1000
0010
0100
0001
0010
0001
0100
0010
1000
0001
0010
,
0001
0100
0001
0100
0010
1000
0100
1000
0010
0100
0001
1000
0001
0010
0001
1000
,
0100
0010
0001
1000
0001
0010
0100
1000
0001
0100
0001
0100
0010
0100
0001
0100
,
0001
0010
0100
1000
0010
1000
0100
0010
0001
1000
0010
0100
0010
0100
0001
0010
,
0001
0100
0010
0100
0010
1000
0100
0010
0001
1000
0010
0100
0001
0010
0100
1000
,
0001
0000
0000
0100
0000
0000
0001
0000
0000
0010
0000
0000
0100
0000
1000
0000
0100
0000
1000
0000
0000
0001
0000
0000
0100
0000
0000
0001
0000
0000
1000
0000
0000
0010
0000
0000
0100
0000
0001
0000
0100
0000
0001
0000
0000
1000
0000
0000
,
0100
0000
0000
1000
0000
0000
0001
0000
0000
0010
0000
0000
0100
0000
1000
0000
0100
0000
1000
0000
0000
0001
0000
0000
1000
0000
0010
0000
0100
0000
0001
0000
0100
0000
0001
0000
0100
0000
0000
0000
0000
0000
0000
0000
0000
0000
0000
0000
,
0020
0000
1030
01M0
0000
1000
0100
0000
0020
0000
0130
10M0
0000
0100
1000
0000
,
0020
0000
0130
00M1
0000
0100
0001
0000
0020
0000
0031
01M0
0000
0001
0100
0000
,
0020
0000
0130
00M1
0000
1000
0100
0000
0020
0000
0130
10M0
0000
0001
0100
0000
,
0020
0000
1030
01M0
0000
1000
0001
0000
0020
0000
0031
01M0
0000
0001
1000
0000
,
0010
0000
0000
0010
0000
0000
1000
0000
0000
0100
0000
0000
0100
0000
0000
0000
,
0010
0000
0000
0010
0000
0000
0001
0000
0000
0100
0000
0000
0100
0000
0000
0000
,
0010
0000
0000
0010
0000
0000
1000
0000
0000
0001
0000
0000
0001
0000
0000
0000
,
0010
0000
0000
0010
0000
0000
0100
0000
0000
1000
0000
0000
1000
0000
0000
0000
,
0020
0000
0130
0001
0000
0100
0010
0000
0100
0001
0000
1000
0100
0000
MM1M
0000
,
0002
0000
0013
0100
0000
0010
0001
0000
0010
0100
0000
1000
0001
0000
MM1M
0000
,
0200
0000
1300
0010
0000
1000
0001
0000
1000
0010
0000
1000
0100
0000
MM1M
0000
,
0002
0000
0103
0010
0000
1000
0010
0000
0100
0010
0000
1000
0100
0000
MM1M
0000
,
0100
1000
0100
1000
0001
0100
0001
1000
0010
1000
0001
0010
0100
1000
0001
1000
,
0100
0010
0001
0100
0001
0100
0010
1000
0010
0100
0001
1000
0100
1000
0001
0100
,
0001
0100
0010
0100
0001
1000
0001
1000
0100
0010
0100
0010
0001
0010
0100
1000
,
0001
0000
0000
0100
0000
0000
0001
0000
0000
0100
0000
0000
0001
0000
0000
0100
0000
0000
0001
0000
0000
0100
0000
0000
0010
0000
0000
1000
0000
0000
0100
0000
0000
0010
0000
0000
0001
0000
1000
0000
0001
0000
1000
0000
0001
0000
1000
0000
,
0001
0000
0100
0010
0000
1000
0001
0000
0100
0010
0000
1000
0001
0000
M1MM
0000
,
0020
0000
1030
0100
0000
0010
0001
0000
1000
0100
0000
0010
0001
0000
M1MM
0000
,
0020
0000
1030
0001
0000
0010
0100
0000
1000
0001
0000
0010
0100
0000
1MMM
0000
,
0020
0000
0130
0001
0000
1000
0010
0000
0100
0001
0000
1000
0010
0000
M1MM
0000
,
0002
0000
0013
0100
0000
0010
0001
0000
0010
0100
0000
1000
0010
0000
M1MM
0000
,
0002
0000
1003
0100
0000
0010
0100
0000
1000
0100
0000
0010
0001
0000
1MMM
0000
,
0020
0000
0130
0010
0000
1000
0010
0000
0100
0010
0000
1000
0100
0000
MM1M
0000
,
0002
0000
0000
0000
0000
0000
0103
0000
0000
0001
0000
0000
0000
0000
0000
1000
0000
0000
0010
0000
0000
0000
0000
0000
0100
0000
0000
0001
0000
0000
0100
0000
0000
0010
0000
0000
1000
0000
0001
0000
1000
0000
0001
0000
1000
0000
0001
0000
,
2000
0000
3010
0100
0000
0001
0100
0000
0010
0100
0000
0001
1000
0000
M1MM
0000
,
0020
0000
0031
0010
0000
0001
1000
0000
0001
0010
0000
0100
1000
0000
MMM1
0000
,
0200
0000
0310
1000
0000
0010
0100
0000
0010
1000
0000
0001
0010
0000
M1MM
0000
,
2000
0000
3100
0010
0000
0001
0010
0000
0100
0010
0000
0001
0100
0000
MMMM
0000
,
0001
0010
0100
0010
0001
1000
0100
0010
0001
0100
0001
0010
0100
1000
0010
0100
,
0001
0010
0001
0100
0010
1000
0100
1000
0010
1000
0010
0100
0001
0100
0001
0010
,
0100
1000
0010
1000
0001
0100
0001
0100
0010
1000
0100
1000
0001
0010
0001
0010
,
0100
0000
0000
1000
0000
0000
0001
0000
0000
1000
0000
0000
0100
0000
0000
0010
0000
0000
0100
0000
0000
1000
0000
0000
0001
0000
0100
0000
0001
0000
0100
0000
0001
0000
0100
0000
0001
0000
0100
0000
0001
0000
0100
0000
0001
0000
0100
0000
,
0002
0003
1000
0000
0001
0000
1000
0000
0020
0030
0100
0000
0010
0000
0100
0000
0002
0003
1000
0000
0001
0000
1000
0000
0020
0030
0100
0000
0010
0000
0100
0000
,
0002
0003
1000
0000
0001
0000
1000
0000
0200
0300
0010
0000
0100
0000
0010
0000
0002
0003
1000
0000
0001
0000
1000
0000
0200
0300
0010
0000
0100
0000
0010
0000
,
0002
0003
0100
0000
0001
0000
0100
0000
0020
0030
1000
0000
0010
0000
1000
0000
0002
0003
0100
0000
0001
0000
0100
0000
0020
0030
1000
0000
0010
0000
1000
0000
,
0002
0003
0010
0000
0001
0000
0010
0000
0200
0300
1000
0000
0100
0000
1000
0000
0002
0003
0010
0000
0001
0000
0010
0000
0200
0300
1000
0000
0100
0000
1000
0000
,
0020
0030
0100
0000
0010
0000
0100
0000
0002
0003
1000
0000
0001
0000
1000
0000
0020
0030
0100
0000
0010
0000
0100
0000
0002
0003
1000
0000
0001
0000
1000
0000
,
0200
0300
0010
0000
0100
0000
0010
0000
0002
0003
1000
0000
0001
0000
1000
0000
0200
0300
0010
0000
0100
0000
0010
0000
0002
0003
1000
0000
0001
0000
1000
0000
,
0020
0030
0100
0000
0010
0000
0100
0000
0002
0003
0010
0000
0001
0000
0010
0000
0200
0300
1000
0000
0100
0000
1000
0000
0020
0030
0100
0000
0010
0000
0100
0000
,
0002
0003
0010
0000
0001
0000
0010
0000
0200
0300
1000
0000
0100
0000
1000
0000
0020
0030
0100
0000
0010
0000
0100
0000
0002
0003
0010
0000
0001
0000
0010
0000
,
0200
0300
1000
0000
0001
0000
1000
0000
0200
0300
0010
0000
0001
0000
1000
0000
0002
0003
0010
0000
0100
0000
1000
0000
0200
0300
0010
0000
0100
0000
1000
0000
,
0002
0003
0010
0000
0002
0003
0100
0000
0002
0003
1000
0000
0100
0000
0010
0000
0002
0003
1000
0000
0001
0000
0100
0000
0002
0003
1000
0000
0100
0000
0010
0000
,
0002
0003
1000
0000
0001
0000
0100
0000
0002
0003
1000
0000
0010
0000
0100
0000
0002
0003
0010
0000
0001
0000
1000
0000
0020
0030
0100
0000
0001
0000
0010
0000
,
0002
0003
1000
0000
0100
0000
1000
0000
0020
0030
0100
0000
0001
0000
1000
0000
0200
0300
1000
0000
0010
0000
0100
0000
0002
0003
1000
0000
0100
0000
1000
0000
,
0020
0030
1000
0000
0001
0000
1000
0000
0200
0300
0010
0000
0001
0000
1000
0000
0020
0030
1000
0000
0100
0000
1000
0000
0002
0003
0010
0000
0100
0000
1000
0000
,
0002
0003
1000
0000
0100
0000
0010
0000
0002
0003
1000
0000
0010
0000
1000
0000
0200
0300
1000
0000
0001
0000
0100
0000
0020
0030
1000
0000
0100
0000
1000
0000
,
0020
0030
1000
0000
0001
0000
0010
0000
0200
0300
1000
0000
0001
0000
0100
0000
0002
0003
1000
0000
0100
0000
1000
0000
0020
0030
0100
0000
0001
0000
1000
0000
,
0200
0000
0000
0000
0000
0000
0300
0000
0000
0000
0000
0000
1000
0000
0000
0000
0000
0000
0000
0000
0000
0000
0000
0000
0010
0000
0000
0000
0000
0000
0000
0000
0000
0000
0000
0000
0100
0000
0000
0000
0000
0000
0000
0000
0000
0000
0000
0000
0002
0000
0000
0000
0000
0000
0003
0000
0000
0000
0000
0000
0010
0000
0000
0000
0000
0000
0000
0000
0000
0000
0000
0000
0100
0000
0000
0000
0000
0000
0000
0000
0000
0000
0000
0000
0010
0000
0000
0000
0000
0000
0000
0000
0000
0000
0000
0000
0001
0000
0000
0000
0000
0000
0000
0000
1000
0000
0000
0000
0000
0000
0000
0000
0001
0000
0000
0000
0000
0000
0000
0000
1000
0000
0000
0000
0000
0000
0000
0000
0001
0000
0000
0000
0000
0000
0000
0000
1000
0000
0000
0000
0000
0000
0000
0000
0001
0000
0000
0000
0000
0000
0000
0000
1000
0000
0000
0000
0000
0000
0000
0000
0001
0000
0000
0000
0000
0000
0000
0000
1000
0000
0000
0000
0000
0000
0000
0000
0001
0000
0000
0000
0000
0000
0000
0000
1000
0000
0000
0000
0000
0000
0000
0000
,
0001
0000
0000
0000
0000
0000
0200
0000
0000
0000
0000
0000
0300
0000
0000
0000
0000
0000
0200
0000
0000
0000
0000
0300
0000
0000
0000
0000
0000
0000
0200
0000
0000
0000
0300
0000
0000
0000
0000
0000
0000
0000
0200
0000
0000
0300
0000
0000
,
0001
0000
0000
0000
0000
0000
0020
0000
0000
0000
0000
0000
0030
0000
0000
0000
0000
0000
0020
0000
0000
0000
0000
0030
0000
0000
0000
0000
0000
0000
0020
0000
0000
0000
0030
0000
0001
0000
0000
0000
0000
0000
1000
0000
0000
0000
0000
0000
,
0010
0000
0000
0000
0000
0000
0200
0000
0000
0000
0000
0000
0300
0000
0000
0000
0000
0000
0200
0000
0000
0000
0000
0300
0000
0000
0000
0000
0000
0000
0200
0000
0000
0000
0300
0000
0000
0000
0000
0000
0000
0000
0200
0000
0000
0300
0000
0000
,
0010
0000
0000
0000
0000
0000
2000
0000
0000
0000
0000
0000
3000
0000
0000
0000
0000
0000
2000
0000
0000
0000
0000
3000
0000
0000
0000
0000
0000
0000
2000
0000
0000
0000
3000
0000
0010
0000
0000
0000
0000
0000
0100
0000
0000
0000
0000
0000
,
0001
0000
0000
0000
0000
0000
0020
0000
0000
0000
0000
0000
0030
0000
0000
0000
0000
0000
0020
0000
0000
0000
0000
0030
0000
0000
0000
0000
0000
0000
0020
0000
0000
0000
0030
0000
0000
0000
0000
0000
0000
0000
0020
0000
0000
0030
0000
0000
,
0000
0000
0000
0000
0000
0000
0020
0000
0030
0000
0000
0000
0000
0000
0000
0000
0000
0000
0020
0030
0000
0000
0000
0000
0000
0000
0000
0000
0000
0000
0020
0030
0000
0000
0000
0000
0000
0000
0000
0000
0000
0000
0020
0030
0000
0000
0000
0000
,
0001
0000
0000
0000
0000
0000
0200
0000
0000
0000
0000
0000
0300
0000
0000
0000
0000
0000
0200
0000
0000
0000
0000
0300
0000
0000
0000
0000
0000
0000
0200
0000
0000
0000
0300
0000
0000
0000
0000
0000
0000
0000
0200
0000
0000
0300
0000
0000
,
0000
0000
0000
0000
0000
0000
0002
0000
0003
0000
0000
0000
0000
0000
0000
0000
0000
0000
0002
0003
0000
0000
0000
0000
0000
0000
0000
0000
0000
0000
0002
0003
0000
0000
0000
0000
0100
0000
0000
0000
0000
0000
0010
0000
0000
0000
0000
0000
,
1000
0200
0310
0200
1300
0200
0310
0200
,
1300
0002
0013
0002
1003
0002
0013
0100
,
1000
0020
0130
0020
1030
0020
0130
0020
,
1030
0002
0103
0002
0013
0002
0103
0010
,
1000
0100
1000
0100
0010
0100
1000
0001
0100
0001
0100
0001
0010
0001
0100
0010
,
1000
0010
1000
0100
1000
0001
0100
0001
1000
0001
0010
0100
1000
0001
0010
0100
,
0010
0001
0100
0001
0100
0010
0100
0001
0010
0001
0100
0010
1000
0010
1000
0100
,
1000
0000
0000
0001
0000
0000
0100
0000
0000
0001
0000
0000
0100
0000
0000
0010
0000
0000
1000
0000
0000
0100
0000
0000
0010
0000
0000
0001
0000
0000
1000
0000
0010
0000
0100
0000
0001
0000
0100
0000
0001
0000
0100
0000
0000
0000
0000
0000
;
