#TITLE:mystic 11;
#SUBTITLE:moonshine;
#ARTIST:Serenade;
#TITLETRANSLIT:;
#SUBTITLETRANSLIT:;
#ARTISTTRANSLIT:;
#CREDIT:;
#BANNER:mystic-bn.png;
#BACKGROUND:mystic-bg.png;
#LYRICSPATH:;
#CDTITLE:!cdtitle.png;
#MUSIC:08 mystic 11.mp3;
#OFFSET:0.640;
#SAMPLESTART:80.283;
#SAMPLELENGTH:12.000;
#SELECTABLE:YES;
#BPMS:0.000=175.980;
#STOPS:;
#BGCHANGES:;
// cache tags:
#FIRSTBEAT:4.000;
#LASTBEAT:720.000;
#SONGFILENAME:Songs/Astronomic Metal Collection 2/(Cherubi + moches+ Kommisar) Mystic 11/mystic.sm;
#HASMUSIC:1;
#HASBANNER:1;
#MUSICLENGTH:252.506;
// end cache tags

//---------------dance-single - ----------------
#NOTES:
     dance-single:
     :
     Hard:
     11:
     1.000,1.000,1.000,1.000,0.568,1409.000,539.000,485.000,5.000,142.000:
0000
0000
0000
0000
,
1011
0000
0010
1101
0000
1000
1000
0000
,
1000
0000
1100
1000
1011
0000
1101
0000
,
1000
0111
0000
1100
1001
0000
1011
0000
,
1000
1110
0000
1000
1000
0000
1000
0000
,
1100
0000
1000
0000
1011
0000
0000
0000
1101
0000
0000
0000
0010
0001
1110
0000
,
0000
0000
0110
0000
1100
0000
0010
0100
1021
0000
0030
0000
1000
0000
1011
0000
,
0000
0000
1000
0000
0210
0300
2000
3000
0201
0300
0020
0030
1102
0003
0010
0000
,
1110
0000
0000
0000
1021
0030
0002
0003
1000
0000
1210
0300
0000
0000
0021
0030
,
0201
0300
0000
0000
1012
0003
0000
0000
1000
0000
2011
3000
0000
0000
1000
0000
,
1000
0000
0002
0003
2010
3000
0200
0300
0021
0030
0102
0003
1120
0030
0200
0300
,
2011
0000
0000
0000
3000
0000
0000
0000
0200
0000
0000
0000
0300
0000
0000
0000
0001
0000
0000
0000
0000
0000
0000
0000
1011
0200
0000
0000
0000
0300
0000
0000
0000
0000
0000
0000
0000
0000
0000
0000
0010
0000
0000
0000
0001
0000
0000
0000
1110
0000
0000
0000
0000
0000
0000
0000
0000
0000
0000
0000
0000
0000
0000
0000
,
2202
3003
0000
0000
0300
0000
0000
0000
0010
0000
0000
0000
0000
0000
0000
0000
0101
0000
0000
0000
0000
0000
0000
0000
1001
0000
0000
0000
0000
0000
0000
0000
1000
0000
0000
0000
0000
0000
0000
0000
0101
0000
0000
0000
0000
0000
0000
0000
0020
0000
0000
0000
0030
0000
0000
0000
1000
0000
0000
0000
0000
0000
0000
0000
,
1100
0000
0010
0100
1002
0003
0010
0000
1100
0000
0010
0000
1201
0300
0020
0030
,
1100
0000
1012
0003
0000
0000
0100
0010
1002
0000
0000
0003
2100
0000
3010
0000
,
0101
0000
1001
0000
0100
0000
0100
0000
0100
0000
0011
0000
1000
0000
1000
0100
,
0011
0000
1000
0000
0101
0000
0010
0000
1101
0000
0010
1100
0010
0000
2102
3003
,
0000
0000
0000
0000
0000
0000
0000
0000
0001
0000
0000
0000
0010
0000
0000
0000
0100
0000
0000
0000
1000
0000
0000
0000
0010
0000
0000
0000
0100
0000
0000
0000
1011
0000
0000
0200
0000
0000
0000
0000
0300
0000
0000
0000
0000
0000
0000
0000
0011
0000
0000
0000
0000
0000
0000
0000
2000
0000
0000
0000
0000
0000
0000
0000
,
3010
0000
0000
0000
0000
0000
0110
0000
0000
0000
0000
0000
1000
0000
0000
0000
0000
0000
1000
0000
0000
0000
0000
0000
0011
0000
0000
0000
0000
0000
0100
0000
0000
1000
0000
0000
0101
0000
0000
0000
0000
0000
0020
0030
0000
0002
0003
0000
,
1020
0030
0000
0000
0000
0000
0200
0300
0000
0000
0000
0000
2001
3000
0000
0000
0000
0000
0010
0000
0000
0000
0000
0000
0100
0000
0000
0000
0000
0000
1021
0000
0000
0000
0000
0000
0030
0000
0000
0000
0000
0000
0200
0300
0000
0010
0000
0000
,
1102
0000
0000
0000
0000
0000
0003
0000
0000
0000
0000
0000
0210
0000
0000
0000
0000
0000
0301
0000
0000
0000
0000
0000
2010
3000
0000
0000
0000
0000
2000
0000
0000
0000
0000
0000
3001
0000
0000
0000
0000
0000
0011
0000
0000
0000
0000
0000
,
0100
0000
0000
0000
0000
0000
2000
3000
0000
0000
0000
0000
0201
0300
0000
0000
0000
0000
0020
0030
0000
0100
0000
0000
1002
0003
0000
0000
0000
0000
0200
0300
0000
0000
0000
0000
0012
0003
0000
0000
0000
0000
2000
3000
0200
0000
0000
0000
,
0011
0300
0000
0000
0000
0000
0200
0300
0000
0000
0000
0000
2001
3000
0000
0000
0000
0000
1020
0030
0000
0000
0000
0000
0200
0000
0000
0000
0000
0000
0301
0000
0000
0010
0000
0000
1100
0000
0000
0000
0000
0000
0000
0000
0000
0000
0000
0000
,
2012
0000
0000
0000
0000
0000
0000
0000
0000
0000
0000
0000
3003
0000
0000
0000
0000
0000
0000
0000
0000
0000
0000
0000
2000
0000
0000
0000
3000
0000
0000
0000
0000
0000
0000
0000
0000
0000
0000
0000
0000
0000
0000
0000
0000
0000
0000
0000
0210
0000
0000
0000
0300
0000
0000
0000
0000
0000
0000
0000
0000
0000
0000
0000
0000
0000
0000
0000
0000
0000
0000
0000
0012
0000
0000
0000
0003
0000
0000
0000
0000
0000
0000
0000
0000
0000
0000
0000
0000
0000
0000
0000
0000
0000
0000
0000
0100
0000
0000
0020
0000
0000
0000
0000
0000
0000
0000
0000
0000
0000
0000
0000
0000
0000
0000
0000
0000
0000
0000
0000
1030
0000
0000
0000
0000
0000
0000
0000
0000
0000
0000
0000
0000
0000
0000
0000
0000
0000
0000
0000
0000
0000
0000
0000
0200
0000
0000
0000
0300
0000
0000
0000
0000
0000
0000
0000
0000
0000
0000
0000
0000
0000
0000
0000
0000
0000
0000
0000
0201
0000
0000
0000
0300
0000
0000
0000
0000
0000
0000
0000
0000
0000
0000
0000
0000
0000
0000
0000
0000
0000
0000
0000
,
1001
0000
0000
0000
0000
0000
0000
0000
0000
0000
0000
0000
0000
0000
0000
0000
0000
0000
0000
0000
0000
0000
0000
0000
0020
0000
0000
0000
0030
0000
0000
0000
0000
0000
0000
0000
0100
0000
0000
0000
0000
0000
0000
0000
0000
0000
0000
0000
0021
0000
0000
0000
0030
0000
0000
0000
0000
0000
0000
0000
0000
0000
0000
0000
0000
0000
0000
0000
0000
0000
0000
0000
2000
0000
0000
0000
3000
0000
0000
0000
0000
0000
0000
0000
0000
0000
0000
0000
0000
0000
0000
0000
0000
0000
0000
0000
0120
0000
0000
0000
0030
0000
0000
0000
0000
0000
0000
0000
0000
0000
0000
0000
0000
0000
0000
0000
0000
0000
0000
0000
0002
0000
0000
0000
0003
0000
0000
0000
0000
0000
0000
0000
0000
0000
0000
0000
0000
0000
0000
0000
0000
0000
0000
0000
1110
0000
0000
0002
0000
0000
0000
0000
0000
0000
0000
0000
0000
0000
0000
0000
0000
0000
0000
0000
0000
0000
0000
0000
0100
0000
0000
0003
0000
0000
0000
0000
0000
0000
0000
0000
0000
0000
0000
0000
0000
0000
0000
0000
0000
0000
0000
0000
,
0020
0030
0000
0000
0000
0000
1201
0300
0000
0000
0000
0000
0000
0000
0000
0000
0000
0000
1000
0000
0000
0100
0000
0000
0011
0000
0000
0000
0000
0000
0000
0000
0000
0000
0000
0000
1100
0000
0000
0000
0000
0000
0002
0003
0000
0000
0000
0000
,
1020
0030
0000
0000
0000
0000
0201
0300
0000
0000
0000
0000
2000
3000
0000
0000
0000
0000
0021
0030
0000
0000
0000
0000
0200
0300
0000
0000
0000
0000
0002
0003
0000
0000
0000
0000
0120
0030
0000
0000
0000
0000
2000
3000
0000
0001
0000
0000
,
0210
0000
0000
0000
0300
0000
0000
0000
0000
0000
0000
0000
0000
0000
0000
0000
0000
0000
0000
0000
0000
0000
0000
0000
1000
0000
0000
0002
0000
0000
0003
0000
0000
0000
0000
0000
0000
0000
0000
0000
0000
0000
0000
0000
0000
0000
0000
0000
0120
0000
0000
0000
0030
0000
0000
0000
0000
0000
0000
0000
0000
0000
0000
0000
0000
0000
0000
0000
0000
0000
0000
0000
1201
0000
0000
0000
0300
0000
0000
0000
0000
0000
0000
0000
0000
0000
0000
0000
0000
0000
0000
0000
0000
0000
0000
0000
2000
0000
0000
0000
3000
0000
0000
0000
0000
0000
0000
0000
0000
0000
0000
0000
0000
0000
0000
0000
0000
0000
0000
0000
0211
0000
0000
0000
0300
0000
0000
0000
0000
0000
0000
0000
0000
0000
0000
0000
0000
0000
0000
0000
0000
0000
0000
0000
2000
0000
0000
0000
3000
0000
0000
0000
0000
0000
0000
0000
0000
0000
0000
0000
0000
0000
0000
0000
0000
0000
0000
0000
0212
0000
0000
0000
0000
0000
0000
0000
0000
0000
0000
0000
0003
0000
0000
0000
0000
0000
0000
0000
0000
0000
0000
0000
,
0300
0000
0000
0000
0000
0000
0001
0000
0000
0010
0000
0000
1100
0000
0000
0000
0000
0000
0001
0000
0000
1000
0100
0010
0002
0000
0000
0000
0000
0000
0003
0000
0000
0000
0000
0000
1100
0000
0000
0000
0000
0000
0002
0000
0000
0000
0000
0000
,
0000
0000
0000
0000
0003
0000
0000
0000
2010
3000
0000
0000
0000
0000
0000
0000
0200
0300
0000
0000
0000
0000
0000
0000
0020
0030
0000
0000
0000
0000
0000
0000
1001
0000
0000
0000
0000
0000
0000
0000
0200
0300
0000
0000
0001
0000
0000
0000
1000
0020
0000
0000
0000
0000
0000
0000
0000
0030
0000
0000
0000
0000
0000
0000
,
0012
0003
0000
0000
0000
0000
0000
0000
0200
0000
0000
0000
0010
0000
0000
0000
1301
0000
0000
0000
0000
0000
0000
0000
0010
0000
0000
0000
0000
0000
0000
0000
0100
0000
0000
0000
0000
0000
0000
0000
0021
0030
0000
0000
0000
0000
0000
0000
2000
3000
0000
0000
0000
0000
0000
0000
0020
0030
0000
0000
0001
0000
0000
0000
,
1200
0300
0000
0000
0000
0000
0000
0000
2000
3000
0000
0000
0000
0000
0000
0000
0210
0000
0000
0000
0000
0000
0300
0000
1000
0000
0000
0000
0000
0000
0000
0000
0012
0000
0000
0000
0000
0003
0000
0000
0010
0000
0000
0000
0000
0000
0000
0000
0010
0000
0000
0000
0000
0000
0000
0000
1100
0000
0000
0000
0000
0000
0000
0000
,
0001
0000
0000
0000
0000
0000
0000
0000
1000
0000
0000
0000
0100
0000
0000
0000
0010
0000
0000
0000
0001
0000
0000
0000
0010
0000
0000
0000
0000
0100
0000
0000
1000
0000
0000
0100
0000
0000
0000
0010
0000
0000
0000
0001
0000
0000
0000
0000
0010
0000
0000
1000
0000
0000
0000
0000
0100
0000
0000
0000
0010
0000
0000
0001
,
0000
0000
0000
0000
0100
0000
0000
0000
1000
0000
0000
0000
0100
0000
0000
0000
0010
0000
0000
0000
0100
0000
0000
0000
1000
0000
0000
0000
0001
0000
0000
0000
0010
0000
0000
0000
0100
0000
0000
0000
1000
0020
0000
0000
0000
0000
0030
0000
0101
0000
0000
0000
0000
0000
0000
0000
0001
0000
0000
0000
0010
0000
0000
0000
,
2200
0300
0002
0000
3000
0000
0000
0000
0000
0003
0000
0000
0000
0000
0000
0000
1010
0000
0000
0000
0000
0000
0000
0000
1200
0000
0000
0000
0000
0000
0000
0000
0301
0000
0000
0000
0000
0000
0000
0000
0011
0000
0000
0000
0000
0000
0000
0000
0100
0000
0000
0000
0000
0000
0000
0000
1010
0000
0000
0000
0000
0000
0000
0000
,
1001
0000
0000
0000
0000
0000
0000
0000
0000
0000
0000
0000
0000
0000
0000
0000
0000
0000
0000
0000
0000
0000
0000
0000
0010
0000
0000
0000
0000
0000
0000
0000
0000
0000
0000
0000
0100
0000
0000
0000
0000
0000
0000
0000
0000
0000
0000
0000
1001
0000
0000
0000
0000
0000
0000
0000
0000
0000
0000
0000
0000
0000
0000
0000
0000
0000
0000
0000
0000
0000
0000
0000
0020
0000
0000
0030
0000
0000
0000
0000
0000
0000
0000
0000
0002
0000
0000
0003
0000
0000
0000
0000
0000
0000
0000
0000
1020
0000
0000
0030
0000
0000
0000
0000
0000
0000
0000
0000
0000
0000
0000
0000
0000
0000
0000
0000
0000
0000
0000
0000
0200
0000
0000
0300
0000
0000
0000
0000
0000
0000
0000
0000
0000
0000
0000
0000
0000
0000
0000
0000
0000
0000
0000
0000
2011
0000
0000
3000
0000
0000
0000
0000
0000
0000
0000
0000
0000
0000
0000
0000
0000
0000
0000
0000
0000
0000
0000
0000
0020
0000
0000
0000
0030
0000
0000
0000
0000
0000
0000
0000
0000
0000
0000
0000
0000
0000
0000
0000
0000
0000
0000
0000
,
0100
0000
0000
0000
0000
0000
0000
0000
0000
0000
0000
0000
0000
0000
0000
0000
0000
0000
0000
0000
0000
0000
0000
0000
1101
0000
0000
0020
0000
0000
0030
0000
0000
0000
0000
0000
0000
0000
0000
0000
0000
0000
0000
0000
0000
0000
0000
0000
0000
0000
0000
0000
0000
0000
0000
0000
0000
0000
0000
0000
0000
0000
0000
0000
0000
0000
0000
0000
0000
0000
0000
0000
0200
0000
0000
0000
0300
0000
0000
0000
0000
0000
0000
0000
1000
0000
0000
0000
0000
0000
0000
0000
0000
0010
0000
0000
0102
0000
0000
0000
0003
0000
0000
0000
0000
0000
0000
0000
0000
0000
0000
0000
0000
0000
0000
0000
0000
0000
0000
0000
0000
0000
0000
0000
0000
0000
0000
0000
0000
0000
0000
0000
0000
0000
0000
0000
0000
0000
0000
0000
0000
0000
0000
0000
2100
0000
0000
0000
3000
0000
0000
0000
0000
0000
0000
0000
0000
0000
0000
0000
0000
0000
0000
0000
0000
0000
0000
0000
0010
0000
0000
0000
0000
0000
0000
0000
0000
0000
0000
0000
0000
0000
0000
0000
0000
0000
0000
0000
0000
0000
0000
0000
,
0101
0000
0000
0000
0000
0000
2000
3000
0000
0000
0000
0000
0200
0300
0000
0000
0000
0000
1002
0003
0000
0000
0000
0000
0020
0030
0000
0000
0000
0000
0200
0300
0000
0000
0000
0000
2001
3000
0000
0000
0000
0000
0020
0030
0000
0001
0000
0000
,
1200
0000
0000
0000
0300
0000
0000
0000
0000
0000
0000
0000
0000
0000
0000
0000
0000
0000
0000
0000
0000
0000
0000
0000
0002
0000
0000
0000
0003
0000
0000
0000
0000
0000
0000
0000
0000
0000
0000
0000
0000
0000
0000
0000
0000
0000
0000
0000
1001
0000
0000
0000
0000
0000
0000
0000
0000
0100
0000
0000
0000
0000
0000
0010
0000
0000
0000
0000
0000
0000
0000
0000
0002
0000
0000
0000
0000
0000
0003
0000
0000
0000
0000
0000
0000
0000
0000
0000
0000
0000
0000
0000
0000
0000
0000
0000
1010
0000
0000
0000
0000
0000
0000
0000
0000
0000
0000
0000
0000
0000
0000
0100
0000
0000
0000
0000
0000
0000
0000
0000
0010
0000
0000
0000
0000
0000
0100
0000
0000
0000
0000
0000
0000
0000
0000
0000
0000
0000
1000
0000
0000
0000
0000
0000
0001
0000
0000
0000
0000
0000
0000
0000
0000
0020
0000
0000
0100
0000
0000
0000
0000
0000
0000
0000
0000
0000
0000
0000
1000
0000
0000
0000
0000
0000
0000
0000
0000
0000
0000
0000
0001
0000
0000
0000
0000
0000
0030
0000
0000
0000
0000
0000
,
1000
0000
0100
0000
0010
0000
0001
0000
0010
0000
0000
0000
0100
0000
1000
0000
0111
0000
0000
0000
0010
0000
0000
0000
0100
0000
0000
0000
0012
0003
0000
0000
,
0000
0000
0000
0000
1000
0000
0000
0000
0021
0030
0000
0000
0100
0000
0000
0000
1000
0000
0000
0000
0210
0300
0000
0000
0011
0000
0000
0000
0100
0000
0000
0000
,
2001
3000
0000
0000
0010
0000
0000
0000
0100
0000
0000
0000
0012
0003
0000
0000
0201
0300
0000
0000
2010
3000
0000
0000
1002
0003
0000
0000
0000
0000
0000
0000
,
1000
0000
0100
0000
0022
0030
0003
0000
0000
0000
0000
0000
0000
0000
0000
0000
2012
0000
3003
0000
0010
0000
0000
0000
0100
0000
0000
0000
0012
0003
0000
0000
,
1100
0000
0000
0000
1000
0000
0000
0000
0021
0030
0000
0000
0100
0000
0000
0000
1000
0000
0000
0000
0210
0300
1000
0000
0011
0000
0000
0000
0100
0000
0000
0000
,
2001
3000
0000
0000
0010
0000
0000
0000
0100
0000
0000
0000
0012
0003
0000
0000
0201
0300
0000
0000
2010
3000
0000
0000
1201
0000
0300
0000
0000
0000
0000
0000
,
1000
0100
0010
0001
0010
0000
0101
0000
1000
0000
0100
0000
2012
3003
0000
0000
,
0000
0000
1000
0100
0011
0000
0100
0000
0100
0000
0100
0000
1001
0010
0100
1000
,
0000
0000
0000
0000
0000
0000
0000
0000
0000
0000
0000
0000
0000
0000
0000
0000
0000
0000
0000
0000
0000
0000
0000
0000
0000
0000
0000
0000
0000
0000
0000
0000
0000
0000
0000
0000
0000
0000
0000
2222
0030
0300
0000
0000
0000
0000
0000
0003
0000
0000
0000
0000
0000
0000
3000
0000
0000
0000
0000
0000
0000
0000
0000
0000
,
2001
3000
0000
0000
0000
0000
0200
0300
0000
0000
0000
0000
0011
0000
0000
0000
0000
0000
2000
3000
0000
0000
0000
0000
0020
0030
0000
0000
0000
0000
2102
0000
0000
3000
0000
0000
0000
0000
0000
0003
0000
0000
0000
0000
0000
0000
0000
0000
,
0011
0000
0000
0000
0000
0000
2000
3000
0000
0200
0300
0000
0021
0030
0000
0000
0000
0000
0002
0003
0000
0000
0000
0000
1020
0030
0000
0000
0000
0000
2201
0000
0000
3000
0000
0000
0000
0000
0000
0300
0000
0000
0000
0000
0000
0000
0000
0000
,
1002
0003
0000
0000
0000
0000
0200
0300
0000
0000
0000
0000
2001
3000
0000
0000
0000
0000
0001
0000
0000
0000
0000
0000
1020
0030
0000
0000
0000
0000
0202
0300
0000
0003
0000
0000
0001
0000
0000
0000
0000
0000
0000
0000
0000
0000
0000
0000
,
1001
0000
0000
0000
0000
0000
1000
0000
0000
0000
0000
0000
0000
0000
0000
0000
0000
0000
1000
0000
0000
0000
0000
0000
0011
0000
0000
0000
0000
0000
2000
3000
0000
2000
3000
0000
0022
0003
0000
0030
0000
0000
0200
0300
0000
0000
0000
0000
,
1020
0030
0000
0000
0000
0000
0002
0003
0000
0000
0000
0000
1010
0000
0000
0000
0000
0000
0020
0030
0000
0000
0000
0000
1200
0300
0000
0000
0000
0000
0022
0000
0000
0033
0000
0000
1000
0000
0000
0000
0000
0000
0000
0000
0000
0000
0000
0000
,
0021
0030
0000
0000
0000
0000
0200
0000
0000
0000
0000
0300
0000
0000
0000
0000
0000
0000
0020
0030
0000
0000
0000
0000
2100
3000
0000
0000
0000
0000
2020
0030
0000
3002
0003
0000
0020
0030
0000
0000
0000
0000
0200
0300
0000
0000
0000
0000
,
2001
3000
0000
0000
0000
0000
0000
0000
0000
0000
0000
0000
0200
0300
0000
0000
0000
0000
1020
0030
0000
0000
0000
0000
0102
0003
0000
0000
0000
0000
2021
0030
0000
3000
0000
0000
0011
0000
0000
1100
0000
0000
0001
0000
0000
0010
0000
0000
,
0100
0000
1000
0000
0011
0000
1100
0000
0001
0000
0010
0000
0100
0000
1000
0000
0011
0000
0000
0000
2202
0300
3000
0000
0000
0000
0003
0000
0000
0000
0000
0000
,
2001
3000
0000
0000
0000
0000
0200
0300
0000
0000
0000
0000
0011
0000
0000
0000
0000
0000
2000
3000
0000
0000
0000
0000
0020
0030
0000
0000
0000
0000
2102
0000
0000
3000
0000
0000
0000
0000
0000
0003
0000
0000
0000
0000
0000
0000
0000
0000
,
0011
0000
0000
0000
0000
0000
2000
3000
0000
0200
0300
0000
0021
0030
0000
0000
0000
0000
0002
0003
0000
0000
0000
0000
1020
0030
0000
0000
0000
0000
2201
0000
0000
3000
0000
0000
0000
0000
0000
0300
0000
0000
0000
0000
0000
0000
0000
0000
,
1002
0000
0000
0000
0003
0000
0000
0000
0000
0000
0000
0000
0000
0000
0000
0000
0000
0000
0000
0000
0000
0000
0000
0000
0200
0000
0000
0000
0300
0000
0000
0000
0000
0000
0000
0000
0000
0000
0000
0000
0000
0000
0000
0000
0000
0000
0000
0000
2001
0000
0000
0000
3000
0000
0000
0000
0000
0000
0000
0000
0000
0000
0000
0000
0000
0000
0000
0000
0000
0000
0000
0000
0001
0000
0000
0000
0000
0000
0000
0000
0000
0000
0000
0000
0000
0000
0000
0000
0000
0000
0000
0000
0000
0000
0000
0000
1020
0000
0000
0000
0030
0000
0000
0000
0000
0000
0000
0000
0000
0000
0000
0000
0000
0000
0000
0000
0000
0000
0000
0000
2100
0000
0000
0000
0000
0000
0002
0000
0000
0000
0000
0000
3000
0000
0000
0000
0000
0000
0000
0000
0000
0000
0000
0000
0003
0000
0000
0000
0000
0000
0000
0000
0000
0000
0000
0000
0000
0000
0000
0000
0000
0000
0000
0000
0000
0000
0000
0000
0002
0000
0000
0000
0000
0000
0003
0000
0000
0000
0000
0000
0000
0000
0000
0000
0000
0000
0000
0000
0000
0000
0000
0000
,
2020
0000
0000
0000
0000
0000
0030
0000
0000
0000
0000
0000
0000
0000
0000
0000
0000
0000
0000
0000
0000
0000
0000
0000
0200
0000
0000
0000
0000
0000
0300
0000
0000
0000
0000
0000
0000
0000
0000
0000
0000
0000
0000
0000
0000
0000
0000
0000
0001
0000
0000
0000
0000
0000
3000
0000
0000
0000
0000
0000
0000
0000
0000
0000
0000
0000
0000
0000
0000
0000
0000
0000
1000
0000
0000
0000
0000
0000
0000
0000
0000
0000
0000
0000
0000
0000
0000
0000
0000
0000
0000
0000
0000
0000
0000
0000
0011
0000
0000
0000
0000
0000
0000
0000
0000
0000
0000
0000
0000
0000
0000
0000
0000
0000
0000
0000
0000
0000
0000
0000
0000
0000
0000
0000
0000
0000
0000
0000
0000
0000
0000
0000
0000
0000
0000
0000
0000
0000
0000
0000
0000
0000
0000
0000
2120
0000
0000
0000
3030
0000
0000
0000
0000
0000
0000
0000
0000
0000
0000
0000
0000
0000
0000
0000
0000
0000
0000
0000
0002
0000
0000
0000
0003
0000
0000
0000
0000
0000
0000
0000
0000
0000
0000
0000
0000
0000
0000
0000
0000
0000
0000
0000
,
0120
0030
0000
0000
0000
0000
0201
0300
0000
0000
0000
0000
2000
3000
0000
0000
0000
0000
0120
0030
0000
0000
0000
0000
0200
0300
0000
0000
0000
0000
2001
0000
0000
0000
3000
0000
0000
0000
0000
0000
0000
0000
0200
0300
0000
0000
0000
0000
,
0021
0030
0000
0000
0000
0000
2100
3000
0000
0000
0000
0000
1020
0030
0000
0000
0000
0000
0102
0003
0000
0000
0000
0000
1000
0000
0000
0000
0000
0000
0020
0030
0000
0000
0000
0000
0201
0300
0000
0000
0000
0000
2000
3000
0000
0000
0000
0000
,
0201
0300
0000
0000
0000
0000
0020
0030
0000
0100
0000
0000
2000
3000
0000
0000
0000
0000
0012
0003
0000
0000
0000
0000
0000
0000
0000
0000
0000
0000
0020
0030
0000
0001
0000
0000
1200
0300
0000
0000
0000
0000
0012
0003
0000
0000
0000
0000
,
0200
0000
0000
0000
0300
0000
0000
0000
0000
0000
0000
0000
0000
0000
0000
0000
0000
0000
0000
0000
0000
0000
0000
0000
2001
0000
0000
0000
3000
0000
0000
0000
0000
0000
0000
0000
0010
0000
0000
0000
0000
0000
0000
0000
0000
0000
0000
0000
0100
0000
0000
0000
0000
0000
0000
0000
0000
0000
0000
0000
0000
0000
0000
0000
0000
0000
0000
0000
0000
0010
0000
0000
0002
0000
0000
0000
0000
0000
0000
0000
0000
0000
0000
0000
0000
0000
0000
0003
0000
0000
0000
0000
0000
0000
0000
0000
1000
0000
0000
0000
0000
0000
0000
0000
0000
0000
0000
0000
0000
0000
0000
0000
0000
0000
0000
0000
0000
0000
0000
0000
0021
0000
0000
0000
0030
0000
0000
0000
0000
0000
0000
0000
0200
0000
0000
0000
0300
0000
0000
0000
0000
0000
0000
0000
2000
0000
0000
0000
3000
0000
0000
0000
0000
0000
0000
0000
0000
0000
0000
0000
0000
0000
0000
0000
0000
0000
0000
0000
0021
0000
0000
0000
0030
0000
0000
0000
0000
0000
0000
0000
0000
0000
0000
0000
0000
0000
0000
0000
0000
0000
0000
0000
,
0200
0300
0000
0000
0000
0000
1002
0000
0000
0000
0000
0003
0000
0000
0000
0000
0000
0000
2010
3000
0000
0000
0000
0000
0201
0300
0000
0000
0000
0000
0012
0003
0000
0000
0000
0000
0120
0030
0000
0000
0000
0000
1200
0300
0000
0000
0000
0000
,
0121
0030
0000
0000
0000
0000
2000
3000
0000
0000
0000
0000
0012
0003
0000
0000
0000
0000
0210
0000
0000
0000
0000
0000
0300
0000
0000
0000
0000
0000
2010
3000
0000
0000
0000
0000
0200
0300
0000
1000
0000
0000
0020
0000
0000
0000
0000
0000
,
0131
0000
0000
0000
0000
0000
2100
3000
0000
0000
0000
0000
0021
0030
0000
1000
0000
0000
0200
0300
0000
1000
0000
0000
0021
0030
0000
0000
0000
0000
0200
0300
0000
0000
0000
0000
2011
0000
0000
0000
0000
0000
0000
0000
0000
3000
0000
0000
,
0010
1101
0000
1000
1000
0000
1000
0000
,
1100
1000
1011
0000
1101
0000
1000
0111
,
0000
1100
1001
0000
1011
0000
1000
1110
,
0000
1000
1000
0000
1000
0000
1100
1000
,
1011
0000
0000
0000
1101
0000
0000
0000
0010
0001
1110
0000
0000
0000
0110
0000
,
1100
0000
0010
0100
1012
0000
0000
0000
0000
0000
0000
0000
0000
0000
0000
0000
,
0000
0003
0010
0100
0010
0001
2000
0000
,
0000
0000
3000
0000
0000
0100
0010
0001
,
0001
0100
2000
0000
3000
0000
0000
1000
,
0100
0001
0010
0100
1000
0010
0100
1000
,
0100
0000
0000
0000
0000
0000
0000
0000
0000
0000
0000
0000
0000
0000
0000
0000
0000
0000
0000
0000
0000
0000
0000
0000
0010
0000
0000
0001
0000
0000
0000
0000
0000
0000
0000
0000
0000
0000
0000
0000
0000
0000
0000
0000
0000
0000
0000
0000
0100
0000
0000
0000
0000
0000
0000
0000
0000
0000
0000
0000
0000
0000
0000
0000
0000
0000
0000
0000
0000
0000
0000
0000
1000
0000
0000
0000
0000
0000
0000
0000
0000
0000
0000
0000
0000
0000
0000
0000
0000
0000
0000
0000
0000
0000
0000
0000
0010
0000
0000
0000
0000
0000
0000
0000
0000
0000
0000
0000
0000
0000
0000
0000
0000
0000
0000
0000
0000
0000
0000
0000
0100
0000
0000
0000
0000
0000
0000
0000
0000
0000
0000
0000
0000
0000
0000
0000
0000
0000
0000
0000
1000
0000
0000
0000
0112
0000
0000
0000
0000
0000
0000
0000
0000
0000
0000
0000
0000
0000
0000
0000
0000
0000
0000
0000
0000
0000
0000
0000
0003
0000
0000
0000
0000
0000
0000
0000
0000
0000
0000
0000
0000
0000
0000
0000
0000
0000
0000
0000
0000
0000
0000
0000
,
0011
0000
2000
0000
3010
0000
0110
0000
1000
0000
1100
0000
0011
0000
0100
1000
,
0101
0000
0010
0000
1010
0000
0100
0010
1100
0000
0010
0000
0100
0000
1011
0000
,
1000
0000
0100
0010
1102
0000
0003
0000
0210
0000
0301
0000
1010
0000
2000
0000
,
3001
0000
0011
0000
0100
0000
1001
0000
0101
0000
0010
0100
1001
0000
0100
0000
,
0011
0000
1100
0000
0010
0000
0101
0000
1001
0000
0120
0000
0030
0000
0001
0010
,
1200
0000
0300
0000
2012
3003
0100
0000
1010
0000
0012
0000
0103
0000
1010
0000
,
0100
0000
0101
0000
1001
0000
0010
0100
0011
0000
1000
0000
0110
0000
0001
0010
,
1101
0000
0100
0000
0010
0000
1201
0000
0300
0000
1000
0100
0021
0000
0030
0000
,
1102
0000
0000
0013
0000
0000
1010
0000
0000
0200
0000
0300
1000
0000
0000
0011
0000
0000
0100
0000
0000
0011
0000
0000
,
0110
0000
0000
0000
0000
0000
0000
0000
0000
0000
0000
0000
0000
0000
0000
0000
0000
0000
0000
0000
0000
0001
0000
0000
0000
0000
0000
0000
0000
0000
0000
0000
0000
0010
0000
0000
0000
0000
0000
0000
0000
0000
0000
0000
0000
0000
0000
0000
1100
0000
0000
0000
0000
0000
0000
0000
0000
0000
0000
0000
0000
0000
0000
0000
0000
0000
0000
0000
0000
0000
0000
0000
1000
0000
0000
0000
0000
0000
0000
0000
0000
0000
0000
0000
0000
0000
0000
0000
0000
0000
0000
0000
0000
0000
0000
0000
0120
0000
0000
0000
0030
0000
0000
0000
0000
0000
0000
0000
0000
0000
0000
0000
0000
0000
0000
0000
0000
0000
0000
0000
1201
0000
0000
0000
0300
0000
0000
0000
0000
0000
0000
0000
0000
0000
0000
0000
0000
0000
0000
0000
0000
0000
0000
0000
0000
0000
0000
0000
0000
0000
0000
0000
0000
0000
0000
0000
0000
0000
0000
0000
0000
0000
0000
0000
0000
0000
0000
0000
0212
0000
0000
0000
0300
0000
0000
0000
0003
0000
0000
0000
0000
0000
0000
0000
0000
0000
0000
0000
0000
0000
0000
0000
,
0000
0000
0001
0010
0001
0010
0100
1000
0001
1000
0100
0010
1101
0000
0000
0000
,
1020
0030
0000
0000
0100
0000
0000
0000
0001
0000
0000
0000
0110
0000
0000
0000
1000
0000
0000
0000
0110
0000
0000
0000
2010
3000
0000
0000
0100
0000
1000
0000
,
0011
0000
0000
0000
0000
0000
0000
0000
0110
0000
0000
0000
1000
0000
0100
0000
1020
0030
0000
0000
0001
0000
0000
0000
0010
0000
0000
0000
0102
0003
0000
0000
,
0000
0000
0000
0000
1000
0000
0010
0000
0102
0003
0000
0000
0000
0000
0000
0000
1010
0000
0000
0000
0100
0000
0000
0000
0012
0003
0000
0000
0110
0000
0000
0000
,
1000
0000
0000
0000
0110
0000
0000
0000
1000
0000
0000
0000
0101
0000
0000
0000
0021
0030
0000
0000
0100
0000
0001
0000
1010
0000
0000
0000
0000
0000
0000
0000
,
0011
0000
0000
0000
0101
0000
0010
0000
2000
3000
0010
0000
0100
0000
0000
0000
1010
0000
0000
0000
0021
0030
0000
0000
0000
0000
0000
0000
0101
0000
0000
0000
,
1020
0000
0000
0000
0000
0000
0030
0000
0000
0000
0000
0000
0000
0000
0000
0000
0000
0000
0000
0000
0000
0000
0000
0000
0101
0000
0000
0000
0000
0000
0000
0000
0000
0000
0000
0000
0000
0000
0000
0000
0000
0000
0000
0000
0000
0000
0000
0000
1120
0000
0000
0000
0032
0000
0000
0000
0000
0000
0000
0000
0000
0000
0000
0000
0000
0000
0000
0000
0000
0000
0000
0000
0003
0000
0000
0000
0000
0000
0000
0000
0000
0000
0000
0000
0000
0000
0000
0000
0000
0000
0000
0000
0000
0000
0000
0000
0011
0000
0000
0000
0000
0000
0000
0000
0000
0000
0000
0000
0000
0000
0000
0000
0000
0000
0000
0000
0000
0000
0000
0000
2001
0000
0000
0000
3200
0000
0000
0000
0000
0000
0000
0000
0000
0000
0000
0000
0000
0000
0000
0000
0000
0000
0000
0000
0310
0000
0000
0000
0000
0000
0000
0000
0000
0000
0000
0000
0000
0000
0000
0000
0000
0000
0000
0000
0000
0000
0000
0000
1100
0000
0000
0000
0000
0000
0000
0000
0000
0000
0000
0000
0000
0000
0000
0000
0000
0000
0000
0000
0000
0000
0000
0000
,
0010
0000
0000
0000
0000
0000
0000
0000
0100
0000
0000
0000
0000
0000
0000
0000
2001
0000
3000
0000
0000
0000
0000
0000
0010
0000
0000
0000
0001
0000
0000
0000
1100
0000
0000
0000
0000
0000
0000
0000
0100
0000
0010
0000
0000
0001
0000
0000
1010
0000
0000
0000
0000
0000
0000
0000
0100
0000
0000
0000
0000
0000
0000
0000
,
0012
0003
0000
0000
1000
0000
0000
0000
0101
0000
0000
0000
0210
0300
0000
0000
0000
0000
0000
0000
0110
0000
1000
0000
0201
0300
0000
0000
0000
0000
0000
0000
,
0110
0000
0000
0000
1000
0000
0000
0000
0120
0030
0000
0000
1001
0000
0000
0000
0010
0000
0000
0000
1100
0000
0000
0000
0001
0000
0000
0000
1100
0000
0000
0000
,
0102
0003
0000
0000
0010
0000
0001
0000
1100
0000
0000
0000
0010
0000
0000
0000
1101
0000
0000
0000
0110
0000
0000
0000
0101
0000
0010
0000
0001
0000
0010
0000
,
0100
0001
0100
0001
0010
0100
0010
0100
1001
0100
1000
0100
1012
0000
0100
0000
,
1000
0100
0000
0010
1000
0100
1000
0010
,
0100
0100
1013
0100
0010
0101
0010
0100
,
1020
0000
0000
0000
1000
0100
2031
0000
0000
0000
0000
0000
3011
0000
0100
0000
,
1001
0000
0100
0000
0011
0000
0110
0000
1000
0000
0101
0000
0010
0000
1001
0100
,
0011
1100
1001
0100
0010
1001
1010
0100
,
1011
0000
0000
0000
0001
0010
1000
0100
0001
0010
1000
0100
0001
0010
1000
0100
,
2021
0000
0000
0000
0000
0000
3000
0000
0030
0000
0000
0000
2021
0000
0000
3000
0030
0000
0000
0000
M01M
0000
0000
0000
2201
0000
0000
3000
0300
0000
0000
0000
,
2021
0000
0000
3000
0030
0000
0000
0000
1000
0000
0000
0000
0000
0000
0000
0000
1000
0000
0000
0000
1000
0000
0000
0000
1000
0000
0000
0000
0100
0000
0000
0000
,
0100
0000
0000
0000
0000
0000
0000
0000
0001
0000
0000
0000
0000
0000
0000
0000
0100
0000
0000
0000
0000
0000
0000
0000
1100
0000
0000
0000
0000
0000
0000
0000
0100
0001
0000
0000
0000
0000
0000
0000
0110
0000
0000
0000
0000
0000
0000
0000
2021
0000
0000
0000
0000
0000
0000
0000
0000
0000
0000
0000
3000
0000
0000
0000
,
0030
0000
0000
0000
2021
0000
0000
3000
0030
0000
0000
0000
M01M
0000
0000
0000
2201
0000
0000
3000
0300
0000
0000
0000
2021
0000
0000
3000
0030
0000
0000
0000
,
1000
0000
1000
1000
1000
0100
0M00
1000
,
0010
1001
1001
1001
1021
0000
0030
1020
,
0131
0010
1200
0300
1020
0030
1100
0000
,
0011
0000
0110
1000
0001
0110
1000
0021
,
0001
0031
1021
0000
0030
1020
0131
0010
,
1200
0300
1020
0030
1100
0000
0011
0000
,
0110
1000
0100
0011
0110
1100
1010
0110
,
2102
0000
0000
3000
0003
0000
2102
0000
0000
3003
0000
0000
0101
0000
1000
0000
,
0110
0001
0020
0000
1000
0000
0101
0000
,
1030
0000
0102
0000
0000
0000
0103
1000
0101
0000
0010
0000
1202
0000
0000
0300
,
0003
0000
2021
0000
0000
3000
0030
0000
1100
0000
0001
0000
1010
0000
0100
0000
,
0010
0100
1010
0100
1001
0100
1010
0210
,
0000
0000
0000
0000
0000
0000
0000
0000
0301
0000
0000
0000
0000
0000
0000
0000
0010
0000
0000
0000
0000
0000
0000
0000
0100
0000
0000
0000
0000
0000
0000
0000
1021
0000
0000
0000
0000
0000
0000
0000
0030
0000
0000
0000
0000
0000
0000
0000
1010
0000
0000
0000
0000
0000
0000
0000
0101
0020
0000
0000
0000
0000
0000
0000
,
0000
0100
0230
0000
0011
0000
1310
0010
,
1001
0000
0100
0000
0011
0000
0100
0000
1001
0000
0110
0000
0000
0000
0010
0001
,
1010
0100
1002
0000
1013
0011
0000
0110
,
0110
0000
0000
0000
1000
0000
0000
0000
0101
0000
0000
0000
0010
0000
0000
0000
1100
0000
0000
0001
0100
0000
0000
0000
1010
0000
0000
0000
0020
0000
0000
0000
,
1001
0000
0130
0000
1010
0000
0101
0000
0000
0000
0200
1000
0011
0000
0000
0000
,
1311
0000
0110
1001
0100
1010
1010
0100
,
0011
0100
1002
1000
0113
0020
1001
0130
,
1001
0000
0011
0000
0100
0000
0010
1000
0101
0000
1000
0000
0021
0000
0000
0000
,
1000
0132
0000
0100
0203
0000
0011
0300
,
1010
0000
0000
0000
0000
0000
0000
0000
0000
0000
0000
0000
0000
0000
0000
0000
0000
0000
0000
0000
0000
0000
0000
0000
0010
0000
0000
0000
0000
0000
0000
0000
0000
0000
0000
0000
0000
0000
0000
0000
0000
0000
0000
0000
0000
0000
0000
0000
0000
0000
0000
0000
1000
0000
0000
0000
0000
0000
0000
0000
0100
0000
0000
0000
0000
0000
0000
0000
0010
0000
0000
0000
0000
0000
0000
0000
0001
0000
0000
0000
0000
0000
0000
0000
0000
0000
0000
0000
0000
0000
0000
0000
0000
0000
0000
0000
0010
0000
0000
0000
0000
0000
0000
0000
0000
0000
0000
0000
0100
0000
0000
0000
0000
0000
0000
0000
0000
0001
0000
0000
0000
0000
0000
0010
0000
0000
0000
0000
0000
0100
0000
0000
0000
0000
0000
1000
0000
0000
0000
0000
0000
0020
0000
0000
0000
0000
0000
0000
0000
0000
0000
0000
0000
0000
0000
0000
0100
0000
0000
0000
0000
0000
0000
0000
0000
0000
0000
0000
1001
0000
0000
0000
0000
0000
0000
0000
0000
0000
0000
0000
0000
0000
0000
0000
0000
0000
0000
0000
0000
0000
0000
0000
,
0030
1000
0100
0010
0001
0010
0100
0000
1011
0000
0100
1000
0100
0010
0001
0010
,
0100
1000
0010
0100
1000
0100
0010
0100
0010
0001
0010
0100
0010
0100
1000
0100
,
0010
0001
0010
0100
0010
0100
1000
0100
0001
0100
0010
0100
0001
0100
0010
0100
,
0010
0000
0000
0000
1000
0000
0000
0000
0010
0000
0000
0000
1000
0000
0000
0000
0010
0000
0000
0000
0100
0000
0000
1000
0000
0000
0100
0000
0000
0010
0000
0000
0000
0000
0000
0000
0001
0000
0000
0000
0000
0000
0010
0000
0000
0100
0000
0000
1000
0000
0000
0100
0000
0000
0010
0000
0000
0001
0000
0000
0000
0010
0000
0000
,
0000
0000
0000
0100
0000
0000
0000
0000
0000
0000
0000
0000
0000
0000
0000
1000
0000
0000
0000
0000
0000
0000
0000
0000
0010
0000
0000
0000
0000
0000
0000
0000
0000
0100
0000
0000
0000
0000
0000
0000
0000
0000
0001
0000
0000
0000
0000
0000
0000
0000
0000
0000
0010
0000
0000
0000
0000
0000
0000
0000
0000
0000
0000
0100
0000
0000
0000
0000
0000
0000
0000
0000
1000
0000
0000
0000
0000
0000
0000
0000
0000
0100
0000
0000
0000
0000
0000
0000
0010
0000
0000
0000
0000
0000
0000
0000
0001
0000
0000
0000
0000
0000
0000
0000
0000
0000
0000
0000
0010
0000
0000
0000
0000
0000
0000
0000
0000
0000
0000
0000
0100
0000
0000
0000
0000
0000
0000
0000
0000
0000
0000
0000
0010
0000
0000
0000
0000
0000
0000
0000
0000
0000
0000
0000
0100
0000
0000
0000
0000
0000
0000
0000
0000
0000
0000
0000
0010
0000
0000
0000
0000
0000
0000
0000
0000
0000
0000
0000
0100
0000
0000
0000
0000
0000
0000
0000
0000
0000
0000
0000
1000
0000
0000
0000
0000
0000
0000
0000
0000
0000
0000
0000
,
0100
0000
0000
1000
0000
0000
0100
0000
0000
0010
0000
0000
0100
0000
0000
0010
0000
0000
0002
0000
0000
0000
0000
0000
0000
0000
0000
0000
0000
0000
1003
0000
0100
0000
0010
0000
0001
0000
0000
0010
0000
0000
1000
0000
0000
0000
0000
0000
,
0111
0000
0000
0000
0000
0000
0000
0000
0000
0000
0000
0000
0000
0000
0000
0000
0000
0000
0000
0000
0000
0000
0000
0000
1000
0000
0000
0000
0000
0000
0000
0000
0000
0000
0000
0000
0100
0000
0000
0000
0000
0000
0000
0000
0000
0000
0000
0000
0010
0000
0000
0000
0000
0000
0000
0000
0000
0100
0000
0000
0000
0000
0000
0000
0000
0000
1000
0000
0000
0000
0000
0000
0000
0000
0000
0100
0000
0000
0000
0000
0000
0010
0000
0000
0000
0000
0000
0002
0000
0000
0000
0000
0000
0000
0000
0000
0000
0000
0000
0000
0000
0000
0000
0000
0000
0000
0000
0000
0000
0000
0000
0000
0000
0000
0000
0000
0000
0003
0000
0000
0000
0000
0000
0000
0000
0000
0000
0000
0000
0000
0000
0000
0000
0000
0000
0000
0000
0000
0000
0000
0000
0000
0000
0000
0001
0000
0000
0000
0000
0000
0000
0000
0010
0000
0000
0000
0000
0000
0000
0000
0100
0000
0000
0000
0000
0000
0000
0000
0000
0000
0000
0000
0010
0000
0000
0000
0000
0000
0000
0000
0000
0000
0000
0000
0000
0000
0000
0000
0000
0000
0000
0000
,
0000
0000
0000
0000
0000
0000
0000
0000
1000
0000
0000
0000
0000
0000
0000
0000
0000
0000
0000
0000
0000
0000
0000
0000
0010
0000
0000
0000
0000
0000
0000
0000
0000
0000
0000
0000
0000
0000
0000
0000
0000
0000
0000
0000
0000
0000
0000
0000
0002
0000
0000
0000
0000
0000
0000
0000
0000
0000
0000
0000
0000
0000
0000
0000
0000
0000
0000
0000
0000
0000
0000
0000
0000
0000
0000
0000
0003
0000
0000
0000
0000
0000
0000
0000
0000
0000
0000
0000
0000
0000
0000
0000
0000
0000
0000
0000
0100
0000
0000
0000
0000
0000
0010
0000
0000
0000
0000
0000
0000
0000
0000
0000
0000
0000
0000
0000
0000
0000
0000
0000
2000
0000
0000
0000
0000
0000
0000
0000
0000
0000
0000
0000
0000
0000
0000
0000
0000
0000
0000
0000
0000
0000
0000
0000
0000
0000
0000
0000
0000
0000
0000
0000
0000
0000
0000
0000
0000
0000
0000
0000
0000
0000
0000
0000
0000
0000
0000
0000
0000
0000
0000
0000
0000
0000
0000
0000
0000
0000
0000
0000
0000
0000
0000
0000
0000
0000
0000
0000
0000
0000
0000
0000
,
3000
1000
0100
0010
0100
0010
0002
0000
,
0000
0000
0000
0000
0000
0000
0000
0000
0000
0000
0000
0000
0000
0000
0000
0000
0000
0000
0000
0000
0000
0000
0000
0000
0000
0000
0000
0000
0000
0000
0000
0000
0000
0000
0000
0000
0000
0000
0000
0000
0000
0000
0000
0000
0000
0000
0000
0000
0000
0000
0000
0000
0000
0000
0000
0000
0000
0000
0000
0000
0000
0000
0000
0000
0000
0000
0000
0000
0000
0000
0000
0000
0000
0000
0000
0000
0000
0000
0000
0000
0000
0000
0000
0000
0000
0000
0000
0000
0000
0000
0000
0000
0000
0000
0000
0000
0003
0000
0000
0000
0000
0000
0000
0000
0000
0000
0000
0000
0000
0000
0000
0000
1000
0000
0000
0000
0000
0000
0000
0000
0000
0000
0000
0000
0000
0000
0000
0000
0000
0100
0000
0000
0000
0000
0000
0000
0000
0000
1000
0000
0000
0000
0000
0000
0000
0000
0000
0000
0000
0000
0010
0000
0000
0000
0000
0000
0000
0000
0000
0000
0000
0000
0000
0000
0000
0000
0000
0000
0001
0000
0000
0000
0000
0000
0000
0000
0000
0000
0000
0000
0000
0000
0000
0000
0000
0000
0000
0000
0000
0000
0000
0000
,
0001
0000
0000
0000
0000
0000
0000
0000
0000
0000
0000
0000
0010
0000
0000
0000
0000
0000
0000
0000
0000
0000
0000
0000
0100
0000
0000
0000
0000
0000
0000
0000
0000
0000
0000
0000
1000
0000
0000
0000
0000
0000
0000
0000
0000
0000
0000
0000
0100
0000
0000
0000
0000
0000
0000
0000
0000
0000
0000
0000
0010
0000
0000
0000
0000
0000
0000
0000
0000
0000
0000
0000
0001
0000
0000
0000
0000
0000
0010
0000
0000
0000
0000
0000
0000
0000
0000
0001
0000
0000
0000
0000
0000
0000
0000
0000
0000
0000
0000
0010
0000
0000
0000
0000
0000
0000
0000
0000
0100
0000
0000
0000
0000
0000
0000
0000
0000
1000
0000
0000
0000
0000
0000
0000
0100
0000
0000
0000
0000
0000
0000
0000
0010
0000
0000
0000
0000
0000
0000
0000
0000
0000
0000
0000
0000
0000
0000
0000
0100
0000
0000
0000
0000
0000
0000
0000
0000
0000
0000
0000
0000
0000
0000
0000
0000
0000
0000
0000
0001
0000
0000
0000
0000
0000
0000
0000
0010
0000
0000
0000
0000
0000
0000
0000
0100
0000
0000
0000
0000
0000
0000
0000
,
1000
0000
0000
0000
0100
0000
0000
0000
0010
0000
0000
1000
0000
0000
0100
0000
0000
0010
0000
0000
0100
0000
0001
0000
0000
0010
0000
0000
0100
0000
0000
0000
2011
0000
0000
0000
0000
0000
0000
0000
0000
0000
0000
0000
0000
0000
0000
0000
0000
0000
0000
0000
0000
0000
0000
0000
0000
0000
0000
0000
0000
0000
0000
0000
,
0000
0000
0002
0000
,
0000
0000
0000
0000
,
3000
0000
1013
0001
1100
0101
0000
1000
,
0100
0000
0000
0000
0000
0000
0010
0001
0000
0000
0000
0000
1000
0000
0000
0000
0000
0000
0100
0000
0000
0000
0000
0000
1000
0000
0000
0000
0000
0000
0010
0000
0000
0000
0000
0000
0100
0001
0000
0000
0000
0000
0010
0000
0000
0000
0000
0000
,
1000
0110
1000
0100
0011
0100
0000
0100
,
0001
0010
1000
0100
0010
0001
0000
0000
,
1100
0000
1010
0000
1000
0101
0000
0001
,
1000
0110
1000
0000
0001
1010
0000
0100
,
0000
0000
0000
0100
0000
0010
0100
0000
0000
0010
0000
0000
1000
0000
0000
0100
0000
0000
1001
0000
0000
0100
0000
0000
,
0010
0000
0100
0001
0100
0001
0010
1000
0010
1000
0001
0100
0001
0100
1000
0010
,
1001
0000
0000
0000
0000
0000
0000
0000
0000
0000
0000
0000
0000
0000
0000
0000
0000
0000
0000
0000
0000
0000
0000
0000
2202
0000
0000
0000
0000
0000
0300
0000
0000
0000
0000
0000
3000
0000
0000
0000
0000
0000
0000
0000
0000
0000
0000
0000
0000
0000
0000
0000
0000
0000
0000
0000
0000
0000
0000
0000
0003
0000
0000
0000
0000
0000
0000
0000
0000
0000
0000
0000
0000
0000
0000
0000
0000
0000
0000
0000
0000
0000
0000
0000
0000
0000
0000
0000
0000
0000
0000
0000
0000
0000
0000
0000
2001
0000
0000
0000
3000
0000
0000
0000
0000
0000
0000
0000
0000
0000
0000
0000
0000
0000
0000
0000
0000
0000
0000
0000
0200
0000
0000
0000
0300
0000
0000
0000
0000
0000
0000
0000
0000
0000
0000
0000
0000
0000
0000
0000
0000
0000
0000
0000
0011
0000
0000
0000
0000
0000
0000
0000
0000
0000
0000
0000
0000
0000
0000
0000
0000
0000
0000
0000
0000
0000
0000
0000
2000
0000
0000
0000
3000
0000
0000
0000
0000
0000
0000
0000
0000
0000
0000
0000
0000
0000
0000
0000
0000
0000
0000
0000
,
0020
0030
0000
0000
0000
0000
2102
0000
0000
3000
0000
0000
0000
0000
0000
0003
0000
0000
0000
0000
0000
0000
0000
0000
0011
0000
0000
0000
0000
0000
2000
3000
0000
0200
0300
0000
0021
0030
0000
0000
0000
0000
0002
0003
0000
0000
0000
0000
,
1020
0030
0000
0000
0000
0000
2201
0000
0000
3000
0000
0000
0000
0000
0000
0300
0000
0000
0000
0000
0000
0000
0000
0000
1002
0003
0000
0000
0000
0000
0200
0300
0000
0000
0000
0000
2001
3000
0000
0000
0000
0000
0001
0000
0000
0000
0000
0000
,
1020
0000
0000
0000
0030
0000
0000
0000
0000
0000
0000
0000
0000
0000
0000
0000
0000
0000
0000
0000
0000
0000
0000
0000
2100
0000
0000
0000
0000
0000
0002
0000
0000
0000
0000
0000
3000
0000
0000
0000
0000
0000
0000
0000
0000
0000
0000
0000
0003
0000
0000
0000
0000
0000
0000
0000
0000
0000
0000
0000
0000
0000
0000
0000
0000
0000
0000
0000
0000
0000
0000
0000
0002
0000
0000
0000
0000
0000
0003
0000
0000
0000
0000
0000
0000
0000
0000
0000
0000
0000
0000
0000
0000
0000
0000
0000
2020
0000
0000
0000
0000
0000
0030
0000
0000
0000
0000
0000
0000
0000
0000
0000
0000
0000
0000
0000
0000
0000
0000
0000
0200
0000
0000
0000
0000
0000
0300
0000
0000
0000
0000
0000
0000
0000
0000
0000
0000
0000
0000
0000
0000
0000
0000
0000
0001
0000
0000
0000
0000
0000
3000
0000
0000
0000
0000
0000
0000
0000
0000
0000
0000
0000
0000
0000
0000
0000
0000
0000
1000
0000
0000
0000
0000
0000
0000
0000
0000
0000
0000
0000
0000
0000
0000
0000
0000
0000
0000
0000
0000
0000
0000
0000
,
0011
0000
0000
0000
0000
0000
0000
0000
0000
0000
0000
0000
2120
3030
0000
0000
0000
0000
0002
0003
0000
0000
0000
0000
0120
0030
0000
0000
0000
0000
0201
0300
0000
0000
0000
0000
2000
3000
0000
0000
0000
0000
0120
0030
0000
0000
0000
0000
,
0200
0300
0000
0000
0000
0000
2001
0000
0000
0000
3000
0000
0000
0000
0000
0000
0000
0000
0200
0300
0000
0000
0000
0000
0021
0030
0000
0000
0000
0000
2100
3000
0000
0000
0000
0000
1020
0030
0000
0000
0000
0000
0102
0003
0000
0000
0000
0000
,
1000
0000
0000
0000
0000
0000
0020
0030
0000
0000
0000
0000
0201
0300
0000
0000
0000
0000
2000
3000
0000
0000
0000
0000
0201
0300
0000
0000
0000
0000
0020
0030
0000
0100
0000
0000
2000
3000
0000
0000
0000
0000
0012
0003
0000
0000
0000
0000
,
0000
0000
0000
0000
0000
0000
0000
0000
0000
0000
0000
0000
0000
0000
0000
0000
0000
0000
0000
0000
0000
0000
0000
0000
0020
0000
0000
0000
0030
0000
0000
0000
0000
0000
0000
0000
0001
0000
0000
0000
0000
0000
0000
0000
0000
0000
0000
0000
1200
0000
0000
0000
0300
0000
0000
0000
0000
0000
0000
0000
0000
0000
0000
0000
0000
0000
0000
0000
0000
0000
0000
0000
0012
0000
0000
0000
0003
0000
0000
0000
0000
0000
0000
0000
0000
0000
0000
0000
0000
0000
0000
0000
0000
0000
0000
0000
0200
0000
0000
0000
0300
0000
0000
0000
0000
0000
0000
0000
0000
0000
0000
0000
0000
0000
0000
0000
0000
0000
0000
0000
2001
0000
0000
0000
3000
0000
0000
0000
0000
0000
0000
0000
0010
0000
0000
0000
0000
0000
0000
0000
0000
0000
0000
0000
0100
0000
0000
0000
0000
0000
0000
0000
0000
0000
0000
0000
0000
0000
0000
0000
0000
0000
0000
0000
0000
0010
0000
0000
0002
0000
0000
0000
0000
0000
0000
0000
0000
0000
0000
0000
0000
0000
0000
0003
0000
0000
0000
0000
0000
0000
0000
0000
,
1000
0000
0000
0000
0000
0000
0021
0030
0000
0200
0300
0000
2000
3000
0000
0000
0000
0000
0021
0030
0000
0000
0000
0000
0200
0300
0000
0000
0000
0000
1002
0000
0000
0000
0000
0003
0000
0000
0000
0000
0000
0000
2010
3000
0000
0000
0000
0000
,
0201
0300
0000
0000
0000
0000
0012
0003
0000
0000
0000
0000
0120
0030
0000
0000
0000
0000
1200
0300
0000
0000
0000
0000
0121
0030
0000
0000
0000
0000
2000
3000
0000
0000
0000
0000
0012
0003
0000
0000
0000
0000
0210
0000
0000
0000
0000
0000
,
0300
0000
0000
0000
0000
0000
2010
3000
0000
0000
0000
0000
0200
0300
0000
1000
0000
0000
0020
0000
0000
0000
0000
0000
0131
0000
0000
0000
0000
0000
2100
3000
0000
0000
0000
0000
0021
0030
0000
1000
0000
0000
0200
0300
0000
1000
0000
0000
,
0021
0030
0000
0000
0000
0000
0200
0300
0000
0000
0000
0000
1021
0000
0000
0000
0000
0000
0000
0000
0000
0000
0000
0000
0030
0000
0000
0000
0000
0000
0121
0000
0000
0000
0000
0000
0000
0000
0000
0000
0000
0000
0130
0000
0000
0000
0000
0000
,
1021
0030
1120
0030
0000
1001
1100
1001
,
0101
0000
1011
0000
0000
0000
1002
0000
0003
0000
0101
0010
1102
0000
0003
0000
,
1021
0000
0030
0121
0000
0130
1021
0030
,
1120
0000
0000
0000
0000
0000
0000
0000
0000
0000
0000
0000
0000
0000
0000
0000
0000
0000
0000
0000
0000
0000
0000
0000
0030
0000
0000
0000
0000
0000
0000
0000
0000
0000
0000
0000
0000
0000
0000
0000
0000
0000
0000
0000
0000
0000
0000
0000
1001
0000
0000
0000
0000
0000
0000
0000
0000
0000
0000
0000
0000
0000
0000
0000
0000
0000
0000
0000
0000
0000
0000
0000
0000
0000
0000
0000
0000
0000
0000
0000
0000
0000
0000
0000
0000
0000
0000
0000
1000
0000
0000
0000
0100
0000
0000
0000
0011
0000
0000
0000
0000
0000
0000
0000
0000
0000
0000
0000
0000
0000
0000
0000
0000
0000
0000
0000
0000
0000
0000
0000
0100
0000
0000
0000
0000
0000
0000
0000
0000
0000
0000
0000
1000
0000
0000
0000
0000
0000
0000
0000
0000
0000
0000
0000
0011
0000
0000
0000
0000
0000
0000
0000
0000
0000
0000
0000
0000
0000
0000
0000
0000
0000
0000
0000
0000
0000
0000
0000
2000
0000
0000
0000
0000
0000
3000
0000
0000
0000
0000
0000
0000
0000
0000
0000
0000
0000
0000
0000
0000
0000
0000
0000
,
0100
0000
0000
0000
0000
0010
0000
0000
2000
0000
3001
0000
0000
0000
0000
0000
0000
0000
0000
0000
0000
0000
0000
0000
0110
0000
0000
0000
0000
0000
0000
0000
1001
0000
0000
0000
0000
0000
0000
0000
1001
0000
0000
0000
0000
0000
0000
0000
1021
0000
0000
0000
0000
0000
0000
0000
0000
0000
0000
0000
0000
0000
0000
0000
,
0030
0121
0000
0130
1021
0030
1120
0030
,
0000
0000
1000
0100
0011
0000
0100
0000
0001
0010
0100
1000
0100
0010
0002
0010
,
0103
1000
0100
0010
0102
0000
0003
0000
1021
0000
0000
0000
0030
0000
0121
0000
,
0000
0130
1021
0030
1120
0030
1001
0001
,
0011
0100
1000
0000
0011
0100
1000
0001
1000
0100
0010
0100
1001
1001
0100
0000
,
1011
0000
1022
0000
0030
0223
0000
0000
,
0000
0000
0000
0000
,
0000
0000
0000
0000
0000
0300
0000
0000
,
0030
0000
0000
0000
;
