#TITLE:Yang Yang;
#SUBTITLE:Anika;
#ARTIST:Anika;
#TITLETRANSLIT:;
#SUBTITLETRANSLIT:;
#ARTISTTRANSLIT:;
#CREDIT:;
#BANNER:Yang Yang BN.jpg;
#BACKGROUND:Yang Yang BG.jpg;
#LYRICSPATH:;
#CDTITLE:;
#MUSIC:Yang Yang.mp3;
#OFFSET:-0.320;
#SAMPLESTART:100.050;
#SAMPLELENGTH:12.000;
#SELECTABLE:YES;
#BPMS:0.000=99.440;
#STOPS:;
#BGCHANGES:;
// cache tags:
#FIRSTBEAT:0.000;
#LASTBEAT:284.000;
#SONGFILENAME:Songs/Fog's StupidStream Pack/[Fogfactor] Yang Yang/Yang Yang.sm;
#HASMUSIC:1;
#HASBANNER:1;
#MUSICLENGTH:173.165;
// end cache tags

//---------------dance-single - ----------------
#NOTES:
     dance-single:
     :
     Hard:
     7:
     1.000,1.000,0.012,0.000,1.000,1263.000,2.000,0.000,0.000,2.000:
1000
0000
0000
0000
0100
0000
0000
0000
1000
0000
0000
0000
0001
0000
1111
0010
,
0100
0001
0010
1000
0010
0100
0010
0001
0010
0001
0100
0001
0100
0010
0100
0010
,
0001
1000
0100
0010
1000
0100
0001
1000
0010
0100
0010
0100
,
1000
0001
0010
0001
0010
1000
0010
0001
0010
0100
0010
0100
0010
1000
0100
0001
,
0100
0010
0001
1000
0100
0001
1000
0100
0001
0010
1000
0100
,
0010
0001
1000
0100
0010
0100
0001
1000
0100
1000
0100
0001
0010
0100
1000
0010
,
0001
0000
0000
0100
0000
0000
0001
0000
0000
0010
0000
0000
0100
0000
0000
0001
0000
0000
1000
0000
0000
0100
0000
0000
1000
0000
0000
0000
0010
0000
0000
0000
1000
0000
0000
0000
0100
0000
0000
0000
1000
0000
0000
0000
0100
0000
0000
0000
,
0010
0001
0010
0001
0010
0001
0100
1000
0100
0010
0100
0001
0010
1000
0100
1000
,
0010
0000
0000
0100
0000
0000
1000
0000
0000
0100
0000
0000
0001
0000
0000
1000
0000
0000
0100
0000
0000
0010
0000
0000
1000
0000
0000
0000
0001
0000
0000
0000
1000
0000
0000
0000
0100
0000
0000
0000
0001
0000
0000
0000
0010
0000
0000
0000
,
0001
1000
0100
0001
0100
0001
1000
0001
0100
0010
0001
1000
0100
0001
0010
0001
,
1000
0000
0000
0010
0000
0000
0100
0000
0000
0010
0000
0000
1000
0000
0000
0001
0000
0000
0010
0000
0000
1000
0000
0000
0010
0000
0000
0100
0000
0000
0000
0000
0001
0000
0000
0000
0100
0000
0000
0000
0001
0000
0000
0000
1000
0000
0000
0000
,
0001
1000
0010
0001
0100
1000
0100
1000
0010
1000
0010
0001
0100
0010
0001
0010
,
1000
0000
0000
0001
0000
0000
0100
0000
0000
0010
0000
0000
0100
0000
0000
1000
0000
0000
0010
0000
0000
1000
0000
0000
0010
0000
0000
0000
0001
0000
0000
0000
0100
0000
0000
0000
0010
0000
0000
0000
0001
0000
0000
0000
0010
0000
0000
0000
,
1000
0010
1000
0001
1000
0100
0001
0010
1000
0100
1000
0100
0010
1000
0010
0100
,
0001
0010
0100
0010
1000
0100
0010
1000
0010
1000
0001
0010
,
0001
0010
0100
1000
0001
0010
0001
1000
0010
0100
1000
0100
1000
0001
0100
0001
,
1000
0010
0100
1000
0010
0100
0001
1000
0010
0100
0001
1000
,
0001
0010
0100
0001
0010
1000
0010
0100
0001
0010
0100
0001
0010
0100
0010
0001
,
0010
0000
0000
0001
0000
0000
1000
0000
0000
0100
0000
0000
0010
0000
0000
0100
0000
0000
0001
0000
0000
0010
0000
0000
0100
0000
0000
1000
0000
0000
0100
0000
1000
0000
0000
0000
0010
0000
0000
0000
1000
0000
0000
0000
0100
0000
0000
0000
,
0010
0100
1000
0100
1000
0001
0010
0001
0100
0010
1000
0010
0100
1000
0001
0100
,
0010
0000
0000
0100
0000
0000
0010
0000
0000
0001
0000
0000
0100
0000
0000
1000
0000
0000
0100
0000
0000
1000
0000
0000
0010
0000
0000
0000
0001
0000
0000
0000
1000
0000
0000
0000
1000
0000
0000
0000
0010
0000
0000
0000
0100
0000
0000
0000
,
0010
0001
0010
0100
0010
1000
0100
1000
0010
0100
1000
0001
0010
0100
0010
0100
,
0001
0000
0000
0010
0000
0000
0001
0000
0000
1000
0000
0000
0100
0000
0000
1000
0000
0000
0001
0000
0000
1000
0000
0000
0100
0000
0000
0000
0010
0000
0000
0000
0001
0000
0000
0000
1000
0000
0000
0000
1000
0000
0000
0000
0010
0000
0000
0000
,
0001
1000
0001
0010
0100
1000
0100
0010
0001
0010
1000
0001
1000
0100
0001
0010
,
0100
0000
0000
0001
0000
0000
1000
0000
0000
0001
0000
0000
0010
0000
0000
0100
0000
0000
1000
0000
0000
0010
0000
0000
0100
0000
0000
0000
0010
0000
0000
0000
1000
0000
0000
0000
0001
0000
0000
0000
0100
0000
0000
0000
0010
0000
0000
0000
,
1000
0010
0100
1000
0010
0001
0100
0010
0001
0010
1000
0001
0010
0001
0100
1000
,
0100
1000
0001
0010
0001
1000
0100
1000
0010
0100
0001
0010
,
0001
0010
0001
0100
0010
0100
1000
0010
1000
0001
0100
0010
0001
0100
1000
0100
,
0001
0100
0001
1000
0100
0010
1000
0100
0010
0001
0100
1000
,
1000
0100
1000
0100
0010
1000
0001
0100
0010
0100
0010
0001
1000
0001
0100
0010
,
0001
0000
0000
0010
0000
0000
0100
0000
0000
0001
0000
0000
0010
0000
0000
1000
0000
0000
0010
0000
0000
0100
0000
0000
0010
0000
0000
0000
0001
0000
0000
0000
0100
0000
0000
0000
0010
0000
0000
0000
1000
0000
0000
0000
0000
1000
0000
0000
,
0010
0100
0010
0100
1000
0100
0001
1000
0100
1000
0010
0001
0100
0010
0001
1000
,
0010
0000
0000
0100
0000
0000
1000
0000
0000
0100
0000
0000
0001
0000
0000
1000
0000
0000
0100
0000
0000
1000
0000
0000
0100
0000
0000
0000
0001
0000
0000
0000
0100
0000
0000
0000
0010
0000
0000
0000
1000
0000
0000
0000
0100
0000
0000
0000
,
0010
0100
0010
1000
0010
0100
1000
0100
0010
1000
0100
0001
0100
0010
0001
0100
,
0010
0000
0000
0001
0000
0000
1000
0000
0000
0001
0000
0000
1000
0000
0000
0010
0000
0000
1000
0000
0000
0010
0000
0000
0100
0000
0000
0000
0010
0000
0000
0000
1000
0000
0000
0000
0001
0000
0000
0000
0100
0000
0000
0000
0000
0010
0000
0000
,
0100
0001
0100
0001
1000
0001
1000
0001
0010
0100
0010
0001
0010
1000
0100
0010
,
0001
0000
0000
1000
0000
0000
0010
0000
0000
0100
0000
0000
1000
0000
0000
0100
0000
0000
0010
0000
0000
0100
0000
0000
0010
0000
0000
0000
0001
0000
0000
0000
0010
0000
0000
0000
0001
0000
0000
0000
0100
0000
0000
0000
0010
0000
0000
0000
,
0100
0010
1000
0001
1000
0100
1000
0010
0100
0001
0010
0001
0100
0010
0001
0010
1000
0001
1000
0010
0100
0010
0100
1000
,
0100
1000
0100
0010
0100
0001
0010
0001
0010
0100
0001
0100
0010
0001
0100
0001
0010
1000
0100
1000
0100
0010
0001
0100
,
1000
0100
0001
0010
0100
1000
0010
1000
0010
0100
0001
0100
0010
0100
1000
0100
0010
0001
0100
0010
1000
0010
0100
0010
,
0001
0010
1000
0100
1000
0100
0010
1000
0001
0100
0010
1000
0100
1000
0100
1000
0010
0100
0001
0010
0100
0001
0010
0100
,
0010
1000
0100
0001
1000
0100
0001
0010
0100
1000
0010
0100
1000
0001
0100
0010
0100
0010
0001
0100
1000
0001
0010
0100
,
1000
0010
0001
0010
0100
1000
0010
0100
1000
0100
0010
0100
0010
1000
0010
0001
0010
0100
0010
1000
0001
0100
0001
0010
,
0001
0100
1000
0001
0010
1000
0010
0001
0100
1000
0001
1000
0010
0100
0010
0001
,
0010
0000
0000
0001
0000
0000
0100
0000
0000
0010
0000
0000
0001
0000
0000
0010
0000
0000
0001
0000
0000
1000
0000
0000
0100
0000
0000
0001
0000
0000
0010
0000
0000
0100
0000
0000
0010
0000
0000
0001
0000
0000
1000
0000
0001
0000
1000
0000
,
0010
0100
0001
0100
0010
0100
0001
0010
0100
0010
0100
0001
1000
0100
0001
1000
0100
1000
0010
0100
1000
0010
0100
0001
,
0010
1000
0100
0010
1000
0100
0010
1000
0100
0010
0100
1000
0010
0100
0010
0001
,
0010
0100
1000
0100
0010
1000
0001
0010
0001
0100
1000
0010
1000
0100
0010
1000
0100
1000
0001
1000
0100
1000
0001
0010
,
0100
0010
1000
0100
0001
0010
1000
0100
0001
1000
0100
0001
0100
1000
0001
1000
,
0001
0010
0100
1000
0100
0010
1000
0100
0010
0100
0001
0100
0010
0001
0010
0001
0010
1000
0010
0001
1000
0100
0010
0001
,
0100
0001
0100
1000
0100
0010
0001
0100
1000
0001
0010
1000
0100
0001
0100
0010
,
0100
0001
0100
1000
0010
1000
0010
0100
0010
0001
0100
0001
0010
1000
0100
0001
0010
0001
0010
0100
0010
0001
0010
1000
,
0100
0001
0100
0001
1000
0001
0010
0100
0010
0100
1000
0100
1000
0100
0010
0001
,
0100
1000
0100
0010
1000
0001
0100
0010
0100
1000
0010
1000
0100
0010
0100
0010
1000
0010
0100
0001
0010
1000
0010
0001
0100
1000
0001
1000
0010
1000
0010
0100
,
0010
0100
1000
0010
0001
0100
0010
0100
0010
1000
0100
1000
0010
0100
1000
0010
1000
0010
0001
0100
0010
1000
0001
0100
0010
1000
0001
0010
1000
0100
1000
0010
,
0100
1000
0001
0010
0001
1000
0100
1000
0010
1000
0001
0010
1000
0100
1000
0100
0010
0100
0001
0100
0001
1000
0001
0010
0001
1000
0001
0010
0100
0001
1000
0001
,
0010
0001
0100
0010
0001
1000
0010
0100
0001
0010
0001
0100
0010
1000
0100
0001
0100
0001
0100
0010
0001
1000
0100
0001
1000
0100
1000
0100
0010
1000
0010
0001
,
0010
0001
0100
1000
0001
0010
0100
1000
0001
0100
0010
0001
1000
0001
0100
0010
1000
0010
0001
0100
0010
0001
1000
0100
0010
0100
0001
0010
0100
0010
1000
0001
,
0010
0000
0000
0000
0000
0000
1000
0000
0000
0000
0000
0000
0001
0000
0000
0000
0000
0000
0100
0000
0000
0000
0000
0000
0010
0000
0000
0000
0000
0000
1000
0000
0000
0000
0000
0000
0001
0000
0000
0000
0000
0000
1000
0000
0000
0000
0000
0000
0010
0000
0000
0000
0000
0000
1000
0000
0000
0000
0000
0000
0010
0000
0000
0000
0000
0000
0001
0000
0000
0000
0000
0000
0010
0000
0000
0000
0000
0000
1000
0000
0000
0000
0000
0000
0001
0000
0000
0000
0000
0000
0100
0000
0000
0000
0000
0000
1000
0000
0000
0000
0000
0000
0010
0000
0000
0000
0000
0000
0100
0000
0000
0000
0000
0000
1000
0000
0000
0000
0000
0000
0010
0000
0000
0000
0000
0000
0100
0000
0000
0000
0000
0000
0010
0000
0000
0000
0000
0000
0001
0000
0000
0000
0000
0000
0010
0000
0000
0000
0000
0000
0000
0000
1000
0000
0000
0000
0000
0000
0000
0000
0001
0000
0000
0000
0000
0000
0000
0000
0010
0000
0000
0000
0000
0000
0000
0000
0100
0000
0000
0000
0000
0000
0000
0000
1000
0000
0000
0000
0000
0000
0000
0000
,
0010
1000
0001
0010
1000
0010
0001
0010
0100
0010
1000
0010
0100
1000
0010
1000
0100
0010
0100
1000
0010
0100
0010
1000
,
0010
0001
0010
0001
1000
0010
0100
1000
0100
1000
0100
1000
0010
0100
0010
1000
0100
0001
0010
0100
1000
0010
1000
0100
,
0010
1000
0010
0100
0001
0010
0001
0100
0010
1000
0001
0100
0001
1000
0100
1000
,
0010
0100
0010
0100
0001
0010
1000
0100
0010
0001
1000
0001
0010
1000
0100
0010
,
0100
1000
0100
0010
0100
0001
0010
1000
0100
1000
0001
0010
1000
0100
1000
0010
,
0100
1000
0100
1000
0100
0010
1000
0100
0001
1000
0010
0001
0100
0001
0100
1000
,
0100
1000
0010
0100
0001
0010
0001
1000
0010
0001
1000
0010
1000
0100
1000
0100
,
0001
1000
0100
0001
0100
0001
1000
0001
0010
0001
1000
0001
0010
0100
1000
0001
,
0010
0100
0010
1000
0100
0001
0100
1000
0001
0100
1000
0001
0010
0001
0100
0010
,
0100
0010
0001
0010
1000
0001
1000
0010
0100
0001
1000
0001
0010
1000
0001
0010
,
0100
0001
0010
0001
1000
0010
0100
1000
0010
1000
0010
0001
,
0010
1000
0010
0100
0001
0010
0001
1000
0001
0010
0001
0010
,
1111
0000
0000
0000
;
