#TITLE:Palace Theme;
#SUBTITLE:Zelda II;
#ARTIST:近藤浩治;
#TITLETRANSLIT:;
#SUBTITLETRANSLIT:;
#ARTISTTRANSLIT:Koji Kondo;
#CREDIT:;
#BANNER:bn.PNG;
#BACKGROUND:bg.PNG;
#LYRICSPATH:;
#CDTITLE:rr-ddr-v2.PNG;
#MUSIC:zelda2_palast.mp3;
#OFFSET:-3.320;
#SAMPLESTART:8.120;
#SAMPLELENGTH:16.300;
#SELECTABLE:YES;
#BPMS:0.000=150.010;
#STOPS:59.000=0.400
,218.000=0.400
,281.000=0.400
;
#BGCHANGES:;
// cache tags:
#FIRSTBEAT:0.000;
#LASTBEAT:420.000;
#SONGFILENAME:Songs/mike songs/Palace - Zelda 2/palace.sm;
#HASMUSIC:1;
#HASBANNER:1;
#MUSICLENGTH:174.748;
// end cache tags

//---------------dance-single - ----------------
#NOTES:
     dance-single:
     :
     Hard:
     7:
     0.433,0.421,0.137,0.263,0.189,460.000,24.000,46.000,0.000,0.000:
0010
1000
0001
0010
0100
1000
0001
0100
,
0110
0000
0000
1000
0000
0000
0100
0000
,
0110
0000
0000
0001
0000
0000
0100
0000
,
1010
0000
1000
0100
0000
0010
0000
0000
,
1001
0000
0000
0000
0000
0010
0100
1000
,
1010
0000
0000
0001
0000
0000
1000
0000
,
0101
0000
0000
0010
0000
0000
0001
0000
,
0100
0000
0010
1000
0000
0110
0000
0000
,
0001
0001
0000
0001
0000
0001
0010
0000
,
0000
0020
0230
2300
,
3001
0001
0000
0001
0000
0010
0100
0000
,
0000
0200
2300
3020
,
1030
1000
0000
1000
0000
0100
0010
0000
,
0000
0002
0203
0320
,
1030
1000
0000
0100
0000
0010
0011
0000
,
0000
0100
0000
0000
0010
0000
1000
0001
,
0010
0100
0001
1000
0010
1000
0100
0000
,
0000
0010
0000
0000
0001
0000
0101
0000
,
0000
0010
0000
0000
1000
0000
1100
0000
,
0010
0001
0000
0100
0000
0000
0011
0000
,
0000
0000
0000
1000
0100
0010
0001
0000
,
0000
0010
0000
0000
0100
0000
1100
0000
,
0000
0010
0000
0000
0001
0000
0100
0000
,
0010
0001
0000
0100
0000
0000
1000
0010
,
0010
0100
0000
0100
0010
0000
1000
0100
,
0010
0001
0000
0100
0010
0000
0001
0010
,
0100
1000
0000
0001
0010
0000
0100
1000
,
0010
0100
0000
0001
0010
0000
0100
1000
,
0010
0100
0000
0001
0010
0000
0100
0010
,
0001
0100
0000
0010
1000
0000
0100
0010
,
0000
0002
0000
0003
0000
0000
1000
0010
,
0000
0200
0000
0302
0000
0013
0100
0000
,
0000
0000
0000
0000
0000
0000
0000
0000
0000
1000
0000
0000
0000
0000
0001
0000
0000
0000
0100
0000
0000
0000
0010
0000
,
0000
1000
0000
0100
0000
0010
0000
0001
0000
0200
0000
0000
,
0000
0000
0000
0300
0000
0000
0000
0000
0000
1000
0000
0000
0000
0000
0000
0100
0000
0000
0010
0000
0000
0000
0001
0000
,
0000
0100
0000
0010
0000
1000
0000
0001
0000
0020
0000
0000
,
0000
0000
0000
0030
0000
0000
0000
0000
0000
0001
0000
0000
0000
0000
0000
0100
0000
0000
0010
0000
0000
0000
1000
0000
,
0000
0100
0000
0010
0000
0001
0000
0100
0000
0020
0000
0000
,
0000
0000
0000
0030
0000
0000
0000
0000
0000
1000
0000
0000
0000
0000
0000
0100
0000
0000
0010
0000
0000
0000
0001
0000
,
0000
0100
0000
0010
0000
1000
0000
0100
0000
0020
0000
0000
,
0000
0000
0000
0030
0000
0000
0000
0000
0000
0001
0000
0000
0000
0000
0000
0100
0000
0000
0010
0000
0000
0000
1000
0000
,
0000
0100
0000
0010
0000
0001
0000
0100
0000
0020
0000
0000
,
0000
0000
0000
0030
0000
0000
0000
0000
0000
1000
0000
0000
0000
0000
0000
0100
0000
0000
0010
0000
0000
0000
0001
0000
,
0000
0100
0000
0010
0000
1000
0000
0001
0000
0020
0000
0000
,
0000
0000
0000
0030
0000
0000
0000
0000
0000
1000
0000
0000
0000
0000
0000
0010
0000
0000
0100
0000
0000
0000
0001
0000
,
0000
0010
0000
0100
0000
1000
0000
0010
0000
0200
0000
0000
,
0000
0000
0000
0300
0000
0000
0000
0000
0000
1000
0000
0000
0000
0000
0000
0100
0000
0000
0010
0000
0000
0000
0001
0000
,
0000
0000
0100
0000
0000
0000
0010
0000
0000
0000
1000
0000
0000
0000
0100
0000
0000
0000
0010
0000
0000
0001
0000
0000
,
0000
1000
0000
1000
1000
0000
0000
0000
,
0200
0000
0320
0000
0032
0000
0103
0100
,
0000
0100
0000
0100
0001
0000
0000
0000
,
0020
0000
2030
0000
3020
0000
0130
0100
,
0000
0100
0000
0100
0001
0000
0000
0000
,
2000
0000
3020
0000
0230
0000
0301
0001
,
0000
0001
0000
0001
0010
0000
0000
0100
,
0000
0000
1000
0000
0010
0100
0001
0010
,
0100
1000
0001
1000
1010
0000
0000
0100
,
0000
0000
1000
0000
1001
0000
0000
0100
,
0000
0000
0010
0000
1000
0000
0100
0010
,
0000
0101
0000
0000
0200
0000
0000
0300
,
0000
0010
1000
0100
0110
0000
0000
0001
,
0000
0000
1000
0000
0101
0000
0000
0001
,
0000
0000
0010
0000
1000
0000
0001
0100
,
0000
0110
0000
0000
0100
0100
0000
0100
,
0000
0100
0001
0000
0000
0000
0002
0000
,
0203
0000
0320
0000
1030
1000
0000
1000
,
0000
1000
0100
0000
0000
0000
0020
0000
,
0032
0000
0203
0000
0310
0010
0000
0010
,
0000
0001
0100
0000
0000
0000
2000
0000
,
3020
0000
0230
0000
0301
0001
0000
0010
,
0000
0100
1000
0000
0000
0001
0000
0000
,
0100
0000
0010
1000
0100
0010
0000
0001
,
1000
0010
0110
0000
0000
0010
0000
0000
,
0100
0000
1100
0000
0000
0100
0000
0000
,
0010
0000
0001
0000
0100
0010
0000
1010
,
0000
0000
0200
0000
0000
0300
0000
0010
,
0001
0100
0110
0000
0000
1000
0000
0000
,
0100
0000
0110
0000
0000
0001
0000
0000
,
1000
0000
0010
0000
1000
0001
0000
0110
,
0000
0000
0100
1000
0010
1000
0000
0001
,
0100
0000
0010
0010
0001
0010
0000
0001
,
0001
0000
0010
0001
0100
0001
0000
1000
,
0001
0000
0100
1000
0010
1000
0000
1000
,
1000
0000
0001
0100
0010
1000
0000
0100
,
0100
0000
0010
0001
0100
0010
0000
0100
,
0100
0000
0100
0100
0000
0010
0000
0000
,
0000
0000
0001
0100
0000
0010
0000
1000
,
0000
0100
0010
0000
0000
0000
0000
1000
,
0000
0001
0000
0100
0000
0010
0000
1000
0000
0100
0000
0010
,
0000
0000
0001
0000
0000
0000
0200
0000
0000
0000
0000
0000
0000
0000
0000
0300
0000
0000
0000
0000
0000
1000
0000
0000
,
0000
0000
0000
0100
0000
0000
0010
0000
0000
0000
0001
0000
0000
0000
0100
0000
0000
0000
0010
0000
0000
0000
1000
0000
,
0000
0000
0001
0000
0000
0000
0020
0000
0000
0000
0000
0000
0000
0000
0000
0030
0000
0000
0000
0000
0000
0001
0000
0000
,
0000
0000
0000
0100
0000
0000
0010
0000
0000
0000
1000
0000
0000
0000
0100
0000
0000
0000
0010
0000
0000
0000
0001
0000
,
0000
0000
0100
0000
0000
0000
0020
0000
0000
0000
0000
0000
0000
0000
0000
0030
0000
0000
0000
0000
0000
1000
0000
0000
,
0000
0000
0000
0100
0000
0000
0010
0000
0000
0000
0001
0000
0000
0000
0100
0000
0000
0000
0010
0000
0000
0000
1000
0000
,
0000
0000
0100
0000
0000
0000
0020
0000
0000
0000
0000
0000
0000
0000
0000
0030
0000
0000
0000
0000
0000
0001
0000
0000
,
0000
0000
0000
0100
0000
0000
0010
0000
0000
0000
1000
0000
0000
0000
0100
0000
0000
0000
0010
0000
0000
0000
0001
0000
,
0000
0000
0100
0000
0000
0000
0020
0000
0000
0000
0000
0000
0000
0000
0000
0030
0000
0000
0000
0000
0000
1000
0000
0000
,
0000
0000
0000
0100
0000
0000
0010
0000
0000
0000
0001
0000
0000
0000
0100
0000
0000
0000
0010
0000
0000
0000
1000
0000
,
0000
0000
0001
0000
0000
0000
0020
0000
0000
0000
0000
0000
0000
0000
0000
0030
0000
0000
0000
0000
0000
1000
0000
0000
,
0000
0000
0000
0010
0000
0000
0100
0000
0000
0000
0001
0000
0000
0000
0010
0000
0000
0000
0100
0000
0000
0000
1000
0000
,
0000
0000
0010
0000
0000
0000
0200
0000
0000
0000
0000
0000
0000
0000
0000
0300
0000
0000
0000
0000
0000
1000
0000
0000
,
0000
0000
0000
0100
0000
0000
0010
0000
0000
0000
0001
0000
0000
0000
0100
0000
0000
0000
0010
0000
0000
0000
1000
0000
,
0000
0000
0100
0000
0000
0000
0010
0000
0000
0001
0000
0000
0000
0000
0000
0100
0000
0000
0000
0000
0000
0010
0000
0000
,
1000
0000
0100
0100
,
0100
0000
0000
0000
;

//---------------dance-single - Copied from----------------
#NOTES:
     dance-single:
     Copied from:
     Medium:
     5:
     0.370,0.361,0.143,0.292,0.006,377.000,25.000,51.000,0.000,0.000:
1001
0000
0000
0000
0000
1000
0001
0100
,
0010
0000
0000
1000
0000
0000
0100
0000
,
0010
0000
0000
0001
0000
0000
0100
0000
,
0010
0000
1000
0100
0000
0010
0000
0000
,
1001
0000
0000
0000
0000
0010
0100
1000
,
0100
0000
0000
0001
0000
0000
1000
0000
,
0001
0000
0000
0010
0000
0000
0001
0000
,
0100
0000
0010
1000
0000
0110
0000
0000
,
0010
0001
0000
0010
0000
0001
0010
0000
,
0000
0020
0230
2300
,
3100
0010
0000
0100
0000
0010
0100
0000
,
0000
0200
2300
3020
,
1030
0100
0000
1000
0000
0100
1000
0000
,
0000
0002
0203
0320
,
0031
0100
0000
0001
0000
0100
0001
0000
,
0000
0100
0000
0000
0010
0000
1001
0000
,
0000
0000
0000
1000
0010
1000
0100
0000
,
0000
0010
0000
0000
0001
0000
0100
0000
,
0000
0010
0000
0000
1000
0000
0100
0000
,
0010
0001
0000
0100
0000
0000
0011
0000
,
0000
0000
0000
1000
0100
0010
0001
0000
,
0000
0010
0000
0000
0100
0000
1000
0000
,
0000
0010
0000
0000
0001
0000
0100
0000
,
0010
0001
0000
0100
0000
0000
1001
0000
,
0000
0000
0000
0100
0010
0000
1010
0000
,
0000
0000
0000
0100
0010
0000
0101
0000
,
0000
0000
0000
0001
0010
0000
0110
0000
,
0000
0000
0000
1000
0010
0000
0110
0000
,
0000
0000
0000
0010
0100
0000
0011
0000
,
0000
0000
0000
0010
1000
0000
0100
0010
,
0000
0002
0000
0003
0000
0000
1000
0010
,
0000
0200
0000
0302
0000
0013
0100
0000
,
0000
0000
0000
0000
0000
0000
0000
0000
0000
1000
0000
0000
0000
0000
0001
0000
0000
0000
0100
0000
0000
0000
0000
0000
,
1000
0100
0010
0200
,
0000
0300
0000
1000
0000
0100
0010
0000
,
0001
0010
0100
0020
,
0000
0030
0000
0001
0000
0100
0010
0000
,
1000
0010
0001
0020
,
0000
0030
0000
1000
0000
0100
0010
0000
,
0001
0010
0100
0020
,
0000
0030
0000
0001
0000
0100
0010
0000
,
1000
0010
0001
0020
,
0000
0030
0000
1000
0000
0100
0010
0000
,
0001
0010
0100
0020
,
0000
0030
0000
1000
0000
0010
0100
0000
,
0001
0100
1000
0200
,
0000
0300
0000
1000
0000
0100
0010
0000
,
0001
0000
0010
0000
0100
0000
0010
0001
,
0000
0010
0000
0001
0010
0000
0000
0000
,
0200
0000
0320
0000
0032
0000
0103
0010
,
0000
0100
0000
0010
0100
0000
0000
0000
,
0020
0000
2030
0000
3020
0000
0130
1000
,
0000
0100
0000
1000
0100
0000
0000
0000
,
2000
0000
3020
0000
0230
0000
0301
0010
,
0000
0001
0000
0010
0001
0000
0000
0100
,
0000
1000
0110
0000
,
0000
1000
0001
1000
0010
0000
0000
0100
,
0000
0000
1000
0000
0001
0000
0000
0100
,
0000
0000
0010
0000
1000
0000
0100
0010
,
0000
0001
0000
0000
0220
0000
0000
0330
,
0000
0010
1000
0100
0010
0000
0000
0001
,
0000
0000
1000
0000
0001
0000
0000
0001
,
0000
0000
0010
0000
1000
0000
0001
0100
,
0000
0010
0000
0000
0100
0010
0000
0100
,
0000
0010
0100
0000
0000
0000
0002
0000
,
0203
0000
0320
0000
1030
0100
0000
1000
,
0000
0100
1000
0000
0000
0000
0020
0000
,
0032
0000
0203
0000
0310
1000
0000
0010
,
0000
1000
0010
0000
0000
0000
2000
0000
,
3020
0000
0230
0000
0301
0001
0000
0010
,
0000
0100
1000
0000
0000
0001
0000
0000
,
0100
0000
1010
0000
0000
0000
0000
0001
,
1000
0010
0100
0000
0000
0010
0000
0000
,
0100
0000
1100
0000
0000
0100
0000
0000
,
0010
0000
0001
0000
0100
0010
0000
1010
,
0000
0000
0220
0000
0000
0330
0000
0010
,
0001
0100
0010
0000
0000
1000
0000
0000
,
0100
0000
0110
0000
0000
0001
0000
0000
,
1000
0000
0010
0000
1000
0001
0000
0110
,
0000
0000
1001
0000
0000
0000
0000
0010
,
0100
0000
0101
0000
0000
0000
0000
0010
,
0100
0000
1010
0000
0000
0000
0000
1000
,
0100
0000
0110
0000
0000
0000
0000
0001
,
0100
0000
0110
0000
0000
0000
0000
0100
,
0010
0000
1100
0000
0000
0000
0000
0100
,
0001
0000
0010
0100
0000
2000
0000
3000
,
0000
0000
0001
0100
0000
0020
0000
2030
,
0000
3100
0010
0000
0000
0000
0000
0001
,
0000
1000
0000
0010
0000
0000
0001
0000
0000
0010
0000
0000
,
0100
0000
0020
0000
0000
0030
0000
0001
,
0000
0010
0100
0000
1000
0000
0100
0000
,
0010
0000
0200
0000
0000
0300
0000
1000
,
0000
0010
0100
0000
0001
0000
0100
0000
,
1000
0000
0200
0000
0000
0300
0000
0001
,
0000
0010
0100
0000
1000
0000
0100
0000
,
0010
0000
0200
0000
0000
0300
0000
1000
,
0000
0010
0100
0000
0001
0000
0100
0000
,
1000
0000
0200
0000
0000
0300
0000
0001
,
0000
0010
0100
0000
1000
0000
0100
0000
,
0010
0000
0200
0000
0000
0300
0000
0001
,
0000
0100
0010
0000
1000
0000
0010
0000
,
0001
0000
0020
0000
0000
0030
0000
0001
,
0000
0010
0100
0000
1000
0000
0100
0000
,
0001
0000
0100
1000
0000
0010
0000
1000
,
0100
0000
0010
0010
,
0010
0000
0000
0000
;

//---------------dance-single - Copied from Copied f----------------
#NOTES:
     dance-single:
     Copied from Copied f:
     Easy:
     3:
     0.301,0.300,0.189,0.292,0.000,284.000,33.000,51.000,0.000,0.000:
1001
0000
0000
0001
,
0011
0000
0000
1000
0000
0000
0100
0000
,
0010
0000
0000
0001
0000
0000
0100
0000
,
0010
0000
1000
0000
0000
0010
0000
0000
,
1001
0000
0000
0100
,
0110
0000
0000
0001
0000
0000
1000
0000
,
0001
0000
0000
0010
0000
0000
0001
0000
,
0100
0000
0010
1000
0000
0010
0000
0000
,
0010
0000
0000
0001
0000
0000
0010
0000
,
0000
0020
0230
2300
,
3100
0000
0000
0010
0000
0000
0100
0000
,
0000
0200
2300
3020
,
1030
0000
0000
0100
0000
0000
1000
0000
,
0000
0002
0203
0320
,
0031
0000
0000
1000
0000
0000
0001
0000
,
0000
0100
0000
0000
0010
0000
1001
0000
,
0000
0000
0100
1100
,
0000
0010
0000
0000
0001
0000
0100
0000
,
0000
0010
0000
0000
1000
0000
0100
0000
,
0000
0001
0000
0000
0010
0000
0011
0000
,
0000
0000
0100
0101
,
0000
0010
0000
0000
0100
0000
1000
0000
,
0000
0010
0000
0000
0001
0000
0100
0000
,
0000
0010
0000
0000
0100
0000
1001
0000
,
0000
0000
0000
1010
,
0000
0000
0000
0101
,
0000
0000
0000
0110
,
0000
0000
0000
0110
,
0000
0000
0000
0011
,
0000
0000
1100
0100
,
0000
0002
0000
0003
0000
0000
1010
0000
,
0000
0200
0000
0302
0000
0003
0100
0000
,
0000
0000
0001
0100
,
1000
0100
0010
0200
,
0000
0300
0000
1000
0000
0000
0010
0000
,
0001
0010
0100
0020
,
0000
0030
0000
0001
0000
0000
0010
0000
,
1000
0010
0001
0020
,
0000
0030
0000
1000
0000
0000
0010
0000
,
0001
0010
0100
0020
,
0000
0030
0000
0001
0000
0000
0010
0000
,
1000
0010
0001
0020
,
0000
0030
0000
1000
0000
0000
0010
0000
,
0001
0010
0100
0020
,
0000
0030
0000
1000
0000
0000
0100
0000
,
0001
0100
1000
0200
,
0000
0300
0000
1000
0000
0000
0010
0000
,
0001
0010
0100
0010
,
0000
0001
0000
0000
0010
0000
0000
0000
,
0200
0320
0032
0103
,
0000
0010
0000
0000
0100
0000
0000
0000
,
0020
2030
3020
0130
,
0000
1000
0000
0000
0100
0000
0000
0000
,
2000
3020
0230
0301
,
0000
0010
0000
0000
0001
0000
0000
0100
,
0000
1000
0110
0000
,
0000
0000
1000
0000
1010
0000
0000
0100
,
0000
0000
1000
0000
0001
0000
0000
0100
,
0000
0000
0010
0000
1000
0000
0000
0010
,
0000
0001
0000
0000
0220
0000
0000
0330
,
0000
0000
1000
0000
0001
0000
0000
0001
,
0000
0000
1000
0000
0001
0000
0000
0001
,
0000
0000
0010
0000
1000
0000
0000
0100
,
0000
0010
0000
0000
0100
0000
0000
0010
,
0000
0100
0000
0002
,
0203
0000
0320
0000
1030
0000
0000
0010
,
0000
1000
0000
0020
,
0032
0000
0203
0000
0310
0000
0000
1000
,
0000
0010
0000
2000
,
3020
0000
0230
0000
0301
0000
0000
0001
,
0000
0000
1000
0000
0000
0001
0000
0000
,
0100
1010
0000
0000
,
0010
0000
0011
0000
0000
0010
0000
0000
,
0100
0000
1100
0000
0000
0100
0000
0000
,
0010
0000
0001
0000
0010
0000
0000
1010
,
0000
0000
0220
0000
0000
0330
0000
0000
,
0001
0000
0101
0000
0000
1000
0000
0000
,
0100
0000
0110
0000
0000
0001
0000
0000
,
1000
0000
0010
0000
1000
0000
0000
0010
,
0000
1001
0000
0000
,
0000
0101
0000
0000
,
0000
1010
0000
0000
,
0000
0110
0000
0000
,
0000
0110
0000
0000
,
0000
1100
0000
0000
,
0101
0000
0010
0000
0000
2000
0000
3000
,
0000
0000
0001
0000
0000
0020
0000
2030
,
0000
3000
0010
0000
0000
0000
0000
0000
,
1000
0010
0001
0010
,
0100
0000
0020
0000
0000
0030
0000
0001
,
0000
0100
1000
0100
,
0010
0000
0200
0000
0000
0300
0000
1000
,
0000
0100
0001
0100
,
1000
0000
0200
0000
0000
0300
0000
0001
,
0000
0100
1000
0100
,
0010
0000
0200
0000
0000
0300
0000
1000
,
0000
0100
0001
0100
,
1000
0000
0200
0000
0000
0300
0000
0001
,
0000
0100
1000
0100
,
0010
0000
0200
0000
0000
0300
0000
0001
,
0000
0010
1000
0010
,
0001
0000
0020
0000
0000
0030
0000
0001
,
0000
0100
1000
0100
,
0001
0000
0100
0000
0000
0010
0000
0000
,
0100
0000
0010
0010
,
0010
0000
0000
0000
;

//---------------dance-single - Copied from----------------
#NOTES:
     dance-single:
     Copied from:
     Challenge:
     11:
     1.000,0.991,1.000,0.189,0.732,963.000,226.000,33.000,0.000,4.000:
0110
1000
0001
0010
0100
1000
0001
0100
,
0110
0100
0010
1100
0010
1000
0110
0100
,
0110
0010
1000
0101
0010
0100
0110
0001
,
1010
0100
1100
0110
0010
0011
0100
0010
,
1001
0100
1000
0100
0010
0001
0100
1000
,
1010
0100
0010
0101
0010
0100
1010
0100
,
0101
1000
0100
0110
0010
1000
0101
0010
,
0101
0010
0110
1100
0010
0110
1000
0100
,
0001
0001
0000
0001
0000
0101
1010
0000
,
0000
0020
0230
2300
,
3001
0001
0000
0001
0000
1010
0101
0000
,
0000
0200
2300
3020
,
1030
1000
0000
1000
0000
0110
1010
0000
,
0000
0002
0203
0320
,
1030
1000
0000
0100
0000
1010
0011
0000
,
0000
1100
0000
0000
1010
0000
1100
0001
,
0010
0100
0001
1000
0010
1000
0110
1000
,
0100
0011
0010
0100
0011
1000
0101
1000
,
0100
0110
0100
0010
1010
0010
1100
0010
,
0110
0011
0100
0110
1000
0100
0011
0100
,
0001
0010
0100
1000
0100
0010
0101
0100
,
1000
0110
0100
0001
0110
0100
1100
0100
,
0010
0110
0010
0001
0011
0010
1100
0100
,
0110
0011
0100
0110
1000
0100
1100
0110
,
0011
0110
0000
1100
0110
0000
1100
0110
,
0011
1001
0000
1100
0110
0000
0011
0110
,
1100
1001
0000
0011
0110
0000
0110
1100
,
0110
0011
0000
0101
1010
0000
0110
1100
,
0011
0110
0000
1001
1010
0000
1100
0110
,
0011
1100
0000
0110
1010
0000
1100
0110
,
0000
0002
0000
1003
1000
1000
1100
0110
,
0000
0000
0200
0000
0000
0000
0302
0000
0000
0000
0013
0000
0110
0010
1000
0001
,
0100
0010
1000
0010
0001
1000
0100
0010
0001
1000
0100
0010
0001
0010
0100
1000
,
0100
0001
0100
0010
1000
0100
0010
0001
1000
0001
1000
0100
0010
0001
0010
1000
,
0010
0100
0010
1000
0010
0001
0010
0100
0010
0001
0010
1000
0010
0001
0010
0100
,
1000
0001
1000
0010
1000
0100
1000
0010
1000
0100
1000
0001
0100
0010
0100
0010
,
0001
0100
0010
1000
0010
0100
1000
0010
1000
0001
0100
0010
1000
0100
1000
0001
,
0100
0010
1000
0100
0010
0001
0100
0010
1000
0100
1000
0001
0100
0010
0100
1000
,
0001
0010
0100
0010
1000
0100
1000
0001
0100
0010
1000
0100
1000
0001
0100
0010
,
0100
0010
0100
0001
0100
0001
0100
0010
0100
0010
0001
0010
0100
1000
0001
0100
,
0010
0100
0010
0001
0100
0010
1000
0100
1000
0001
0100
0010
1000
0100
1000
0001
,
1000
0100
0010
0001
0010
0100
1000
0001
0010
0001
0100
1000
0001
0010
0100
1000
,
0001
0010
0100
1000
0001
1000
0100
1000
0010
0100
0001
1000
0010
1000
0010
0100
,
0001
0100
0010
1000
0100
0010
0001
1000
0100
0010
0001
0100
0010
0100
1000
0100
,
0010
0100
0001
0100
1000
0010
1000
0100
0010
0001
0100
0010
1000
0100
1000
0001
,
0100
0010
1000
0100
1000
0001
1000
0010
0100
0010
0100
0010
0001
1000
0010
1000
,
0100
1000
0001
0100
0010
1000
0100
0010
0001
0100
0010
1000
0100
0010
0001
1000
,
0100
0010
0001
0100
0010
1000
0100
0010
0001
0100
0010
1000
0011
0000
0101
0000
,
0000
1000
0000
1100
1010
0000
0000
0000
,
0200
0000
0320
0000
0032
0000
0103
0100
,
0000
0100
0000
0110
0011
0000
0000
0000
,
0020
0000
2030
0000
3020
0000
0130
0100
,
0000
0100
0000
0110
0011
0000
0000
0000
,
2000
0000
3020
0000
0230
0000
0301
0001
,
0000
0001
0000
0101
1010
0000
0000
0110
,
0000
0000
1100
0000
0110
0100
0001
0010
,
0100
1000
0001
1000
1010
0100
0010
0110
,
0100
0010
1100
0100
1001
0100
1000
0110
,
0100
0001
0110
1000
1100
0010
1100
0110
,
0010
0101
0010
0010
0210
1000
0010
0301
,
0010
0001
1000
0100
0110
1000
0100
0011
,
0100
0010
1100
0100
0101
0010
0100
1001
,
0100
0010
0011
0010
1010
0010
0011
0110
,
0100
0110
0100
1000
0110
0110
0000
0110
,
0000
0110
0011
0000
0000
0000
0002
0000
,
0203
0000
0320
0000
1130
1100
0000
1100
,
0000
1100
0110
0000
0000
0000
0020
0000
,
0032
0000
0203
0000
0311
0011
0000
0011
,
0000
0011
0110
0000
0000
0000
2000
0000
,
3020
0000
0230
0000
0311
0011
0000
0110
,
0000
1100
1001
0000
0000
0101
0000
0000
,
0110
0000
0110
1000
0100
0010
0100
0001
,
1000
0010
0110
1000
0100
0011
0100
1000
,
0110
0100
1100
0010
0010
0101
0010
0100
,
1010
0100
0011
1000
1100
0110
0001
1010
,
0001
0010
0210
0001
0010
1300
0100
0010
,
0001
0100
0110
1000
0100
1010
0010
0001
,
0110
0100
0110
1000
0100
0011
0100
0010
,
1100
0001
0011
0010
1100
0011
0100
0110
,
0100
0010
0101
1010
0110
1100
0000
1001
,
1100
0000
0110
0110
0011
0110
0000
0011
,
0011
0000
1010
1001
1100
1001
0000
1100
,
0011
0000
0101
1001
0011
1001
0000
1010
,
1100
0000
1001
1100
0011
1001
0000
0101
,
0110
0000
1010
1001
0101
0011
0000
0110
,
0101
0000
0101
0110
0000
1020
0000
0001
,
0001
0031
0011
0110
0000
0110
0000
1100
,
0000
0000
0110
0000
1100
0001
0010
0001
0100
0010
1000
0100
0001
0100
0010
1000
,
0100
0010
0001
0100
0010
1000
0100
1000
0001
1000
0100
1000
0001
0010
0001
0010
,
0001
0100
0001
0100
0001
0100
0010
1000
0010
1000
0100
1000
0100
0010
0001
0010
,
0001
0100
0010
0100
0010
1000
0001
1000
0001
1000
0100
1000
0100
0010
0100
0010
,
0001
0010
0001
0010
0001
0100
0001
0100
0001
1000
0010
1000
0010
1000
0100
1000
,
0100
1000
0010
1000
0100
0010
0001
0100
0010
1000
0100
0010
0001
0100
0001
1000
,
0001
1000
0100
0010
0001
0010
0001
1000
0100
1000
0001
0100
0010
1000
0100
0010
,
0001
0100
0010
1000
0100
1000
0100
1000
0100
1000
0010
1000
0100
0010
0001
0100
,
0010
1000
0100
0010
0001
0010
0100
1000
0100
0001
0010
0100
1000
0001
0010
0100
,
1000
0010
0001
0010
0001
1000
0100
1000
0010
1000
0100
0010
0001
0010
0100
0001
,
1000
0001
0100
0010
1000
0100
0010
0001
0100
0010
0001
0010
0100
1000
0010
0100
,
0001
0010
0100
1000
0010
0100
0001
0010
0100
1000
0010
0100
0001
0010
0100
1000
,
0100
0010
1000
0100
0010
0001
0100
0001
1000
0100
1000
0010
0100
0010
0001
1000
,
0010
0001
0100
0010
0001
0100
1000
0001
0010
0100
1000
0100
0001
0100
0010
1000
,
0100
0001
1000
0100
0010
0100
0010
0001
0100
0010
1000
0100
0010
0001
0010
0100
,
0010
1000
0010
0100
0010
0001
0010
1000
0010
0001
0010
1000
0010
0001
1000
0010
,
1000
0100
0010
0001
1010
0000
0101
0000
0000
0000
0110
0000
0000
0000
0110
0000
,
1010
0000
1100
0011
,
1111
0000
0000
0000
;
