#TITLE:Bee;
#SUBTITLE:;
#ARTIST:BanYa;
#TITLETRANSLIT:;
#SUBTITLETRANSLIT:;
#ARTISTTRANSLIT:;
#CREDIT:;
#BANNER:Title.png;
#BACKGROUND:Title.png;
#LYRICSPATH:;
#CDTITLE:Bee.avi;
#MUSIC:802 BanYa - Bee.mp3;
#OFFSET:0.000;
#SAMPLESTART:42.110;
#SAMPLELENGTH:10.000;
#SELECTABLE:YES;
#BPMS:0.000=160.000;
#STOPS:84.500=0.140
,85.250=0.120
,86.000=0.100
,86.750=0.080
,87.500=0.060
,88.250=0.080
,89.000=0.080
;
#BGCHANGES:;
// cache tags:
#FIRSTBEAT:8.250;
#LASTBEAT:218.625;
#SONGFILENAME:Songs/Definitive Keyboard Megapack/Bee - Banya(SonicX)/802 BanYa - Bee.sm;
#HASMUSIC:1;
#HASBANNER:1;
#MUSICLENGTH:86.569;
// end cache tags

//---------------dance-single - Blank----------------
#NOTES:
     dance-single:
     Blank:
     Hard:
     25:
     1.000,1.000,1.000,0.277,1.000,620.000,539.000,24.000,0.000,39.000:

0000
0000
0000
0000
,
0000
0000
0000
0000
,
0000
1101
0000
0000
0000
1011
0000
0000
0000
1101
0000
0000
0000
1011
0000
0000
,
0000
1101
0000
0000
0000
1011
0000
0000
0000
1101
0000
0000
0000
1011
0000
0000
,
0000
1101
1001
1001
1001
1001
1001
1001
1001
0110
0110
0110
0110
0110
0110
0110
,
0011
0011
0011
0011
0011
0011
0011
0011
0011
0011
1010
1010
1010
1010
1010
1010
,
0111
0011
0011
0011
0011
0011
0011
0011
0110
0110
0110
0110
0110
0110
1100
1100
,
1100
1100
1100
1100
1010
1010
1010
1010
1010
1010
1010
0101
0101
0101
0101
0101
,
0101
0101
0101
0110
0110
0110
0110
0110
0110
0110
0110
0110
1001
1001
1001
1001
,
1001
1001
1001
1001
1001
1001
1001
0110
0110
0110
0110
0110
0110
0110
0110
0110
,
0000
0110
0110
0110
0000
1110
0000
0111
0000
1110
0000
0111
0000
1110
0000
0000
,
0000
0110
0110
0110
0000
1001
0000
0110
0000
1001
0000
0110
0000
1001
0000
0000
,
0000
0110
0011
0011
0011
0011
0110
0110
0110
0110
1100
1100
1100
1100
1100
1100
,
0000
2222
0000
0000
0000
0000
0000
0000
0000
0000
0000
0000
0000
0000
0000
0000
,
3333
0110
0011
1100
0000
1001
0000
0110
0000
1001
0000
0110
0000
1001
0000
0000
,
0000
0110
0110
0110
0000
0011
0000
1100
0000
0011
0000
1100
0000
0011
0000
0000
,
0000
0110
0110
0110
0110
0110
0011
0110
1100
0110
0011
0110
1100
0110
0011
0110
,
1100
2222
0000
0000
0000
0000
0000
0000
0000
0000
0000
0000
0000
0000
0000
3333
,
0000
0011
0110
0011
0110
0011
0110
0011
0110
0011
0110
1100
0110
1100
0110
1100
,
0110
1100
0110
1001
0110
1001
0110
1001
0110
1001
0110
1001
0110
1001
0110
1001
,
0110
0011
0110
1001
0110
0110
0110
0110
0110
0110
0110
0110
0110
0110
0110
0110
,
0000
0011
0100
0000
0011
0100
0000
0011
0100
0000
0011
0100
0000
0011
0100
0000
,
0011
0100
0000
0011
0100
0000
0011
0100
0000
0000
2222
0000
0000
0000
0000
0000
,
0000
0000
0000
0000
,
0000
0000
0000
0000
,
0000
0000
0000
0000
3333
0000
1000
0100
1000
0100
1000
0100
1000
0100
1000
0100
,
1000
0000
0000
0100
0000
0000
1000
0000
0000
0100
0000
0000
1000
0000
0000
0100
0000
0000
1000
0000
0000
0100
0000
0000
1000
0000
0000
0100
0000
0000
1000
0000
0000
0100
0000
0000
0010
0000
0000
0001
0000
0000
0010
0000
0001
0000
0010
0000
,
0001
0000
0010
0000
0001
0000
0010
0000
0001
0000
0010
0000
0001
0000
0010
0000
0001
0000
0010
0000
0001
0000
0010
0000
0001
0000
0010
0000
0001
0000
0101
0000
0000
1010
0000
0000
0101
0000
0000
1010
0000
0000
0101
0000
0000
1010
0000
0000
,
0101
1010
0101
1010
0101
1010
0101
1010
0101
1010
0101
1010
0101
1001
0110
1001
,
0110
1001
0110
1001
0110
1001
0110
1001
0110
1001
0110
1001
0110
0011
1100
0011
,
1100
0011
1100
0011
1100
0011
1100
0011
1100
0011
0110
1100
0110
1100
0110
1100
,
0110
1100
0110
1100
0110
0011
0110
0011
0110
0011
0110
0011
0110
0011
0011
1001
,
0011
1001
0011
1001
0011
1001
0011
1001
0011
1001
0110
0011
0110
0011
0110
0011
,
0110
0011
0110
0011
0110
0011
0110
0011
1100
1100
1100
1100
1100
1100
1100
1100
,
1100
1100
1100
1100
1100
1100
1100
0110
0110
0110
0110
0110
0110
0110
0110
0110
,
0110
0110
0110
0110
0011
0011
0011
0011
0011
0011
0011
0011
0011
0110
0110
0110
,
0110
0110
0110
0110
0110
0110
0110
0110
1001
1001
1001
1001
1001
1001
1001
1001
,
1001
1001
1001
1001
1001
1001
1001
1001
1001
1001
1111
0000
0000
0000
0010
0000
,
0100
0010
0100
0001
0010
0100
0001
0010
,
0100
0000
0001
0000
0100
0000
1000
0100
0010
0001
0100
0000
0001
0000
0100
0000
,
0010
0100
0001
0100
0010
1000
0010
0100
,
0010
0000
0100
0000
0001
0000
1000
0000
0000
0000
1010
1010
1010
1010
1010
1010
,
1010
1010
1010
1010
1010
1010
0101
0101
0101
0101
0101
0101
0101
0101
0101
0101
,
0101
0101
0101
0101
0101
0101
0101
0101
0101
0101
1111
0000
0000
0000
0110
0000
,
1100
0011
1100
0011
0110
0101
1100
0011
,
0110
0110
0110
1001
0110
0110
1001
0110
,
1100
0011
0110
0011
0110
1100
1100
0011
,
0110
0000
1100
0000
0110
0000
0011
0000
0110
0110
0110
0110
0110
0110
0110
0110
,
0110
0110
0110
0110
0110
0110
0110
0110
0110
0110
0110
0110
0110
0110
0110
0110
,
0110
0110
0110
1001
1001
1001
1001
1001
1001
1001
1001
1001
1001
1001
1001
1001
,
1001
0000
0000
1001
0000
0000
1001
0000
0000
1001
0000
0000
1001
0000
0000
1001
0000
0000
1001
0000
0000
1001
0000
0000
1001
0000
0000
1001
0000
0000
1001
0000
0000
1001
0000
0000
1001
0000
0000
1001
0000
0000
1100
0000
1100
0000
1100
0000
,
1100
1100
1100
1100
1100
1100
1100
1100
1100
1100
1100
1100
1100
1100
1100
2200
0000
0000
0000
3300
0000
0000
0000
0000
,
0000
0000
0000
0000
0000
0000
0000
0000
0000
0000
0222
0333
0000
0000
0000
0000
,
0000
0000
0222
0333
0000
0000
0000
0000
0000
0000
1101
1101
1101
1101
1101
1101
,
1101
0000
1101
0000
1101
0000
1101
0000
1101
0000
1101
0000
1101
0000
1101
0000
1101
0000
1101
0000
2222
3333
0000
0000
0000
0000
0000
0000
0000
0000
0000
0000
;
