#TITLE:Blue Army;
#SUBTITLE:;
#ARTIST:DJ Sharpnel;
#TITLETRANSLIT:;
#SUBTITLETRANSLIT:;
#ARTISTTRANSLIT:;
#CREDIT:;
#BANNER:bluearmy-bn.png;
#BACKGROUND:bluearmy-bg.png;
#LYRICSPATH:;
#CDTITLE:cdtitle.PNG;
#MUSIC:14 BLUE ARMY.mp3;
#OFFSET:-0.772;
#SAMPLESTART:7.220;
#SAMPLELENGTH:15.000;
#SELECTABLE:YES;
#BPMS:0.000=182.200,132.000=91.100,166.000=182.200,290.000=91.100,368.000=182.200;
#STOPS:;
#BGCHANGES:;
// cache tags:
#FIRSTBEAT:8.000;
#LASTBEAT:1064.500;
#SONGFILENAME:Songs/StepmaniaFreak's Favorites/Blue Army/Blue Army.sm;
#HASMUSIC:1;
#HASBANNER:1;
#MUSICLENGTH:396.225;
// end cache tags

//---------------dance-single - ----------------
#NOTES:
     dance-single:
     :
     Hard:
     13:
     1.000,1.000,1.000,0.073,0.891,2549.000,752.000,29.000,0.000,1.000:
0000
0000
0000
0000
,
0000
0000
0000
0000
,
1000
0100
0010
0000
0010
0000
0010
0000
0000
0000
0010
0000
0000
0000
0010
0000
,
1000
0011
1000
0011
,
1000
0100
0010
0000
0010
0000
0010
0000
0000
0000
0010
0000
0000
0000
0010
0000
,
1000
0011
1000
0011
,
1000
0100
0010
0000
0010
0000
0010
0000
0000
0000
0010
0000
0000
0000
0010
0000
,
1000
0011
1000
0011
,
1000
0100
0010
0000
0010
0000
0010
0000
0000
0000
0010
0000
0000
0000
0010
0000
,
1000
0000
0011
0000
1000
1000
0011
1000
,
1001
0100
0010
0000
0010
0000
0010
0000
0000
0000
0010
0000
0000
0000
0010
0000
,
1000
0011
1000
0011
,
1000
0100
0010
0000
0010
0000
0010
0000
0000
0000
0010
0000
0000
0000
0010
0000
,
1000
0011
1000
0011
,
1000
0100
0010
0000
0010
0000
0010
0000
0000
0000
0010
0000
0000
0000
0010
0000
,
1000
0011
1000
0011
,
1000
0100
0010
0000
0010
0000
0010
0000
0000
0000
0010
0000
0000
0000
0010
0000
,
1001
0000
1001
0000
0110
0101
1010
0101
,
1000
0100
0010
0001
0100
0000
0001
0010
0100
1000
0010
0100
0010
0000
1000
0001
,
0100
0010
1000
0001
0100
0000
0001
0100
0010
1000
0010
0100
0001
0000
1000
0100
,
0010
0001
0100
0010
1000
0000
0001
0010
0100
1000
0001
0100
0010
0000
1000
0010
,
1000
0001
0100
0001
0100
0000
1000
0001
0100
0010
1000
0001
0100
0000
0001
1000
,
0001
0010
0100
1000
0010
0000
1000
0001
1000
0100
0010
0001
0100
0000
0001
0100
,
0010
1000
0010
0100
0001
0000
1000
0010
0100
0001
1000
0010
0100
0000
1000
0001
,
0100
0010
1000
0010
0100
0000
0001
1000
0100
0010
0001
1000
0001
0000
1000
0001
,
0100
0010
0100
0001
1000
0000
0001
1000
0011
0000
0101
0000
1001
0000
1010
0000
,
1100
0001
1000
0010
0100
0000
0001
1000
0010
0100
0001
1000
0010
0000
1000
0100
,
0010
0001
1000
0001
0100
0000
0001
1000
0001
0010
0100
1000
0001
0000
1000
0001
,
0100
0010
1000
0010
0100
0000
0001
1000
0010
0100
0001
0100
0010
0000
1000
0001
,
1000
0010
1000
0001
0100
0000
0001
1000
0001
0100
0001
0010
0001
0000
1000
0001
,
1100
0110
0011
0110
1100
0110
0011
0110
,
1100
1010
1001
0101
0011
0101
1001
1010
,
1000
0001
1000
0001
1000
0001
1000
0001
1000
0001
1000
0001
1000
0001
1000
0001
,
1010
0000
0000
0000
0000
0000
0000
0000
0000
0000
0000
0000
0000
0000
0000
0000
1000
0001
0100
0000
0010
0000
1000
0000
0000
0000
0001
0000
0100
0000
0010
0000
,
1000
0000
0001
0000
0000
0000
1000
0000
0001
0000
0010
0000
0100
0000
1000
0000
0001
1000
0010
0000
0100
0000
0001
0000
0000
0000
1000
0000
0010
0000
0100
0000
,
0001
0000
1000
0000
0000
0000
0001
0000
1000
0000
0100
0000
0010
0000
0001
0000
0100
0010
0100
0000
1000
0000
0100
0000
0000
0000
0010
0000
0001
0000
1000
0000
,
0100
0000
0010
0000
0000
0000
0100
0000
0010
0000
1000
0000
0001
0000
0100
0000
0010
0100
1000
0000
0001
0000
0010
0000
0000
0000
0100
0000
1000
0000
0001
0000
,
0010
0000
0100
0000
0000
0000
0010
0000
0100
0000
0001
0000
1000
0000
0010
0000
0100
0010
0001
0000
1000
0000
0100
0000
0000
0000
0100
0000
0010
0000
0100
0000
,
0001
0000
0100
0000
0000
0000
0001
0000
1000
0000
0010
0000
0100
0000
0001
0000
0100
0010
1000
0000
0001
0000
0100
0000
0000
0000
0010
0000
1000
0000
0001
0000
,
0100
0000
0010
0000
0000
0000
0100
0000
0010
0000
0001
0000
1000
0000
0100
0000
1000
0010
1000
0000
1000
0000
1000
0000
0000
0000
1000
0000
0100
0000
0010
0000
,
0001
0000
1000
0000
0000
0000
0001
0000
0100
0000
0010
0000
0100
0000
0001
0000
0001
0100
0001
0000
0001
0000
0001
0000
0000
0000
0001
0000
0010
0000
0100
0000
,
1000
0100
0010
0001
1000
0010
0100
0001
1000
0100
0010
0001
0100
0010
1001
0000
1001
0000
0000
0000
0100
0000
0010
0000
1100
0000
0000
0000
0001
0000
0100
0000
,
0010
1000
0001
0100
0011
0000
1000
0001
1100
0000
0001
0100
0011
0000
1000
0001
,
0100
0010
1000
0001
0110
0000
1000
0100
0011
0000
0001
0010
1100
0000
0001
0010
,
0100
1000
0001
0100
0011
0000
1000
0100
1010
0000
0001
0010
0101
0000
0001
0010
,
0100
1000
0010
1000
0011
0000
1000
0001
0110
0000
0001
1000
0110
0000
0001
1000
,
0010
0100
0001
1000
0110
0000
0001
1000
0011
0000
1000
0001
1100
0000
0001
0100
,
0010
1000
0001
0100
0011
0000
0100
0010
1001
0000
0010
0100
1001
0000
0100
0010
,
0100
0001
0100
0010
1001
0000
0100
0001
1010
0000
0010
1000
0101
0000
1000
0100
,
0011
0000
0011
0000
0011
0000
0011
0000
1001
0000
0010
0100
0011
0000
1000
0010
,
0100
0001
1000
0010
1100
0000
0001
1000
0011
0000
1000
0010
1100
0000
0001
1000
,
0010
0100
0001
1000
0110
0000
0001
0010
1100
0000
1000
0100
0011
0000
1000
0100
,
0010
0001
1000
0010
1100
0000
0001
0010
0101
0000
1000
0100
1010
0000
1000
0100
,
0010
0001
0100
0001
1100
0000
0001
1000
0110
0000
1000
0001
0110
0000
1000
0001
,
0100
0010
1000
0001
0110
0000
1000
0001
1100
0000
0001
1000
0011
0000
1000
0010
,
0100
0001
1000
0010
1100
0000
0010
0100
1001
0000
0100
0010
1001
0000
0010
0100
,
0010
0000
0000
1000
0000
0000
0010
0000
0000
0100
0000
0000
1001
0000
0000
0000
0000
0000
0010
0000
0000
1000
0000
0000
0011
0000
0000
0000
0000
0000
1000
0000
0100
0000
0010
0000
0001
0000
0000
0000
0000
0000
0001
0000
0010
0000
0100
0000
,
1000
0010
1000
0000
1000
0000
1000
0000
1001
0000
0001
0010
1100
0000
1000
0100
,
0010
0001
0010
0100
1001
0000
0010
0100
1010
0000
0100
0010
0101
0000
1000
0100
,
0010
0001
0100
0001
0110
0000
1000
0100
0011
0000
0001
0010
1100
0000
0001
0010
,
0100
1000
0001
0100
0011
0000
1000
0010
1100
0000
0001
0100
0011
0000
0001
0010
,
0100
1000
0010
1000
0011
0000
1000
0001
1010
0000
0001
1000
0101
0000
0001
0100
,
0010
1000
0001
1000
0011
0000
0001
1000
0101
0000
1000
0001
0110
0000
0001
1000
,
0001
0100
0010
1000
0101
0000
0100
0010
1001
0000
0010
0100
1001
0000
1000
0010
,
0100
0001
0100
0010
1001
0000
0100
0001
1100
0000
0010
1000
0011
0000
0001
0010
,
1100
0000
1100
0000
1100
0000
1100
0000
1001
0000
1000
0100
0011
0000
0001
0010
,
0100
1000
0100
0010
1001
0000
0100
0010
0101
0000
0010
0100
1010
0000
0001
0010
,
0100
1000
0010
1000
0110
0000
0001
0010
1100
0000
1000
0100
0011
0000
1000
0100
,
0010
0001
1000
0010
1100
0000
0001
0100
0011
0000
1000
0010
1100
0000
1000
0100
,
0010
0001
0100
0001
1100
0000
0001
1000
0011
0000
1100
0000
0011
0000
1100
0000
,
0101
1010
0101
1010
1001
0110
1001
0110
,
0011
0000
1100
0000
0011
0000
1100
0000
0001
0010
0100
1000
0001
0100
0010
1000
,
0001
0010
0100
1000
0001
0100
0010
1000
0010
0000
0000
0000
0000
0000
0000
0000
,
1001
0000
0000
0000
,
2000
0000
0000
0000
,
3002
0000
0000
0000
,
0203
0000
0000
0000
,
0320
0000
0000
0000
,
2030
0000
0000
0000
,
3200
0000
0000
0000
,
0320
0000
0000
0000
,
0032
0000
0000
0000
,
1013
0000
0000
0000
1000
0100
0010
0001
1000
0000
0000
0000
0010
0100
0001
1000
,
0010
0000
0010
0100
0010
0000
0010
0000
0001
0000
0000
1000
0001
0100
0010
1000
,
0001
0000
0000
1000
0001
1000
0010
0100
0001
0000
0000
0000
2000
0000
3200
0000
,
2300
0000
3200
0000
0320
0000
0032
0000
0023
0000
0000
0000
1030
0100
0010
0001
,
1000
0000
0000
0000
0001
0010
0100
1000
0001
0000
0000
0000
1000
0001
0100
0010
,
1000
0000
0001
0100
0010
0000
1000
0000
0010
0000
0000
1000
0100
0010
0001
0010
,
0100
0000
0000
0001
0010
0100
1000
0100
0010
0000
0000
0000
0002
0000
0023
0000
,
0230
2300
3200
0320
0032
0023
0230
2300
,
3020
0000
0230
0000
0302
0000
0203
0000
0300
0000
0000
0001
0000
1000
0000
0010
,
0000
0000
0000
0000
0000
0100
0000
0000
0000
0000
0000
0000
0000
0000
0000
0000
0000
0000
0000
0000
0000
0000
0000
0000
0000
0000
0000
0000
0000
0000
0000
0000
,
0101
0000
0000
1010
0000
0000
0011
0000
0101
0000
0000
1100
0000
0000
0101
0000
,
1001
0000
0000
1100
0000
0000
0101
0000
1001
0000
0000
1100
0000
0000
0011
0000
,
0011
0000
0000
1100
0000
0000
0101
0000
1001
0000
0000
1010
0000
0000
0101
0000
,
1001
0000
0000
1010
0000
0000
0101
0000
1001
0000
0000
1010
0000
0000
0011
0000
,
0101
0000
0000
1001
0000
0000
0011
0000
0101
0000
0000
1001
0000
0000
0011
0000
,
0101
0000
0000
1001
0000
0000
0011
0000
0101
0000
0000
1001
0000
0000
0110
0000
,
1010
0000
0000
1100
0000
0000
0110
0000
1010
0000
0000
1100
0000
0000
0110
0000
,
1010
0000
0000
1100
0000
0000
1100
0000
0011
0000
0000
0110
0000
0000
1100
0000
,
0101
0000
0000
1010
0000
0000
0011
0000
0101
0000
0000
1100
0000
0000
0101
0000
,
1001
0000
0000
1100
0000
0000
0101
0000
1001
0000
0000
1100
0000
0000
0011
0000
,
0011
0000
0000
1100
0000
0000
0101
0000
1001
0000
0000
1010
0000
0000
0101
0000
,
1001
0000
0000
1010
0000
0000
0101
0000
1001
0000
0000
1010
0000
0000
0011
0000
,
0101
0000
0000
1001
0000
0000
0011
0000
0101
0000
0000
1001
0000
0000
0011
0000
,
0101
0000
0000
1001
0000
0000
0011
0000
0101
0000
0000
1001
0000
0000
0110
0000
,
1010
0000
0000
1100
0000
0000
0110
0000
1010
0000
0000
1100
0000
0000
0110
0000
,
1010
0000
0000
1100
0000
0000
1100
0000
0011
0000
0000
0110
0000
0000
1100
0000
,
1001
0000
0001
0010
0100
0000
0100
0000
0100
0000
0100
0010
0001
0000
0001
0000
,
0001
0000
0001
0010
0100
0000
0100
0000
0100
0000
0100
1000
0100
0000
0100
0000
,
0100
0000
0100
0010
1000
0000
1000
0000
1000
0000
1000
0100
0010
0000
0010
0000
,
0010
0000
0010
0001
0100
0000
0100
0000
0100
0000
0100
0010
0001
0000
0001
0000
,
0001
0000
0001
0010
0100
0000
0100
0000
0100
0000
0100
1000
0100
0000
0100
0000
,
0100
0000
0100
0010
0001
0000
0001
0000
0001
0000
0001
0010
0100
0000
0100
0000
,
0100
0000
0100
0010
1000
0000
1000
0000
1000
0000
1000
0100
0010
0000
0010
0000
,
0010
0000
0010
0100
0010
0000
0010
0000
0010
0000
0010
0001
0100
0000
0100
0000
,
1000
1000
1001
0001
0001
0001
0101
0100
,
0100
0100
0110
0010
0010
0010
1010
1000
,
1000
1000
1001
0001
0001
0001
0101
0100
,
0100
0100
0110
0010
0010
0010
1010
1000
,
1000
1000
1010
0010
0010
0010
0110
0100
,
0100
0100
0101
0001
0001
0001
1001
1000
,
1000
0100
0010
0001
1000
0010
0100
0001
1000
0100
0010
0001
1000
0010
0100
0001
,
1100
0000
0000
0000
0001
0010
0100
1000
,
0011
0000
0100
0010
0100
0000
0011
0000
0110
0000
0001
0100
0001
0000
1100
0000
,
0110
0000
0100
0010
0100
0000
0101
0000
1001
0000
0001
1000
0001
0000
0011
0000
,
0110
0000
0001
1000
0001
0000
0011
0000
1010
0000
0100
0010
0100
0000
1001
0000
,
0101
0000
0010
0100
0010
0000
1010
0000
1100
0000
0010
0100
0010
0000
0110
0000
,
1001
0000
0001
0100
0001
0000
0011
0000
0101
0000
0001
0010
0001
0000
0101
0000
,
1010
0000
1000
0100
1000
0000
1001
0000
0110
0000
1000
0010
1000
0000
1100
0000
,
0101
0000
0001
0100
0001
0000
0011
0000
1100
0000
0001
1000
0001
0000
0101
0000
,
0011
0000
1000
0001
1000
0000
0101
0000
1001
0000
0110
0000
1001
0000
0110
0000
,
1001
0000
0010
0100
0010
0000
1010
0000
0101
0000
0010
1000
0010
0000
0101
0000
,
1010
0000
0100
0001
0100
0000
0110
0000
1010
0000
0001
0100
0001
0000
0011
0000
,
0101
0000
0010
1000
0010
0000
0011
0000
0110
0000
0001
0010
0001
0000
1100
0000
,
0110
0000
0001
0100
0001
0000
0110
0000
1001
0000
0010
0100
0010
0000
1001
0000
,
1010
0000
0100
0001
0100
0000
0011
0000
0101
0000
0010
1000
0010
0000
1100
0000
,
0101
0000
0010
1000
0010
0000
1100
0000
0110
0000
1000
0001
1000
0000
0011
0000
,
0110
0000
0001
0100
0001
0000
1001
0000
0110
0000
1000
0001
1000
0000
0110
0000
,
1001
0000
0010
1000
0010
0000
0101
0000
1000
0010
1000
0000
0001
0010
0100
1000
,
0011
0000
1000
0100
1000
0000
0011
0000
0110
0000
0001
0010
0001
0000
0011
0000
,
1100
0000
1000
0010
1000
0000
1100
0000
0011
0000
1000
0010
1000
0000
0011
0000
,
1100
0000
0100
0010
0100
0000
1100
0000
0011
0000
0100
0010
0100
0000
1001
0000
,
0110
0000
1000
0010
1000
0000
1001
0000
0101
0000
0001
0100
0001
0000
1001
0000
,
1010
0000
0100
0010
0100
0000
0101
0000
0110
0000
0001
1000
0001
0000
0101
0000
,
1010
0000
1000
0100
1000
0000
1010
0000
0110
0000
0010
0100
0010
0000
0011
0000
,
1001
0000
0001
1000
0001
0000
0011
0000
1001
0000
1000
0001
1000
0000
1100
0000
,
0110
0000
1000
0010
1000
0000
1001
0000
1001
0000
1001
0000
1001
0000
1001
0000
,
1001
0000
0100
0010
0100
0000
1100
0000
1100
0000
1000
0010
1000
0000
0101
0000
,
0101
0000
0001
0100
0001
0000
1010
0000
1010
0000
1000
0010
1000
0000
0011
0000
,
0101
0000
0001
0100
0001
0000
0110
0000
0110
0000
1000
0100
1000
0000
0011
0000
,
0011
0000
1000
0001
1000
0000
1100
0000
1100
0000
0010
0100
0010
0000
1001
0000
,
1001
0000
1000
0001
1000
0000
0011
0000
0110
0000
0100
0010
0100
0000
1001
0000
,
1001
0000
0001
0010
0001
0000
1100
0000
1100
0000
0001
0100
0001
0000
1001
0000
,
1001
0000
1000
0001
1000
0000
1010
0000
1010
0000
1000
0010
1000
0000
1010
0000
,
1010
0000
0001
0100
0001
0000
0101
0000
0101
0000
0010
0100
0010
0000
1001
0000
,
1001
0000
1000
0100
1000
0000
0011
0000
0011
0000
0001
0010
0001
0000
1100
0000
,
1000
0010
0100
0001
1000
0001
0100
0001
0010
0100
1000
0010
0100
0001
0010
0100
,
1001
0000
0000
0000
,
0000
0000
0000
0000
0000
0000
0000
1001
,
1001
0100
1010
0010
1001
1000
0101
0010
,
0011
0100
0101
0010
1001
0100
1010
0010
,
0101
0001
1010
1000
0110
0001
1010
1000
,
0110
0010
0101
1000
0011
0010
1001
0100
,
1010
0010
1001
1000
0101
0010
1001
0010
,
0101
1000
0110
0010
1001
0100
0110
0010
,
1001
0100
1010
0100
1001
0010
0101
1000
,
0011
0100
1001
0100
1010
0101
1001
0110
,
1001
0100
1010
0010
0101
1000
0110
0001
,
1001
0100
1010
0010
0110
1000
0101
0010
,
1001
0100
0110
0001
1001
0100
1010
0001
,
0110
1000
1001
0010
0110
1000
0011
0001
,
1100
0100
0011
0010
1100
0100
1010
0010
,
0101
1000
1010
0010
0101
0001
0110
0010
,
1001
0100
0110
0010
1001
0100
1010
0010
,
0101
0000
0100
0000
1010
0000
0010
0000
1000
0010
1000
0000
0001
0010
0100
1000
,
0011
0010
1001
1000
0101
0010
1001
0100
,
1010
0010
1001
1000
0101
0010
0011
0100
,
1001
0010
0110
0100
1001
0001
0110
0100
,
1010
0010
0011
1000
0110
0010
1001
0100
,
1001
0001
1010
0100
0101
0010
1001
1000
,
0101
0010
0110
0100
1010
0010
0101
0001
,
0110
1000
0110
0010
1001
0100
1001
0010
,
0110
1000
0110
0010
1001
1001
1001
1001
,
1001
0001
1010
0100
1010
0001
0110
0001
,
0110
0010
0101
0010
0101
0100
0011
0100
,
0011
0100
1001
0100
1001
0100
1010
0100
,
1010
0001
1100
0001
1100
0100
1001
0010
,
1001
1000
0101
0010
0101
1000
0110
0001
,
0110
0100
1001
0010
1001
0100
1010
0001
,
1100
1100
1100
1100
1010
1010
1010
1010
,
1001
1001
1001
1001
0101
0101
0101
0101
,
0001
0010
0100
1000
0001
0100
0010
1000
0001
0010
0100
1000
0001
0100
0010
1000
,
0001
0000
0010
0000
0100
0000
1000
0000
0001
0000
0010
0000
0100
0000
1000
0000
0001
0000
0010
0000
0100
0000
1000
0000
0001
0000
0000
0100
0000
0000
0010
0000
0000
1000
0000
0000
0001
0000
0000
0100
0000
0000
0010
0000
0000
1000
0000
0000
,
0011
0000
0000
0000
,
0000
0000
0000
0000
,
1001
0000
0010
0100
0011
0000
1000
0010
0100
0001
1000
0010
1100
0000
0001
1000
,
0011
0000
1000
0010
1100
0000
0001
1000
0010
0100
0001
1000
0110
0000
0001
0010
,
1100
0000
1000
0100
0011
0000
1000
0100
0010
0001
1000
0010
1100
0000
0001
0010
,
0101
0000
1000
0100
1010
0000
1000
0100
0010
0001
0100
0001
1100
0000
0001
1000
,
0110
0000
1000
0001
0110
0000
1000
0001
0100
0010
1000
0001
0110
0000
1000
0001
,
1100
0000
0001
1000
0011
0000
1000
0010
0100
0001
1000
0010
1100
0000
0010
0100
,
1001
0000
0100
0010
1001
0000
0010
0100
0010
1000
0010
0100
1001
0000
0010
1000
,
0101
0000
0100
0001
1010
0000
0001
0010
1100
0000
1100
0000
1100
0000
1100
0000
,
1001
0000
0100
0010
1100
0000
0001
0100
0010
1000
0001
0100
0011
0000
1000
0001
,
1100
0000
0001
0100
0011
0000
1000
0001
0100
0010
1000
0001
0110
0000
1000
0100
,
0011
0000
0001
0010
1100
0000
0001
0010
0100
1000
0001
0100
0011
0000
1000
0100
,
1010
0000
0001
0010
0101
0000
0001
0010
0100
1000
0010
1000
0011
0000
1000
0001
,
0110
0000
0001
1000
0110
0000
0001
1000
0010
0100
0001
1000
0110
0000
0001
1000
,
0011
0000
1000
0001
1100
0000
0001
0100
0010
1000
0001
0100
0011
0000
0100
0010
,
1001
0000
0010
0100
1001
0000
0100
0010
0100
0001
0100
0010
1001
0000
0100
0001
,
1100
0000
0000
0000
0000
0000
0001
0000
0010
0000
0100
0000
1000
0000
0000
0000
0000
0000
1000
0000
0100
0000
0010
0000
0001
0000
0000
0100
0000
0000
0001
0000
0000
0000
0000
0000
0001
0000
0000
0000
0000
0000
0001
0000
0000
0000
0000
0000
,
1001
0000
1000
0100
0011
0000
0001
0010
0100
1000
0100
0010
1001
0000
0100
0010
,
0101
0000
0010
0100
1010
0000
0001
0010
0100
1000
0010
1000
0110
0000
0001
0010
,
1100
0000
1000
0100
0011
0000
1000
0100
0010
0001
1000
0010
1100
0000
0001
0100
,
0011
0000
1000
0010
1100
0000
1000
0100
0010
0001
0100
0001
1100
0000
0001
1000
,
0101
0000
1000
0001
1010
0000
1000
0010
0100
0001
1000
0001
1100
0000
1000
0001
,
1010
0000
0001
1000
0110
0000
1000
0001
1000
0010
0100
0001
1010
0000
0010
0100
,
1001
0000
0100
0010
1001
0000
0001
0100
0010
1000
0010
0100
1001
0000
0010
1000
,
0011
0000
0100
0001
1100
0000
1000
0100
0011
0000
0011
0000
0011
0000
0011
0000
,
1001
0100
0010
0000
0100
0000
1000
0000
0000
0000
0010
0000
0001
0000
0010
0000
,
0100
0001
0000
0100
0001
0010
0100
1000
,
1000
0100
0010
0000
1000
0000
0001
0000
0000
0000
0010
0000
1000
0000
0001
0000
,
0100
0010
0000
1000
0001
0010
0100
1000
,
1000
0100
0010
0001
0010
0100
1000
0001
0100
0010
1000
0001
0010
0100
1000
0010
,
0100
0001
0010
0100
1000
0100
0010
0001
1000
0001
1000
0010
1000
0100
0010
0001
,
1000
0100
0010
0001
1000
0010
0100
0001
1000
0100
0010
0001
1000
0010
0100
0001
,
1000
0000
0000
0000
1000
0100
0010
0001
,
1100
0000
0100
0010
1000
0000
1100
0000
0110
0000
0010
1000
0010
0000
0011
0000
,
0110
0000
0010
0100
0001
0000
1010
0000
1001
0000
1000
0001
0100
0000
1100
0000
,
0110
0000
1000
0001
0100
0000
1100
0000
0101
0000
0010
0100
0001
0000
1001
0000
,
1010
0000
0100
0010
1000
0000
0101
0000
0011
0000
0010
1000
0010
0000
0110
0000
,
1001
0000
1000
0010
0100
0000
1100
0000
1010
0000
1000
0100
0010
0000
1010
0000
,
0101
0000
0001
0010
0100
0000
1001
0000
0110
0000
0001
0100
0010
0000
0011
0000
,
1010
0000
1000
0010
0100
0000
1100
0000
0011
0000
1000
0001
0100
0000
1010
0000
,
1100
0000
1000
0001
0100
0000
1010
0000
1001
0000
0110
0000
1001
0000
0110
0000
,
1001
0000
0100
0010
1000
0000
0101
0000
1010
0000
0100
0001
1000
0000
1010
0000
,
0101
0000
0010
1000
0001
0000
0110
0000
0101
0000
1000
0010
0100
0000
1100
0000
,
1010
0000
0100
0001
1000
0000
1100
0000
0110
0000
1000
0100
0010
0000
0011
0000
,
0110
0000
0001
1000
0001
0000
0110
0000
1001
0000
1000
0010
0100
0000
1001
0000
,
0101
0000
1000
0010
0100
0000
1100
0000
1010
0000
0001
0100
0010
0000
0011
0000
,
1010
0000
0001
1000
0010
0000
0011
0000
0110
0000
1000
0001
0100
0000
1100
0000
,
0110
0000
1000
0010
0100
0000
1001
0000
0110
0000
0001
1000
0010
0000
0110
0000
,
1001
0000
1000
0001
0100
0000
1010
0000
0001
0100
0001
0000
1000
0100
1000
0000
,
1100
0000
0001
0010
0100
0000
1100
0000
0110
0000
1000
0100
0010
0000
1100
0000
,
0011
0000
0001
0100
0010
0000
0011
0000
1100
0000
1000
0010
0100
0000
1100
0000
,
0011
0000
0010
0100
0010
0000
0011
0000
1100
0000
0010
0100
0010
0000
1001
0000
,
0110
0000
0001
0100
0010
0000
1001
0000
1010
0000
1000
0010
0100
0000
1001
0000
,
0101
0000
0010
0100
0010
0000
1010
0000
0110
0000
1000
0001
0100
0000
1010
0000
,
0101
0000
0001
0010
0100
0000
0101
0000
0110
0000
0100
0010
0001
0000
1100
0000
,
1001
0000
1000
0001
0100
0000
1100
0000
1001
0000
0001
1000
0010
0000
0011
0000
,
0110
0000
0001
0010
0100
0000
1001
0000
1001
0000
1001
0000
1001
0000
1001
0000
,
1001
0000
0010
0100
1000
0000
0011
0000
0011
0000
0001
0100
0010
0000
1010
0000
,
1010
0000
1000
0010
0100
0000
0101
0000
0101
0000
0001
0010
0100
0000
1100
0000
,
1010
0000
0010
1000
0001
0000
0110
0000
0110
0000
0001
0010
0100
0000
1100
0000
,
1100
0000
0001
1000
0010
0000
0011
0000
0011
0000
0001
0100
0010
0000
1001
0000
,
1001
0000
1000
0001
0100
0000
1100
0000
0110
0000
1000
0100
0010
0000
1001
0000
,
1001
0000
0010
1000
0010
0000
0011
0000
0011
0000
1000
0010
0100
0000
1001
0000
,
1100
1100
1100
1100
1010
1010
1010
1010
,
0110
0110
0110
0110
1001
1001
1001
1001
,
1000
0100
0010
0001
1000
0010
0100
0001
1000
0100
0010
0001
1000
0010
0100
0001
,
1000
0000
0100
0000
0010
0000
0001
0000
1000
0000
0100
0000
0010
0000
0001
0000
1000
0000
0100
0000
0010
0000
0001
0000
1000
0000
0000
0010
0000
0000
1000
0000
0000
0000
0000
0000
0001
0000
0000
0010
0000
0000
0100
0000
0000
1000
0000
0000
,
0011
0000
0000
0000
,
0000
0000
0000
0000
,
1001
0100
0010
0000
0001
0000
0010
0000
0000
0000
0010
0000
0100
0000
0010
0000
,
0001
0100
0000
0010
1000
0001
0010
0100
,
0010
0100
0000
0000
0000
0000
0000
0000
;

//---------------dance-single - ----------------
#NOTES:
     dance-single:
     :
     Challenge:
     14:
     1.000,1.000,1.000,0.073,1.000,2698.000,990.000,29.000,0.000,1.000:
0000
0000
0000
0000
,
0000
0000
0000
0000
,
0011
0010
0010
0000
0110
0000
0010
0000
1001
0000
0010
0000
0110
0000
0010
0000
,
1001
0011
1001
0011
,
0110
0010
0010
0000
1010
0000
0010
0000
1001
0000
0010
0000
0011
0000
0010
0000
,
1010
0011
1010
0011
,
1010
0010
0010
0000
0110
0000
0010
0000
1001
0000
0010
0000
0101
0000
0010
0000
,
1001
0011
1001
0011
,
0011
0010
0010
0000
0011
0000
0010
0000
0101
0000
0010
0000
0110
0000
0010
0000
,
1001
0000
0011
0000
1001
1000
0011
1000
,
1010
0010
0010
0000
0110
0000
0010
0000
0101
0000
0010
0000
0110
0000
0010
0000
,
1001
0011
1001
0011
,
0011
0010
0010
0000
1010
0000
0010
0000
1001
0000
0010
0000
0101
0000
0010
0000
,
1001
0011
1001
0011
,
1010
0010
0010
0000
0110
0000
0010
0000
0101
0000
0010
0000
0011
0000
0010
0000
,
1001
0011
1001
0011
,
1010
0010
0010
0000
0110
0000
0010
0000
0101
0000
0010
0000
0011
0000
0010
0000
,
1001
0000
1001
0000
0110
0101
1010
0101
,
1000
0100
0010
0001
1100
0000
0001
0010
0100
1000
0010
0100
0011
0000
1000
0001
,
0100
0010
1000
0001
0110
0000
0001
0100
0001
1000
0010
0100
0011
0000
1000
0100
,
1000
0001
0100
0010
1100
0000
0001
0010
0100
1000
0001
0100
0011
0000
1000
0010
,
0100
0001
0100
0001
0110
0000
1000
0001
0100
0010
1000
0001
0110
0000
0001
1000
,
0001
0010
0100
1000
0011
0000
1000
0001
1000
0100
0010
0001
1100
0000
0001
0100
,
0010
1000
0010
0100
0011
0000
1000
0010
0100
0001
1000
0010
1100
0000
1000
0001
,
0100
0010
1000
0010
1100
0000
0001
1000
0100
0010
0001
1000
0011
0000
1000
0001
,
0100
0010
0100
0001
1100
0000
0001
1000
0011
0000
0101
0000
1001
0000
1010
0000
,
1100
0001
1000
0010
1100
0000
0001
1000
0010
0100
0001
1000
0011
0000
1000
0100
,
0010
0001
1000
0001
0110
0000
0001
1000
0001
0010
0100
1000
0011
0000
1000
0001
,
0100
0010
1000
0010
1100
0000
0001
1000
0010
0100
0001
0100
0011
0000
1000
0001
,
1000
0010
1000
0001
0110
0000
0001
1000
0001
0100
0001
0010
1001
0000
1000
0001
,
1100
0110
0011
0110
1100
0110
0011
0110
,
1100
1010
1001
0101
0011
0101
1001
1010
,
1000
0001
1000
0001
1000
0001
1000
0001
1000
0001
1000
0001
1000
0001
1000
0001
,
1010
0000
0000
0000
0000
0000
0000
0000
0000
0000
0000
0000
0000
0000
0000
0000
1000
0001
0100
0000
0010
0000
1000
0000
0000
0000
0001
0000
0100
0000
0010
0000
,
1000
0000
0001
0000
0000
0000
1000
0000
0001
0000
0010
0000
0100
0000
1000
0000
0001
1000
0010
0000
0100
0000
0001
0000
0000
0000
1000
0000
0010
0000
0100
0000
,
0001
0000
1000
0000
0000
0000
0001
0000
1000
0000
0100
0000
0010
0000
0001
0000
0100
0010
0100
0000
1000
0000
0100
0000
0000
0000
0010
0000
0001
0000
1000
0000
,
0100
0000
0010
0000
0000
0000
0100
0000
0010
0000
1000
0000
0001
0000
0100
0000
0010
0100
1000
0000
0001
0000
0010
0000
0000
0000
0100
0000
1000
0000
0001
0000
,
0010
0000
0100
0000
0000
0000
0010
0000
0100
0000
0001
0000
1000
0000
0010
0000
0100
0010
0001
0000
1000
0000
0100
0000
0000
0000
0100
0000
0010
0000
0100
0000
,
0001
0000
0100
0000
0000
0000
0001
0000
1000
0000
0010
0000
0100
0000
0001
0000
0100
0010
1000
0000
0001
0000
0100
0000
0000
0000
0010
0000
1000
0000
0001
0000
,
0100
0000
0010
0000
0000
0000
0100
0000
0010
0000
0001
0000
1000
0000
0100
0000
1000
0010
1000
0000
1000
0000
1000
0000
0000
0000
1000
0000
0100
0000
0010
0000
,
0001
0000
1000
0000
0000
0000
0001
0000
0100
0000
0010
0000
0100
0000
0001
0000
0001
0100
0001
0000
0001
0000
0001
0000
0000
0000
0001
0000
0010
0000
0100
0000
,
1000
0100
0010
0001
1000
0010
0100
0001
1000
0100
0010
0001
0100
0010
1001
0000
1001
0000
0000
0000
0100
0000
0010
0000
1100
0000
0000
0000
0001
0000
0100
0000
,
0011
1000
0001
0100
0011
0000
1000
0001
1100
0000
0001
0100
0011
0000
1000
0001
,
1100
0010
1000
0001
0110
0000
1000
0100
0011
0000
0001
0010
1100
0000
0001
0010
,
0101
1000
0001
0100
0011
0000
1000
0100
1010
0000
0001
0010
0101
0000
0001
0010
,
0101
1000
0010
1000
0011
0000
1000
0001
0110
0000
0001
1000
0110
0000
0001
1000
,
0011
0100
0001
1000
0110
0000
0001
1000
0011
0000
1000
0001
1100
0000
0001
0100
,
0011
1000
0001
0100
0011
0000
0100
0010
1001
0000
0010
0100
1001
0000
0100
0010
,
1100
0001
0100
0010
1001
0000
0100
0001
1010
0000
0010
1000
0101
0000
1000
0100
,
0011
0000
0011
0000
0011
0000
0011
0000
1001
0000
0010
0100
0011
0000
1000
0010
,
1100
0001
1000
0010
1100
0000
0001
1000
0011
0000
1000
0010
1100
0000
0001
1000
,
0011
0100
0001
1000
0110
0000
0001
0010
1100
0000
1000
0100
0011
0000
1000
0100
,
1010
0001
1000
0010
1100
0000
0001
0010
0101
0000
1000
0100
1010
0000
1000
0100
,
1010
0001
0100
0001
1100
0000
0001
1000
0110
0000
1000
0001
0110
0000
1000
0001
,
1100
0010
1000
0001
0110
0000
1000
0001
1100
0000
0001
1000
0011
0000
1000
0010
,
1100
0001
1000
0010
1100
0000
0010
0100
1001
0000
0100
0010
1001
0000
0010
0100
,
0011
0000
1000
0000
0010
0000
0100
0000
1001
0000
0000
0000
0010
0000
1000
0000
0011
0000
0000
0000
0001
0100
0001
0100
0001
0000
0000
0000
1000
0010
1000
0010
,
1000
0010
1000
0000
1000
0000
1000
0000
1001
0000
0001
0010
1100
0000
1000
0100
,
1010
0001
0010
0100
1001
0000
0010
0100
1010
0000
0100
0010
0101
0000
1000
0100
,
1010
0001
0100
0001
0110
0000
1000
0100
0011
0000
0001
0010
1100
0000
0001
0010
,
0101
1000
0001
0100
0011
0000
1000
0010
1100
0000
0001
0100
0011
0000
0001
0010
,
0101
1000
0010
1000
0011
0000
1000
0001
1010
0000
0001
1000
0101
0000
0001
0100
,
0011
1000
0001
1000
0011
0000
0001
1000
0101
0000
1000
0001
0110
0000
0001
1000
,
0011
0100
0010
1000
0101
0000
0100
0010
1001
0000
0010
0100
1001
0000
1000
0010
,
1100
0001
0100
0010
1001
0000
0100
0001
1100
0000
0010
1000
0011
0000
0001
0010
,
1100
0000
1100
0000
1100
0000
1100
0000
1001
0000
1000
0100
0011
0000
0001
0010
,
0101
1000
0100
0010
1001
0000
0100
0010
0101
0000
0010
0100
1010
0000
0001
0010
,
0101
1000
0010
1000
0110
0000
0001
0010
1100
0000
1000
0100
0011
0000
1000
0100
,
1010
0001
1000
0010
1100
0000
0001
0100
0011
0000
1000
0010
1100
0000
1000
0100
,
1010
0001
0100
0001
1100
0000
0001
1000
0011
0000
1100
0000
0011
0000
1100
0000
,
0101
1010
0101
1010
1001
0110
1001
0110
,
0011
0000
1100
0000
0011
0000
1100
0000
0001
0010
0100
1000
0001
0100
0010
1000
,
0001
0010
0100
1000
0001
0100
0010
1000
0010
0000
0000
0000
0000
0000
0000
0000
,
1001
0000
0000
0000
,
2000
0000
0000
0000
,
3002
0000
0000
0000
,
0203
0000
0000
0000
,
0320
0000
0000
0000
,
2030
0000
0000
0000
,
3200
0000
0000
0000
,
0320
0000
0000
0000
,
0032
0000
0000
0000
,
1013
0000
0000
0000
1000
0100
0010
0001
1000
0000
0000
0000
0001
0100
0001
1000
,
0010
0000
0010
0100
0010
0000
0010
0000
0001
0000
0000
1000
0001
0100
0010
1000
,
0001
0000
0000
1000
0001
1000
0010
0100
0001
0000
0000
0000
2000
0000
3200
0000
,
2300
0000
3200
0000
0320
0000
0032
0000
0023
0000
0000
0000
1030
0100
0010
0001
,
1000
0000
0000
0000
0001
0010
0100
1000
0001
0000
0000
0000
1000
0001
0100
0010
,
1000
0000
0001
0100
0010
0000
1000
0000
0010
0000
0000
1000
0100
0010
0001
0010
,
0100
0000
0000
0001
0010
0100
1000
0100
0010
0000
0000
0000
0002
0000
0023
0000
,
0230
2300
3200
0320
0032
0023
0230
2300
,
3020
0000
0230
0000
0302
0000
0203
0000
0300
0000
0000
0001
0000
1000
0000
0010
,
0000
0000
0000
0000
0000
0100
0000
0000
0000
0000
0000
0000
0000
0000
0000
0000
0000
0000
0000
0000
0000
0000
0000
0000
0000
0000
0000
0000
0000
0000
0000
0000
,
0101
0000
0000
1010
0000
0000
0011
0000
0101
0000
0000
1100
0000
0000
0101
0000
,
1001
0000
0000
1100
0000
0000
0101
0000
1001
0000
0000
1100
0000
0000
0011
0000
,
0011
0000
0000
1100
0000
0000
0101
0000
1001
0000
0000
1010
0000
0000
0101
0000
,
1001
0000
0000
1010
0000
0000
0101
0000
1001
0000
0000
1010
0000
0000
0011
0000
,
0101
0000
0000
1001
0000
0000
0011
0000
0101
0000
0000
1001
0000
0000
0011
0000
,
0101
0000
0000
1001
0000
0000
0011
0000
0101
0000
0000
1001
0000
0000
0110
0000
,
1010
0000
0000
1100
0000
0000
0110
0000
1010
0000
0000
1100
0000
0000
0110
0000
,
1010
0000
0000
1100
0000
0000
1100
0000
0011
0000
0000
0110
0000
0000
1100
0000
,
0101
0000
0000
1010
0000
0000
0011
0000
0101
0000
0000
1100
0000
0000
0101
0000
,
1001
0000
0000
1100
0000
0000
0101
0000
1001
0000
0000
1100
0000
0000
0011
0000
,
0011
0000
0000
1100
0000
0000
0101
0000
1001
0000
0000
1010
0000
0000
0101
0000
,
1001
0000
0000
1010
0000
0000
0101
0000
1001
0000
0000
1010
0000
0000
0011
0000
,
0101
0000
0000
1001
0000
0000
0011
0000
0101
0000
0000
1001
0000
0000
0011
0000
,
0101
0000
0000
1001
0000
0000
0011
0000
0101
0000
0000
1001
0000
0000
0110
0000
,
1010
0000
0000
1100
0000
0000
0110
0000
1010
0000
0000
1100
0000
0000
0110
0000
,
1010
0000
0000
1100
0000
0000
1100
0000
0011
0000
0000
0110
0000
0000
1100
0000
,
1001
0000
0001
0010
0100
0000
0100
0000
0100
0000
0100
0010
0001
0000
0001
0000
,
0001
0000
0001
0010
0100
0000
0100
0000
0100
0000
0100
1000
0100
0000
0100
0000
,
0100
0000
0100
0010
1000
0000
1000
0000
1000
0000
1000
0100
0010
0000
0010
0000
,
0010
0000
0010
0001
0100
0000
0100
0000
0100
0000
0100
0010
0001
0000
0001
0000
,
0001
0000
0001
0010
0100
0000
0100
0000
0100
0000
0100
1000
0100
0000
0100
0000
,
0100
0000
0100
0010
0001
0000
0001
0000
0001
0000
0001
0010
0100
0000
0100
0000
,
0100
0000
0100
0010
1000
0000
1000
0000
1000
0000
1000
0100
0010
0000
0010
0000
,
0010
0000
0010
0100
0010
0000
0010
0000
0010
0000
0010
0001
0100
0000
0100
0000
,
1000
1000
1001
0001
0001
0001
0101
0100
,
0100
0100
0110
0010
0010
0010
1010
1000
,
1000
1000
1001
0001
0001
0001
0101
0100
,
0100
0100
0110
0010
0010
0010
1010
1000
,
1000
1000
1010
0010
0010
0010
0110
0100
,
0100
0100
0101
0001
0001
0001
1001
1000
,
1000
0100
0010
0001
1000
0010
0100
0001
1000
0100
0010
0001
1000
0010
0100
0001
,
1100
0000
0000
0000
0001
0010
0100
1000
,
0011
0000
0010
0100
1001
0100
0011
0000
0110
0000
0100
0001
1100
0001
1100
0000
,
0110
0000
0100
0010
1100
0010
0101
0000
1001
0000
0001
1000
0011
1000
0011
0000
,
0110
0000
0001
1000
0110
1000
0011
0000
1010
0000
0100
0010
1100
0010
1001
0000
,
0101
0000
0010
0100
0011
0100
1010
0000
1100
0000
0100
0001
1100
0001
0110
0000
,
1001
0000
0001
0100
0011
0100
0011
0000
0101
0000
0001
0010
1100
0010
0101
0000
,
1010
0000
1000
0100
0011
0100
1001
0000
0110
0000
1000
0010
1100
0010
1100
0000
,
0101
0000
0001
0100
0011
0100
0011
0000
1100
0000
0001
1000
0011
1000
0101
0000
,
0011
0000
0001
1000
0011
1000
0101
0000
1001
0000
0110
0000
1001
0000
0110
0000
,
1001
0000
0010
0100
0011
0100
1010
0000
0101
0000
0010
1000
0011
1000
0101
0000
,
1010
0000
0100
0001
1100
0001
0110
0000
1010
0000
0001
0100
0011
0100
0011
0000
,
0101
0000
0010
1000
0011
1000
0011
0000
0110
0000
0001
0010
1100
0010
1100
0000
,
0110
0000
0100
0001
1100
0001
0110
0000
1001
0000
0001
0100
0011
0100
1001
0000
,
1010
0000
0001
0100
0011
0100
0011
0000
0101
0000
1000
0010
1100
0010
1100
0000
,
0101
0000
1000
0001
1100
0001
1100
0000
0110
0000
0001
1000
0011
1000
0011
0000
,
0110
0000
0001
0100
0011
0100
1001
0000
0110
0000
1000
0001
1100
0001
0110
0000
,
1001
0000
0001
1000
0011
1000
0101
0000
1000
0010
1000
0000
0001
0010
0100
1000
,
0011
0000
1000
0100
0011
0100
0011
0000
0110
0000
0001
0010
0101
1000
0011
0000
,
1100
0000
1000
0010
1100
0010
1100
0000
0011
0000
0001
0100
0011
0100
0011
0000
,
1100
0000
0100
0010
1100
0010
1100
0000
0011
0000
0100
0010
1100
0010
1001
0000
,
0110
0000
1000
0010
1100
0010
1001
0000
0101
0000
0001
0100
0011
0100
1001
0000
,
1010
0000
0100
0010
1100
0010
0101
0000
0110
0000
0001
1000
0011
1000
0101
0000
,
1010
0000
1000
0100
0011
0100
1010
0000
0110
0000
0010
0100
0011
0100
0011
0000
,
1001
0000
0001
1000
0011
1000
0011
0000
1001
0000
1000
0001
1100
0001
1100
0000
,
0110
0000
1000
0100
0011
0100
1001
0000
1001
0000
1001
0000
1001
0000
1001
0000
,
1001
0000
0100
0010
1100
0010
1100
0000
1100
0000
1000
0010
0101
0010
0101
0000
,
0101
0000
0001
0100
0011
0100
1010
0000
1010
0000
1000
0100
0011
0100
0011
0000
,
0101
0000
0100
0001
1100
0001
0110
0000
0110
0000
1000
0100
0011
0100
0011
0000
,
0011
0000
1000
0001
1100
0001
1100
0000
1100
0000
1000
0010
1100
0010
1001
0000
,
1001
0000
0001
1000
0011
1000
0011
0000
0110
0000
0001
0010
1100
0010
1001
0000
,
1001
0000
0100
0001
1100
0001
1100
0000
1100
0000
0001
0100
1001
0100
1001
0000
,
1001
0000
1000
0001
1010
0001
1010
0000
1010
0000
1000
0100
1010
0100
1010
0000
,
1010
0000
0001
0010
0101
0010
0101
0000
0101
0000
0010
0100
1001
0100
1001
0000
,
1001
0000
1000
0100
0011
0100
0011
0000
0011
0000
0001
0010
1100
0010
1100
0000
,
1001
0010
0100
0001
1010
0001
0100
0001
1010
0100
1000
0010
1100
0001
0010
0100
,
1001
0000
0000
0000
,
0000
0000
0000
0000
0000
0000
0000
1001
,
1001
0100
1010
0010
1001
1000
0101
0010
,
0011
0100
0101
0010
1001
0100
1010
0010
,
0101
0001
1010
1000
0110
0001
1010
1000
,
0110
0010
0101
1000
0011
0010
1001
0100
,
1010
0010
1001
1000
0101
0010
1001
0010
,
0101
1000
0110
0010
1001
0100
0110
0010
,
1001
0100
1010
0100
1001
0010
0101
1000
,
0011
0100
1001
0100
1010
0101
1001
0110
,
1001
0100
1010
0010
0101
1000
0110
0001
,
1001
0100
1010
0010
0110
1000
0101
0010
,
1001
0100
0110
0001
1001
0100
1010
0001
,
0110
1000
1001
0010
0110
1000
0011
0001
,
1100
0100
0011
0010
1100
0100
1010
0010
,
0101
1000
1010
0010
0101
0001
0110
0010
,
1001
0100
0110
0010
1001
0100
1010
0010
,
0101
0000
0100
0000
1010
0000
0010
0000
1000
0010
1000
0000
0001
0010
0100
1000
,
0011
0010
1001
1000
0101
0010
1001
0100
,
1010
0010
1001
1000
0101
0010
0011
0100
,
1001
0010
0110
0100
1001
0001
0110
0100
,
1010
0010
0011
1000
0110
0010
1001
0100
,
1001
0001
1010
0100
0101
0010
1001
1000
,
0101
0010
0110
0100
1010
0010
0101
0001
,
0110
1000
0110
0010
1001
0100
1001
0010
,
0110
1000
0110
0010
1001
1001
1001
1001
,
1001
0001
1010
0100
1010
0001
0110
0001
,
0110
0010
0101
0010
0101
0100
0011
0100
,
0011
0100
1001
0100
1001
0100
1010
0100
,
1010
0001
1100
0001
1100
0100
1001
0010
,
1001
1000
0101
0010
0101
1000
0110
0001
,
0110
0100
1001
0010
1001
0100
1010
0001
,
1100
1100
1100
1100
1010
1010
1010
1010
,
1001
1001
1001
1001
0101
0101
0101
0101
,
0001
0010
0100
1000
0001
0100
0010
1000
0001
0010
0100
1000
0001
0100
0010
1000
,
0001
0100
0010
1000
0001
0100
0010
1000
0001
0100
0010
1000
0001
0100
0010
1000
0001
0000
0100
0000
0010
0000
1000
0000
0001
0000
0100
0000
0010
0000
1000
0000
,
0011
0000
0000
0000
,
0000
0000
0000
0000
,
1001
0000
0010
0100
0011
0000
1000
0010
1100
0001
1000
0010
1100
0000
0001
1000
,
0011
0000
1000
0010
1100
0000
0001
1000
0011
0100
0001
1000
0110
0000
0001
0010
,
1100
0000
1000
0100
0011
0000
1000
0100
1010
0001
1000
0010
1100
0000
0001
0010
,
0101
0000
1000
0100
1010
0000
1000
0100
1010
0001
0100
0001
1100
0000
0001
1000
,
0110
0000
1000
0001
0110
0000
1000
0001
1100
0010
1000
0001
0110
0000
1000
0001
,
1100
0000
0001
1000
0011
0000
1000
0010
1100
0001
1000
0010
1100
0000
0010
0100
,
1001
0000
0100
0010
1001
0000
0010
0100
0011
1000
0010
0100
1001
0000
0010
1000
,
0101
0000
0100
0001
1010
0000
0001
0010
1100
0000
1100
0000
1100
0000
1100
0000
,
1001
0000
0100
0010
1100
0000
0001
0100
0011
1000
0001
0100
0011
0000
1000
0001
,
1100
0000
0001
0100
0011
0000
1000
0001
1100
0010
1000
0001
0110
0000
1000
0100
,
0011
0000
0001
0010
1100
0000
0001
0010
0101
1000
0001
0100
0011
0000
1000
0100
,
1010
0000
0001
0010
0101
0000
0001
0010
0101
1000
0010
1000
0011
0000
1000
0001
,
0110
0000
0001
1000
0110
0000
0001
1000
0011
0100
0001
1000
0110
0000
0001
1000
,
0011
0000
1000
0001
1100
0000
0001
0100
0011
1000
0001
0100
0011
0000
0100
0010
,
1001
0000
0010
0100
1001
0000
0100
0010
1100
0001
0100
0010
1001
0000
0100
0001
,
1100
0000
0000
0000
0001
1000
0001
1000
0001
0000
0000
0000
1000
0001
1000
0001
1000
0000
0010
0000
0001
0000
0000
0000
0001
0000
0000
0000
0001
0000
0000
0000
,
1001
0000
1000
0100
0011
0000
0001
0010
0101
1000
0100
0010
1001
0000
0100
0010
,
0101
0000
0010
0100
1010
0000
0001
0010
0101
1000
0010
1000
0110
0000
0001
0010
,
1100
0000
1000
0100
0011
0000
1000
0100
1010
0001
1000
0010
1100
0000
0001
0100
,
0011
0000
1000
0010
1100
0000
1000
0100
1010
0001
0100
0001
1100
0000
0001
1000
,
0101
0000
1000
0001
1010
0000
1000
0010
1100
0001
1000
0001
1100
0000
1000
0001
,
1010
0000
0001
1000
0110
0000
1000
0001
1100
0010
0100
0001
1010
0000
0010
0100
,
1001
0000
0100
0010
1001
0000
0001
0100
0011
1000
0010
0100
1001
0000
0010
1000
,
0011
0000
0100
0001
1100
0000
1000
0100
0011
0000
0011
0000
0011
0000
0011
0000
,
0011
0010
0010
0000
0100
0000
1000
0000
0000
0000
0010
0000
0001
0000
0010
0000
,
0100
0001
0000
0100
0001
0010
0100
1000
,
0010
0010
0010
0000
1000
0000
0001
0000
0000
0000
0010
0000
1000
0000
0001
0000
,
0100
0010
0000
1000
0001
0010
0100
1000
,
1000
0100
0010
0001
0010
0100
1000
0001
0100
0010
1000
0001
0010
0100
1000
0010
,
0100
0001
0010
0100
1000
0100
0010
0001
1000
0001
1000
0010
1000
0100
0010
0001
,
1000
0100
0010
0001
1000
0010
0100
0001
1000
0100
0010
0001
1000
0010
0100
0001
,
1000
0000
0000
0000
1000
0100
0010
0001
,
1100
0000
0100
0010
1001
0010
1100
0000
0110
0000
0010
1000
0011
1000
0011
0000
,
0110
0000
0010
0100
1001
0100
1010
0000
1001
0000
1000
0001
1100
0001
1100
0000
,
0110
0000
1000
0001
1100
0001
1100
0000
0101
0000
0010
0100
0011
0100
1001
0000
,
1010
0000
0100
0010
1001
0010
0101
0000
0011
0000
0010
1000
0011
1000
0110
0000
,
1001
0000
1000
0010
1100
0010
1100
0000
1010
0000
1000
0100
1001
0100
1010
0000
,
0101
0000
0001
0010
1100
0010
1001
0000
0110
0000
0001
0100
1001
0100
0011
0000
,
1010
0000
1000
0010
0101
0010
1100
0000
0011
0000
1000
0001
0110
0001
1010
0000
,
1100
0000
1000
0001
0110
0001
1010
0000
1001
0000
0110
0000
1001
0000
0110
0000
,
1001
0000
0100
0010
1100
0010
0101
0000
1010
0000
0100
0001
1100
0001
1010
0000
,
0101
0000
0010
1000
0101
1000
0110
0000
0101
0000
1000
0010
1100
0010
1100
0000
,
1010
0000
0100
0001
1100
0001
1100
0000
0110
0000
1000
0100
0011
0100
0011
0000
,
0110
0000
0010
1000
0011
1000
0110
0000
1001
0000
1000
0010
1100
0010
1001
0000
,
0101
0000
1000
0010
1100
0010
1100
0000
1010
0000
0001
0100
0011
0100
0011
0000
,
1010
0000
0001
1000
0011
1000
0011
0000
0110
0000
1000
0001
1100
0001
1100
0000
,
0110
0000
1000
0010
1001
0010
1001
0000
0110
0000
0001
1000
0011
1000
0110
0000
,
1001
0000
1000
0001
1100
0001
1010
0000
0001
0100
0001
0000
1000
0100
0010
0001
,
1100
0000
0001
0010
1100
0010
1100
0000
0110
0000
1000
0100
1010
0001
1100
0000
,
0011
0000
0001
0100
0011
0100
0011
0000
1100
0000
1000
0010
1100
0010
1100
0000
,
0011
0000
0010
0100
0011
0100
0011
0000
1100
0000
0010
0100
1001
0100
1001
0000
,
0110
0000
0001
0100
1010
0100
1001
0000
1010
0000
1000
0010
0101
0010
1001
0000
,
0101
0000
0010
0100
0011
0100
1010
0000
0110
0000
1000
0001
1100
0001
1010
0000
,
0101
0000
0001
0010
1001
0010
0101
0000
0110
0000
0100
0010
1001
0010
1100
0000
,
1001
0000
1000
0001
1100
0001
1100
0000
1001
0000
0001
1000
0011
1000
0011
0000
,
0110
0000
0001
0010
1001
0010
1001
0000
1001
0000
1001
0000
1001
0000
1001
0000
,
1001
0000
0010
0100
0011
0100
0011
0000
0011
0000
0001
0100
1001
0100
1010
0000
,
1010
0000
1000
0010
0101
0010
0101
0000
0101
0000
0001
0010
1001
0010
1100
0000
,
1010
0000
0010
1000
0011
1000
0110
0000
0110
0000
0001
0010
1001
0010
1100
0000
,
1100
0000
0001
1000
0011
1000
0011
0000
0011
0000
0001
0100
1001
0100
1001
0000
,
1001
0000
1000
0001
1100
0001
1100
0000
0110
0000
1000
0100
0011
0100
1001
0000
,
1001
0000
0010
1000
0011
1000
0011
0000
0011
0000
1000
0010
1100
0010
1001
0000
,
1100
1100
1100
1100
1010
1010
1010
1010
,
0110
0110
0110
0110
1001
1001
1001
1001
,
1000
0100
0010
0001
1000
0010
0100
0001
1000
0100
0010
0001
1000
0010
0100
0001
,
1000
0010
0100
0001
1000
0010
0100
0001
1000
0010
0100
0001
1000
0010
0100
0001
1000
0000
0010
0000
1000
0000
0000
0000
0001
0000
0010
0000
0100
0000
1000
0000
,
0011
0000
0000
0000
,
0000
0000
0000
0000
,
1010
0010
0010
0000
0001
0000
0010
0000
0000
0000
0010
0000
0100
0000
0010
0000
,
0001
0100
0000
0010
1000
0001
0010
0100
,
0010
0100
0000
0000
0000
0000
0000
0000
;
