#TITLE:Escape From Vorkuta;
#SUBTITLE:;
#ARTIST:DJ Sharpnel;
#TITLETRANSLIT:;
#SUBTITLETRANSLIT:;
#ARTISTTRANSLIT:;
#CREDIT:;
#BANNER:vorkuta bn.png;
#BACKGROUND:vorkuta bg.png;
#LYRICSPATH:;
#CDTITLE:;
#MUSIC:Escape From Vorkuta.ogg;
#OFFSET:-0.075;
#SAMPLESTART:168.084;
#SAMPLELENGTH:21.332;
#SELECTABLE:YES;
#DISPLAYBPM:180.000;
#BPMS:0.000=180.000,568.000=116.500,672.000=180.000;
#STOPS:;
#BGCHANGES:;
// cache tags:
#FIRSTBEAT:32.000;
#LASTBEAT:944.000;
#SONGFILENAME:Songs/SHARPNELSTREAMZ v2/Escape From Vorkuta/Escape From Vorkuta.sm;
#HASMUSIC:1;
#HASBANNER:1;
#MUSICLENGTH:338.076;
// end cache tags

//---------------dance-single - 14- (z0rk)----------------
#NOTES:
     dance-single:
     14- (z0rk):
     Challenge:
     14:
     0.975,1.000,0.438,0.248,1.000,2075.000,148.000,84.000,101.000,0.000:
0000
0000
0000
0000
,
0000
0000
0000
0000
,
0000
0000
0000
0000
,
0000
0000
0000
0000
,
0000
0000
0000
0000
,
0000
0000
0000
0000
,
0000
0000
0000
0000
,
0000
0000
0000
0000
,
1002
0003
0000
0001
0000
0000
0001
0000
1000
0001
0000
1000
,
0100
0010
0001
1000
0000
0000
0001
0000
1000
0020
0030
1000
,
0001
0000
0000
0201
0300
0000
0001
0000
0000
0001
0000
0000
,
0001
0000
1000
0002
0003
1000
0002
0023
0230
2300
3020
0230
,
0302
0003
0000
0001
0000
0000
0001
0000
1000
0001
0000
1000
,
0100
0010
0001
1000
0000
0000
0001
0000
1000
0200
0300
0000
,
1001
0001
0001
0001
,
0001
0000
1000
0002
0003
1000
0002
0023
0230
2300
3000
0000
,
1001
1100
1100
0101
,
0101
0000
0000
1010
0000
0000
1010
0000
0001
0011
0000
0000
,
0011
0110
1001
0110
,
0010
0100
0010
1000
0000
0001
0010
0000
0100
2000
3000
0000
,
1001
0011
0011
1010
,
1010
0000
0000
1100
0000
0000
1100
0000
0001
0101
0000
0000
,
0101
0110
1001
0110
,
1000
0010
0100
0001
0000
1000
0100
0000
0010
0002
0000
0003
,
1001
0101
0101
1100
,
1100
0000
0000
1010
0000
0000
1010
0000
0001
0011
0000
0000
,
0011
0110
1001
0110
,
0001
1000
0100
0010
0000
0001
1000
0000
0010
0200
0300
0000
,
1001
1010
1010
0011
,
0011
0000
0000
0101
0000
0000
0101
0000
1000
1010
0000
0000
,
1010
0110
1001
0110
,
1000
0010
0100
0001
0000
1000
0100
0000
0010
0002
0000
0003
,
1001
1100
0101
1100
,
0101
0000
0000
1010
0000
0000
0011
0000
1000
1010
0000
0000
,
0011
0110
1001
0110
,
0001
0010
0100
1000
0000
0001
0010
0000
0100
2000
3000
0000
,
1001
0011
1010
0011
,
1010
0000
0000
1100
0000
0000
0101
0000
1000
1100
0000
0000
,
0101
0110
1001
0110
,
1000
0100
0010
0001
0000
1000
0100
0000
0010
0002
0000
0003
,
1001
0000
1000
0001
0000
0100
0001
0000
0010
0001
0000
1000
,
0010
0000
0100
0001
0000
1000
0100
0000
0010
0001
0000
0100
,
0001
0000
1000
0010
0000
0100
0001
0000
0010
0001
0000
1000
,
0010
0000
0100
0001
0000
1000
0100
0000
0010
0001
0000
1000
,
0010
0000
0100
0001
0000
0010
0100
0000
1000
0001
0000
1000
,
0010
0000
0100
0001
0000
1000
0100
0000
0010
0001
0000
1000
,
1001
0001
0001
0001
,
0002
0000
0003
0000
0020
0000
0030
0000
0200
0000
0300
0000
2000
3000
0000
0000
0020
0000
0030
0000
0200
0000
0300
0000
0002
0000
0003
0000
2000
0000
3000
0000
0200
0000
0000
0000
0320
0000
0000
0000
0032
0000
0000
0000
0203
0000
0300
0000
,
0102
0000
0000
0000
,
0000
0000
0000
0000
,
0000
0000
0000
0000
0000
0000
0000
0000
0000
0000
00M0
00M0
00M0
00M0
00M0
00M0
,
00M0
00M0
00M0
0000
0000
0000
0000
0000
0000
0000
0000
0000
0000
0000
00M0
00M0
,
00M0
00M0
00M0
0000
0000
0000
0000
0000
0000
0000
0000
0000
0000
0000
0000
0000
,
0000
0000
0000
0000
,
0000
0000
0000
0000
,
0000
0000
0000
0003
,
2001
3010
0100
0010
1000
0001
0010
0100
1000
0001
0100
0010
,
MM1M
0100
1000
0100
0010
0001
0100
0010
1000
0001
0010
0100
,
M1MM
0001
0100
0001
0100
0010
1000
0010
1000
0100
1000
0010
,
MM1M
0001
1000
0100
1000
0100
0010
0001
0010
0001
1000
0100
,
M1MM
0001
0010
0100
1000
0010
0100
0001
0010
0100
1000
0010
,
MM1M
0001
1000
0100
0010
0001
0100
0010
1000
0100
0010
0100
,
M1MM
0001
1000
0001
1000
0100
0010
0100
0010
0001
1000
0001
,
1000
0010
0100
0010
0100
0001
0010
0100
1000
0100
0010
0001
,
1002
0103
0010
0100
0001
1000
0100
0010
0001
1000
0010
0100
,
M1MM
0010
0001
0010
0100
1000
0010
0100
0001
1000
0100
0010
,
MM1M
1000
0010
1000
0010
0100
0001
0100
0001
0010
0001
0100
,
M1MM
1000
0001
0010
0001
0010
0100
1000
0100
1000
0001
0010
,
MM1M
1000
0100
0010
0001
0100
0010
1000
0100
0010
0001
0100
,
M1MM
1000
0001
0010
0100
1000
0010
0100
0001
0010
0100
0010
,
MM1M
1000
0001
1000
0001
0010
0100
0010
0100
1000
0001
1000
,
0002
0003
0000
0000
0000
0000
0000
0000
0000
0000
0000
0000
0000
0000
0000
0000
0200
0000
0300
0000
0000
0000
0000
0000
0000
0000
0000
0000
0000
0000
0000
0000
0020
0000
0000
0030
0000
0000
0000
0000
0000
0000
0000
0000
0000
0000
0000
0000
0200
0000
0000
0000
0300
0000
0000
0000
0000
0000
0000
0000
0000
0000
0000
0000
0020
0000
0000
0000
0000
0030
0000
0000
0000
0000
0000
0000
0000
0000
0000
0000
2000
0000
0000
0000
0000
0000
3000
0000
0000
0000
0000
0000
0000
0000
0000
0000
0200
0000
0000
0000
0000
0000
0000
0000
0300
0000
0000
0000
0000
0000
0000
0000
0020
0000
0000
0000
0000
0000
0000
0000
0000
0030
0000
0000
0000
0000
0000
0000
0002
0000
0000
0000
0000
0000
0000
0000
0000
0000
0003
0000
0000
0000
0000
0000
0020
0000
0000
0000
0000
0000
0000
0000
0000
0000
0000
0030
0000
0000
0000
0000
0200
0000
0000
0000
0000
0000
0000
0000
0000
0000
0000
0000
0300
0000
0000
0000
2000
0000
0000
0000
0000
0000
0000
0000
0000
0000
0000
0000
0000
3000
0000
0000
,
2002
0000
0000
0000
,
3003
0000
0000
0000
,
0000
0000
0000
0000
,
0000
0000
0000
0000
,
0000
0000
0000
0000
,
0001
0010
0100
1000
0010
0100
0010
1000
0100
0010
0001
0100
0010
0100
0001
0010
,
0100
0000
1000
0000
0010
0000
1000
0000
0100
0000
0000
0100
0000
0000
0010
0000
,
0001
0000
0100
0000
0001
0000
0010
0000
0100
1000
0001
1000
0100
0000
0010
0000
,
0001
0000
0100
0000
0001
0000
0010
0000
0100
0000
0000
0100
0000
0000
1000
0000
,
0010
0000
1000
0000
0100
0000
1000
0000
0010
0100
0001
0000
0100
0000
0010
0000
,
1001
0000
1000
0000
0100
0000
1000
0000
0001
0000
0000
0001
0000
0000
0100
0000
,
0001
0000
0010
0000
0001
0000
0100
0000
0001
1000
0010
1000
0001
0000
0010
0000
,
0100
0000
1000
0000
0010
0000
1000
0000
0100
0000
0000
0100
0000
0000
1000
0000
,
0001
0000
0100
0000
0001
0000
0010
0000
0001
1000
0001
0000
0100
0000
0010
0000
,
1001
0000
1000
0000
0100
0000
1000
0000
0001
0000
0000
0001
0000
0000
0100
0000
,
0010
0000
1000
0000
0100
0000
1000
0000
0010
0100
0001
0100
0010
0000
1000
0000
,
0100
0000
0010
0000
0001
0000
0010
0000
0100
0000
0000
0100
0000
0000
1000
0000
,
0001
0000
0100
0000
0001
0000
0010
0000
0001
1000
0010
0000
0100
0000
0001
0000
,
1001
0000
1000
0000
0010
0000
1000
0000
0100
0000
0000
0100
0000
0000
1000
0000
,
0001
0000
0100
0000
0001
0000
0010
0000
0001
1000
0100
1000
0001
0000
0100
0001
,
1000
0100
0010
0100
1000
0001
0010
0100
0010
0001
1000
0010
0100
0001
0010
0100
,
2000
0000
0000
0000
0000
0000
3000
0000
0000
0000
0000
0000
0000
0000
0000
0000
0000
0000
0001
1000
0001
1000
0001
1000
,
0001
0010
0001
1000
0010
1000
0001
0010
0100
1000
0001
0010
0001
1000
0010
1000
,
0001
0010
0100
1000
0001
0010
0001
1000
0010
1000
0001
0010
0100
1000
0001
1000
,
0001
1000
0100
1000
0001
0100
0001
1000
0100
0010
0001
1000
0100
1000
0001
0100
,
0001
1000
0100
0010
0001
1000
0100
1000
0001
0100
0001
1000
0100
0010
0001
1000
,
0001
0010
0001
1000
0010
1000
0001
0010
0100
1000
0001
0010
0001
1000
0010
1000
,
0001
0010
0100
1000
0001
0010
0001
1000
0010
1000
0001
0010
0100
1000
0001
1000
,
0001
1000
0100
1000
0001
0100
0001
1000
0100
0010
0001
1000
0100
1000
0001
0100
,
0001
1000
0100
0010
0001
1000
0100
1000
0001
0100
0001
1000
0100
0010
0001
1000
,
0001
0010
0100
1000
0001
0100
0001
1000
0010
1000
0001
0010
0100
1000
0001
0100
,
0001
1000
0010
1000
0001
1000
0100
0010
0001
1000
0010
1000
0001
0100
0001
1000
,
0100
0010
0001
1000
0010
1000
0001
0100
0001
1000
0100
0010
0001
1000
0100
1000
,
0001
0010
0100
1000
0001
0100
0001
1000
0010
1000
0001
0010
0100
1000
0001
0100
,
0001
1000
0010
1000
0001
1000
0100
0010
0001
1000
0010
1000
0001
0100
0001
1000
,
0100
0010
0001
1000
0010
1000
0001
0100
0001
1000
0100
0010
0001
1000
0100
1000
,
0001
0100
0010
1000
0001
0100
0010
1000
0010
0100
0001
1000
0010
0100
0001
0010
,
0100
0000
1000
0000
0010
0000
1000
0000
0100
0010
0001
0000
0100
0000
0010
0000
,
1000
0100
0010
0100
1000
0001
1000
0100
0010
0100
1000
0001
1000
0100
0010
0100
,
1000
0010
0100
0010
1000
0001
1000
0010
0100
0010
1000
0001
1000
0010
0100
0010
,
1000
0001
0100
0001
1000
0010
1000
0001
0100
0001
1000
0010
1000
0001
0100
0001
,
1000
0001
0010
0001
1000
0100
1000
0001
0010
0001
1000
0100
1000
0001
0010
0001
,
1000
0100
0010
0100
1000
0001
1000
0100
0010
0100
1000
0001
1000
0100
0010
0100
,
1000
0010
0100
0010
1000
0001
1000
0010
0100
0010
1000
0001
1000
0010
0100
0010
,
1000
0001
0100
0001
1000
0010
1000
0001
0100
0001
1000
0010
1000
0001
0100
0001
,
1000
0001
0010
0001
1000
0100
1000
0001
0010
0001
1000
0100
1000
0001
0010
0001
,
1000
0100
0010
0100
1000
0001
1000
0100
0010
0100
1000
0001
1000
0100
0010
0100
,
1000
0010
0100
0010
1000
0001
1000
0010
0100
0010
1000
0001
1000
0010
0100
0010
,
1000
0001
0100
0001
1000
0010
1000
0001
0100
0001
1000
0010
1000
0001
0100
0001
,
1000
0001
0010
0001
1000
0100
1000
0001
0010
0001
1000
0100
1000
0001
0010
0001
,
1000
0100
0010
0100
1000
0001
1000
0100
0010
0100
1000
0001
1000
0100
0010
0100
,
1000
0010
0100
0010
1000
0001
1000
0010
0100
0010
1000
0001
1000
0010
0100
0010
,
1000
0001
0100
0001
1000
0010
1000
0001
0100
0001
1000
0010
1000
0001
0100
0001
,
1000
0001
0010
0001
1000
0100
1000
0001
0010
0001
1000
0100
1000
0001
0010
0001
,
1000
0010
1000
0001
0010
0100
1000
0100
0010
0001
1000
0100
1000
0010
1000
0100
,
0010
0001
0100
0010
0100
0001
1000
0100
0010
0001
0100
0010
0100
0001
0010
0001
,
1000
0010
1000
0001
0100
0001
1000
0100
1000
0100
0010
0100
1000
0100
0010
0001
,
0100
0010
1000
0001
0010
0100
1000
0100
0010
0001
1000
0100
1000
0010
1000
0100
,
0010
0001
0100
0010
0100
0001
1000
0100
0010
0001
0100
0010
0100
0001
0010
0001
,
1000
0010
1000
0001
0100
0001
1000
0100
1000
0100
0010
0100
1000
0100
0010
0001
,
1000
0100
0010
0001
0100
0010
1000
0100
0010
0001
0100
0010
1000
0010
0100
0001
,
0010
0100
1000
0010
0100
0001
0010
0100
1000
0001
1000
0010
1000
0100
1000
0100
,
1000
0100
0010
0001
0100
0010
1000
0100
0010
0001
0100
0010
1000
0010
0100
0001
,
0010
0100
1000
0010
0100
0001
0010
0100
1000
0001
1000
0010
1000
0100
1000
0100
,
1000
0001
0100
0010
1000
0010
0100
0001
1000
0010
1000
0001
0100
0001
0010
0100
,
1000
0001
0100
0001
1000
0010
0100
0010
1000
0001
0100
0010
0100
0001
1000
0100
,
0010
0001
1000
0001
0010
0100
1000
0001
0010
0001
1000
0001
0100
0010
1000
0100
,
0010
0001
1000
0001
0010
0100
1000
0100
0010
0001
1000
0010
1000
0001
0100
0001
,
0010
0100
1000
0100
0010
0001
1000
0001
0100
0010
1000
0100
0010
0001
0100
0010
,
1000
0001
1000
0010
0100
0001
1000
0100
0010
0001
1000
0001
0100
0010
1000
0000
,
2002
3003
0000
0000
,
0002
0000
0000
0000
,
0023
0000
0000
0000
,
0230
0000
0000
0000
,
2300
0000
0000
0000
,
3002
0000
0000
0000
,
0203
0000
0000
0000
,
0320
0000
0000
0000
,
2030
0000
0000
0000
0000
0000
0000
0000
0000
0000
0000
0000
0000
3000
1000
0000
,
1200
0000
0001
0000
,
0320
0000
1000
0000
,
0032
0000
0100
0000
,
2003
0000
0100
0000
,
3020
0000
0001
0000
,
0230
0000
1000
0000
,
0302
0000
0010
0000
,
2003
0000
0001
0000
,
3002
0000
0000
0000
0000
0000
0000
0000
1000
0000
0000
0000
0000
0000
0000
0003
,
2002
0003
0010
0000
,
3200
0000
0010
0000
,
2300
0000
0010
0000
,
3002
0000
0100
0000
,
0023
0000
0100
0000
,
0032
0000
0100
0000
,
2003
0000
0100
0000
,
3020
0000
0000
0000
0000
0000
0000
0000
0100
0000
0000
0000
0000
0000
0000
0030
,
2MM2
3003
0000
0000
,
0000
0000
0000
0000
,
0000
0000
0000
0000
,
0001
0010
0100
1000
0010
0100
0010
1000
0100
0010
0001
0100
0010
0100
0001
0010
,
0100
0000
1000
0000
0010
0000
1000
0000
0100
0000
0000
0100
0000
0000
0010
0000
,
0001
0000
0100
0000
0001
0000
0010
0000
0100
1000
0001
1000
0100
0000
0010
0000
,
0001
0000
0100
0000
0001
0000
0010
0000
0100
0000
0000
0100
0000
0000
1000
0000
,
0010
0000
1000
0000
0100
0000
1000
0000
0010
0100
0001
0000
0100
0000
0010
0000
,
1001
0000
1000
0000
0100
0000
1000
0000
0001
0000
0000
0001
0000
0000
0100
0000
,
0001
0000
0010
0000
0001
0000
0100
0000
0001
1000
0010
1000
0001
0000
0010
0000
,
0100
0000
1000
0000
0010
0000
1000
0000
0100
0000
0000
0100
0000
0000
1000
0000
,
0001
0000
0100
0000
0001
0000
0010
0000
0001
1000
0001
0000
0100
0000
0010
0000
,
1001
0000
1000
0000
0100
0000
1000
0000
0001
0000
0000
0001
0000
0000
0100
0000
,
0010
0000
1000
0000
0100
0000
1000
0000
0010
0100
0001
0100
0010
0000
1000
0000
,
0100
0000
0010
0000
0001
0000
0010
0000
0100
0000
0000
0100
0000
0000
1000
0000
,
0001
0000
0100
0000
0001
0000
0010
0000
0001
1000
0010
0000
0100
0000
0001
0000
,
1001
0000
1000
0000
0010
0000
1000
0000
0100
0000
0000
0100
0000
0000
1000
0000
,
0001
0000
0100
0000
0001
0000
0010
0000
0001
1000
0100
1000
0001
0000
0100
0001
,
1000
0100
0010
0100
1000
0001
0010
0100
0010
0001
1000
0010
0100
0010
1000
0001
,
0020
0000
0000
0000
0000
0000
0000
0000
0000
0000
0000
0000
0030
0000
0000
0000
0000
0000
0001
1000
0001
1000
0001
1000
,
0001
0010
0001
1000
0010
1000
0001
0010
0100
1000
0001
0010
0001
1000
0010
1000
,
0001
0010
0100
1000
0001
0010
0001
1000
0010
1000
0001
0010
0100
1000
0001
1000
,
0001
1000
0100
1000
0001
0100
0001
1000
0100
0010
0001
1000
0100
1000
0001
0100
,
0001
1000
0100
0010
0001
1000
0100
1000
0001
0100
0001
1000
0100
0010
0001
1000
,
0001
0010
0001
1000
0010
1000
0001
0010
0100
1000
0001
0010
0001
1000
0010
1000
,
0001
0010
0100
1000
0001
0010
0001
1000
0010
1000
0001
0010
0100
1000
0001
1000
,
0001
1000
0100
1000
0001
0100
0001
1000
0100
0010
0001
1000
0100
1000
0001
0100
,
0001
1000
0100
0010
0001
1000
0100
1000
0001
0100
0001
1000
0100
0010
0001
1000
,
0001
0010
0100
1000
0001
0100
0001
1000
0010
1000
0001
0010
0100
1000
0001
0100
,
0001
1000
0010
1000
0001
1000
0100
0010
0001
1000
0010
1000
0001
0100
0001
1000
,
0100
0010
0001
1000
0010
1000
0001
0100
0001
1000
0100
0010
0001
1000
0100
1000
,
0001
0010
0100
1000
0001
0100
0001
1000
0010
1000
0001
0010
0100
1000
0001
0100
,
0001
1000
0010
1000
0001
1000
0100
0010
0001
1000
0010
1000
0001
0100
0001
1000
,
0100
0010
0001
1000
0010
1000
0001
0100
0001
1000
0100
0010
0001
1000
0100
1000
,
0001
0100
0010
1000
0001
0100
0010
1000
0010
0100
0001
1000
0010
0100
0001
1000
,
01M0
0000
1000
0000
0010
0000
1000
0000
0100
0010
0001
0000
1000
0000
0010
0000
,
M11M
0000
0000
0000
M11M
0000
0000
0000
M11M
0000
0000
M11M
0000
0000
M11M
0000
,
M11M
0000
0100
0010
1000
0001
0010
0100
1000
0100
0010
0001
1000
0100
1000
0010
,
1000
0100
0010
0001
0100
0010
0100
0001
1000
0100
0010
0001
0100
0010
0100
0001
,
0010
0001
1000
0010
1000
0001
0100
0001
1000
0100
1000
0100
0010
0100
1000
0000
,
1MM1
0000
0000
0000
1MM1
0000
0000
0000
1MM1
0000
0000
1MM1
0000
0000
1MM1
0000
,
1MM1
0000
1000
0100
0010
0001
0100
0010
1000
0100
0010
0001
0100
0010
1000
0010
,
0100
0001
0010
0100
1000
0010
0100
0001
0010
0100
1000
0001
1000
0010
1000
0100
,
1000
0100
1000
0100
0010
0001
0100
0010
1000
0100
0010
0001
0100
0010
1000
0000
,
MM11
0000
0000
0000
MM11
0000
0000
0000
MM11
0000
0000
MM11
0000
0000
MM11
0000
,
MM11
0000
0010
0001
1000
0010
0100
0001
0010
0100
0010
0100
1000
0001
0010
0001
,
1000
0010
0100
0001
1000
0001
0100
0010
1000
0100
0010
0001
1000
0100
0010
0100
,
1000
0001
0100
0010
1000
0010
0100
0001
1000
0010
0100
0010
1000
0001
0010
0000
,
MM11
0000
0000
0000
MM11
0000
0000
0000
MM11
0000
0000
MM11
0000
0000
MM11
0000
,
MM11
0000
0010
0001
1000
0100
0010
0001
0100
0010
0100
0001
0100
0010
1000
0001
,
1000
0100
0010
0001
1000
0001
0010
0100
1000
0001
0010
0100
0010
0001
1000
0001
,
0100
0010
1000
0010
0100
0001
1000
0001
0100
0010
1000
0100
0010
0001
1000
0000
,
1001
1010
1001
0011
,
1001
1100
1001
0011
,
1001
1010
0101
1001
,
1100
0000
0000
0000
0110
0000
0000
0000
1001
0000
0000
1001
0000
0000
1001
0000
,
1001
0110
1010
0101
,
0011
1100
0110
1001
,
1100
1010
0101
0011
,
0110
0000
0000
0000
1001
0000
0000
0000
0100
0001
1000
0100
0010
0000
0001
0000
,
1001
1000
1000
1000
,
0100
0100
0100
0100
,
0010
0010
0010
0010
,
0001
0000
0000
0000
0001
0000
0000
0000
0001
0000
0000
0001
0000
0000
0001
0000
,
1000
1000
0010
0010
,
0100
0100
0001
0001
,
1000
0100
0010
0001
,
1001
0000
0000
0000
,
1000
0000
0000
0000
;
