#TITLE:Sacrament of Wilderness;
#SUBTITLE:Oceanborn (1998);
#ARTIST:Nightwish;
#TITLETRANSLIT:;
#SUBTITLETRANSLIT:;
#ARTISTTRANSLIT:;
#CREDIT:;
#BANNER:BN.jpg;
#BACKGROUND:BG.jpg;
#LYRICSPATH:;
#CDTITLE:Baq12-cd.png;
#MUSIC:Nightwish-04-Sacrament of Wilderness.mp3;
#OFFSET:-1.400;
#SAMPLESTART:100.000;
#SAMPLELENGTH:12.000;
#SELECTABLE:YES;
#BPMS:0.000=145.520;
#STOPS:;
#BGCHANGES:;
// cache tags:
#FIRSTBEAT:0.000;
#LASTBEAT:598.000;
#SONGFILENAME:Songs/Astronomic Metal Collection 2/(Baq12) Sacrament of Wilderness/Nightwish-04-Sacrament of Wilderness.sm;
#HASMUSIC:1;
#HASBANNER:1;
#MUSICLENGTH:251.485;
// end cache tags

//---------------dance-single - ----------------
#NOTES:
     dance-single:
     :
     Challenge:
     12:
     1.000,1.000,1.000,1.000,1.000,1729.000,484.000,285.000,0.000,25.000:
0100
0010
0100
0010
0100
0000
0020
0030
0002
0003
2000
3000
0200
0300
0020
0030
,
0002
0003
2000
3000
0200
0300
0020
0030
0022
0030
2000
3000
0200
0300
0023
0030
,
0100
0010
0100
0010
0100
0000
0020
0030
0002
0003
2000
3000
0200
0300
0020
0030
,
0002
0003
2000
3000
0200
0300
0020
0030
0102
0003
2020
0000
3030
0000
0202
0303
,
0100
0010
0100
0010
0100
0000
0020
0030
0002
0003
2000
3000
0200
0300
0020
0030
,
0002
0003
1010
0000
0110
0000
0011
0000
0101
0000
1010
0000
1100
0000
0011
0000
,
0100
0010
0100
0010
0100
0000
0020
0030
0102
0003
2000
3000
0200
0300
0020
0030
,
0002
0003
1010
0000
0110
0000
0011
0000
0101
0000
2020
0000
3030
0000
0202
0303
,
0001
0000
1000
0000
0101
0000
0010
0000
0001
0000
1000
0001
0110
0000
0010
0100
,
0001
0000
0100
0010
1001
0000
0000
0000
0010
0100
0010
0100
0011
0000
0010
0000
,
0001
0000
1000
0000
0110
0000
0010
0000
0001
0000
1000
0100
1001
0000
0010
0100
,
0010
0000
0001
1000
0110
0000
0000
0000
0001
0100
0001
0100
0011
0100
0001
0100
,
0001
0000
1000
0000
0101
0000
0010
0000
0001
0000
1000
0010
1100
0000
0010
0001
,
0100
0000
0010
0100
1010
0000
0000
0000
1000
0010
1000
0010
1100
0000
0010
0000
,
0001
0000
1000
0000
0101
0000
0010
0000
0001
0000
1000
0010
1001
0000
0100
0010
,
0001
0000
0010
0000
0001
0000
0010
0000
0001
0000
0010
0000
0100
0000
1000
0000
0100
0000
1000
0000
0100
0000
1000
0000
0101
0000
0000
0101
0000
0000
0000
0000
0000
0000
0000
0000
0011
0000
0000
0011
0000
0000
0000
0000
0000
0000
0000
0000
,
0001
0100
1000
0100
0011
0100
1000
0100
0001
0100
1000
0100
1010
0100
1000
0100
,
0001
0100
1000
0100
0011
0100
1000
0100
0001
0100
1000
0100
1010
0100
1000
0100
,
1000
0010
0001
0010
1100
0010
0001
0010
1000
0010
0001
0010
0101
0010
0001
0010
,
1000
0010
0001
0010
1100
0010
0001
0010
1000
0010
0001
0010
0101
0010
0001
0010
,
0001
0010
1000
0010
0101
0010
1000
0010
0001
0010
1000
0010
1100
0010
1000
0010
,
0001
0010
0100
1000
0001
0010
0100
1000
0001
0100
0010
1000
0001
0100
0010
1000
,
0010
0000
0000
0001
0000
0000
0010
0000
0000
0100
0000
0000
1000
0000
0000
0010
0000
0000
0100
0000
0000
0010
0000
0000
0200
0000
0000
0000
0000
0000
0000
0000
0000
0000
0010
0000
0301
0000
0000
0000
0000
0000
0010
0000
0000
0000
0000
0000
,
0202
0000
0303
0000
1000
0000
1000
0000
1000
1000
1000
0000
1000
0000
1000
0010
,
0202
0000
0303
0000
1000
0000
1000
0000
1000
1000
1000
0000
1000
0000
1000
0010
,
1000
0001
1000
1000
0010
1000
1000
0100
,
1000
1000
1000
1000
1000
1000
2002
3003
,
2020
0000
3030
0000
1010
0000
1010
0000
1010
1010
1010
0000
1010
0000
1010
1010
,
2020
0000
3030
0000
1010
0000
1010
0000
1010
1010
1010
0000
1010
0000
0110
0000
,
0202
0000
0303
0000
0101
0000
0101
0000
0101
0101
0101
0000
0101
0000
0101
0101
,
0202
0000
0303
0000
0101
0000
0101
0000
0101
0000
0101
0000
0202
0000
0000
0303
,
0220
0000
0330
0000
0110
0000
0110
0000
0110
0110
0110
0000
0110
0000
0110
0110
,
0220
0000
0330
0000
0110
0000
0110
0000
0110
0110
0110
0000
0000
0000
1010
0000
,
2001
0000
0000
0000
0100
0000
0000
0000
0010
0000
0010
0000
0001
0000
0010
3010
,
2100
0000
0000
0000
0000
0000
0000
0000
0010
0000
0100
0000
0001
0000
0100
3001
,
2020
0000
3030
0000
1010
0000
1010
0000
1010
1010
1010
0000
1010
0000
1010
1010
,
2020
0000
3030
0000
1010
0000
1010
0000
1010
1010
1010
0000
1010
0000
0110
0000
,
0202
0000
0303
0000
0101
0000
0101
0000
0101
0101
0101
0000
0101
0000
0101
0101
,
0202
0000
0303
0000
0101
0000
0101
0000
0101
0000
0101
0000
0202
0000
0000
0303
,
0220
0000
0330
0000
0110
0000
0110
0000
0110
0110
0110
0000
0110
0000
0110
0110
,
0220
0000
0330
0000
0110
0000
0110
0000
0110
0110
0110
0000
0000
0000
1010
0000
,
2001
0000
0000
0000
0100
0000
0000
0000
0000
0000
0000
0000
0001
0000
0000
3000
,
0001
0000
0010
0000
0100
0000
1000
0000
0000
0100
0000
0000
0001
0000
0010
0000
0100
0000
1000
0000
0000
0100
0000
0000
0001
0000
0010
0000
0100
0000
1000
0000
0000
0100
0000
0000
0001
0000
0000
0000
0000
0000
0001
0000
0000
0000
0000
0000
,
0001
0100
1000
0100
0011
0100
1000
0100
0001
0100
1000
0100
1010
0100
1000
0100
,
0001
0100
1000
0100
0011
0100
1000
0100
0001
0100
1000
0100
1010
0100
1000
0100
,
1000
0010
0001
0010
1100
0010
0001
0010
1000
0010
0001
0010
0101
0010
0001
0010
,
1000
0010
0001
0010
1100
0010
0001
0010
1000
0010
0001
0010
0101
0010
0001
0010
,
0001
0010
1000
0010
0101
0010
1000
0010
0001
0010
1000
0010
1100
0010
1000
0010
,
0001
0010
0100
1000
0001
0010
0100
1000
0001
0100
0010
1000
0001
0100
0010
1000
,
0010
0001
0010
0100
1000
0010
0100
0001
2020
0000
3030
0000
1010
0000
1010
0000
,
1010
1010
1010
0000
1010
0000
1010
1010
2020
0000
3030
0000
1010
0000
1010
0000
,
1010
1010
1010
0000
1010
0000
0110
0000
0202
0000
0303
0000
0101
0000
0101
0000
,
0101
0101
0101
0000
0101
0000
0101
0101
0202
0000
0303
0000
0101
0000
0101
0000
,
0101
0000
0101
0000
0202
0000
0000
0303
0220
0000
0330
0000
0110
0000
0110
0000
,
0110
0110
0110
0000
0110
0000
0110
0110
0220
0000
0330
0000
0110
0000
0110
0000
,
0110
0110
0110
0000
0000
0000
1010
0000
2001
0000
0000
0000
0100
0000
0000
0000
,
0010
0000
0010
0000
0001
0000
0010
3010
2100
0000
0000
0000
0000
0000
0000
0000
,
0010
0000
0100
0000
0001
0000
0100
3001
2020
0000
3030
0000
1010
0000
1010
0000
,
1010
1010
1010
0000
1010
0000
1010
1010
2020
0000
3030
0000
1010
0000
1010
0000
,
1010
1010
1010
0000
1010
0000
0110
0000
0202
0000
0303
0000
0101
0000
0101
0000
,
0101
0101
0101
0000
0101
0000
0101
0101
0202
0000
0303
0000
0101
0000
0101
0000
,
0101
0000
0101
0000
0202
0000
0000
0303
0220
0000
0330
0000
0110
0000
0110
0000
,
0110
0110
0110
0000
0110
0000
0110
0110
0220
0000
0330
0000
0110
0000
0110
0000
,
0110
0110
0110
0000
0000
0000
1010
0000
2001
0000
0000
0000
0100
0000
0000
0000
,
0000
0000
0000
0000
0001
0000
0000
3000
0101
0010
1000
0101
1000
0010
0101
1000
,
0101
0000
0010
0000
1000
0000
0100
0000
0002
0000
0000
0000
0000
0000
0000
0000
2023
3030
0100
0000
1001
0000
0010
0000
0100
0000
1000
0000
0110
0000
0001
0000
,
0100
0010
0101
0010
0100
0001
1010
0100
0001
1000
0110
0001
1000
0100
1001
0010
,
0100
0000
1000
0000
0011
0000
0100
0000
0010
0000
0001
0000
1100
0000
0010
0000
0220
0330
0001
0000
1010
0000
0100
0000
0001
0000
1000
0000
0011
0000
0100
0000
,
1000
0000
0010
0000
0101
0000
1000
0000
0100
0000
0010
0000
1001
0000
0010
0000
0202
0303
1000
0000
0110
0000
0001
0000
1000
0000
0100
0000
1010
0000
0001
0000
,
0100
0000
0010
0000
0101
0000
0010
0000
0101
0000
0010
0000
0100
0000
1000
0000
0022
0033
0100
0000
1010
0000
0100
0000
0010
0000
0001
0000
0110
0000
1000
0000
,
0010
0100
1001
0100
0010
0001
1100
0010
0100
0001
0110
1000
0010
0100
0011
0100
,
1000
0000
0010
0000
1001
0000
0100
0000
0001
0000
0100
0000
1010
0000
0001
0000
2200
3300
0010
0000
0101
0000
0010
0000
0100
0000
1000
0000
0110
0000
0001
0000
,
1000
0100
1010
0100
0001
0010
0101
1000
0001
0010
0100
1000
0001
0010
0100
1000
,
0001
0000
0100
0000
0010
0000
1000
0000
0001
0000
0100
0000
0010
0000
1000
0000
0202
0303
0010
0000
1001
0000
0010
0000
0100
0000
1000
0000
0110
0000
0001
0000
,
1000
0010
0101
1000
0010
0100
0011
1000
0010
0100
1010
0001
0100
0010
1100
0010
,
0001
0000
0100
0000
1001
0000
0010
0000
0100
0000
0001
0000
0110
0000
1000
0000
2200
3300
0010
0000
0101
0000
1000
0000
0010
0000
0100
0000
0011
0000
1000
0000
,
0010
0000
0100
0000
1001
0000
0010
0000
0100
0000
0010
0000
0100
0000
1000
0000
0022
0033
0100
0000
1010
0000
0220
0330
0001
0000
1000
0000
0220
0330
0001
0000
,
0022
0033
1000
0000
0101
0000
0220
0330
1000
0000
0100
0000
2020
3030
0100
0000
0022
0033
1000
0000
0110
0000
0001
0000
1000
0000
0010
0000
1100
0000
0001
0000
,
0100
0010
1001
0100
0010
1000
0101
0010
0100
1000
0110
0001
1000
0010
1100
0010
,
0001
0000
1000
0000
0101
0000
0010
0000
1000
0000
0100
0000
0011
0000
0100
0000
0202
0303
1000
0000
0110
0000
1000
0000
0001
0000
0010
0000
1100
0000
0010
0000
,
0001
1000
0101
0010
1000
0100
1010
0100
0001
0010
0100
1000
0001
0010
0100
1000
,
0001
0100
0010
1000
0001
0100
0010
1000
0001
0000
1000
0000
0101
0000
0010
0000
,
0001
0000
1000
0001
0110
0000
0010
0100
0001
0000
0100
0010
1001
0000
0000
0000
,
0010
0100
0010
0100
0011
0000
0010
0000
0001
0000
1000
0000
0110
0000
0010
0000
,
0001
0000
1000
0100
1001
0000
0010
0100
0010
0000
0001
1000
0110
0000
0000
0000
,
0001
0100
0001
0100
0011
0100
0001
0100
0001
0000
1000
0000
0101
0000
0010
0000
,
0001
0000
1000
0010
1100
0000
0010
0001
0100
0000
0010
0100
1010
0000
0000
0000
,
1000
0010
1000
0010
1100
0000
0010
0000
0001
0000
1000
0000
0101
0000
0010
0000
,
0001
0000
0000
0000
0000
0000
1000
0000
0000
0010
0000
0000
1001
0000
0000
0000
0000
0000
0100
0000
0010
0000
0100
0000
1001
0000
0000
0000
0000
0000
1000
0000
0000
0000
0000
0000
0100
0000
0000
0000
0000
0000
0010
0000
0000
0000
0000
0000
,
0001
0000
1000
0000
0100
0000
0010
0000
0001
0000
0100
0010
0200
0000
0000
0000
,
0000
0000
0300
0000
0100
0000
0010
0000
0001
0000
0010
0100
1000
0000
0100
0000
,
0020
0000
0000
0030
0020
0032
0000
0000
,
0003
0000
0002
0000
0000
0000
0013
0001
,
0010
0000
0000
0000
0100
0000
0000
0000
1000
0000
0000
0000
0100
0000
0000
0000
0010
0000
0000
0000
0100
0000
0000
0000
1000
0000
0000
0100
0000
0000
0010
0000
0000
0100
0000
0000
0010
0000
0000
0100
0000
0000
1000
0000
0000
0100
0000
0000
,
0010
0001
0100
0010
0200
0000
0000
0000
0000
0000
0302
0000
0000
0000
0000
0000
,
0023
0000
0000
0000
0000
0000
0000
0000
0000
0000
0000
0000
0000
0000
0000
0030
0020
0000
0000
0000
0000
0000
0000
0000
0000
0000
0000
0000
0000
0000
0000
0030
0001
0000
0000
0000
0010
0000
0000
0000
0100
0000
0000
0000
1000
0000
0000
0000
0001
0000
0000
0000
0010
0000
0000
0000
0100
0000
0000
0000
1000
0000
0000
0000
,
0001
0010
0100
0010
0100
1000
0001
0100
0010
0100
1000
0100
0001
0010
0100
0010
,
0200
0000
0000
0000
0000
0000
0000
0000
0322
0000
0133
1000
0100
0001
0220
0330
,
0202
1303
0220
0330
0100
1000
0202
0303
1000
0100
2002
3003
0100
1000
0202
0303
,
2000
3200
2300
3200
2300
3200
2300
3200
0322
0000
0133
1000
0100
0001
0220
0330
,
0202
1303
0220
0330
0100
1000
0100
0010
1000
0100
0010
0100
0010
0001
1000
0100
,
0020
0000
0000
0000
0000
0000
0000
0030
0022
0000
0133
1000
0100
0001
0220
0330
,
0202
1303
0220
0330
0100
1000
0202
0303
1000
0100
2002
3003
0100
1000
0202
0303
,
0200
0000
0000
0300
2000
3200
2300
3200
0322
0000
0133
1000
0100
0001
0220
0330
,
0202
1303
0220
0330
0100
1000
0100
0010
1000
0100
0010
0100
0010
0001
1000
0100
,
0020
0000
0000
0000
0000
0000
0000
0030
1002
0000
0000
0000
0100
0000
0000
0000
,
0010
1000
0123
1000
,
0231
0000
0000
0000
0000
0000
0010
0001
0010
0000
0000
0000
0001
0000
0000
0000
2310
0000
0000
0000
0000
0000
0000
0000
0100
0000
0000
0000
0000
0000
0000
0000
,
0010
0001
3210
1000
,
1320
0000
0000
0000
0000
0000
0100
1000
0100
0000
0000
0000
0100
0000
0000
0000
0132
0000
0000
0000
0000
0000
0000
0000
0010
0000
0000
0000
0000
0000
0000
0000
,
0100
1000
0123
1000
,
0231
0000
0000
0000
0000
0000
0010
0001
0010
0000
0000
0000
0010
0000
0000
0000
2310
0000
0000
0000
0000
0000
0000
0000
0100
0000
0000
0000
0000
0000
0000
0000
,
0001
0000
0000
0000
0000
0000
0000
0000
0010
0000
0000
0000
0000
0000
0100
0010
3201
0000
0000
0000
0010
0000
0000
0000
0000
0000
0000
0000
0010
0000
0000
0000
,
0321
0000
0100
0000
1000
0000
0000
0000
0031
0100
0001
0000
0000
0000
1000
0010
,
1000
0000
0000
0000
0001
0000
0000
0000
0000
0000
0010
0100
0001
0000
0000
0000
,
0010
0200
0000
0000
0302
0000
0013
0100
,
0020
0000
0000
0000
0000
0000
0000
0000
2030
0000
0000
0000
0000
0000
0000
0000
3001
0000
0010
0000
0100
0000
1000
0000
0100
0000
0010
0000
0100
0000
0010
0100
,
0001
0000
0000
0010
0000
0000
0100
0000
0000
1000
0000
0000
0100
0000
0000
0010
0000
0000
0100
0000
0000
0010
0000
0000
0001
0000
0010
0000
0100
0000
0010
0000
0100
0000
1000
0000
0100
0000
0010
0000
0100
0000
0010
0000
0100
0000
0000
0000
,
0002
0000
0000
0000
0000
0000
0000
0000
0000
0000
0000
0000
0000
0000
0000
0000
0003
0000
0000
0000
0000
0000
0010
0000
0001
0000
0000
0000
0000
0000
0010
0000
0001
0000
0000
0010
0000
0000
0001
0000
0000
0010
0000
0000
0001
0000
0000
0010
0000
0000
0001
0000
0000
0010
0000
0000
0001
0000
0000
0010
0000
0000
0001
0000
,
0000
0010
0000
0000
0001
0000
0000
0010
0000
0000
0001
0000
0000
0010
0000
0000
0001
0000
0000
0010
0000
0000
0001
0000
0000
0010
0000
0000
0001
0000
0000
0000
0001
0000
0000
0000
0010
0000
0000
0000
0100
0000
0000
0000
0010
0000
0000
0000
0100
0000
0000
0000
1000
0000
0000
0000
0100
0000
0000
0000
0010
0000
0000
0000
,
0100
0000
0000
0010
0000
0000
0100
0000
0000
1000
0000
0000
0010
0000
0000
0100
0000
0000
0010
0000
0000
0100
0000
0000
0001
0000
0000
0010
0000
0000
0001
0000
0010
0000
0100
0000
1000
0000
0001
0000
0010
0000
0100
0000
1000
0000
0100
0000
,
0010
0000
0100
0000
0001
0000
0010
0000
0100
0000
0001
0000
0010
0000
0100
0000
0001
0000
0200
0000
0000
0000
0000
0000
0000
0000
0000
0000
0000
0000
0301
0000
0000
0010
0000
0000
0100
0000
0000
0010
0000
0000
0100
0000
0000
1000
0000
0000
,
0010
0100
0001
0010
0100
0001
1000
0010
0100
1000
0100
0001
0010
0100
0010
0100
,
2000
0000
0000
0000
0000
0000
0000
0000
0000
0000
0000
0000
0000
0000
0000
0000
3022
0033
0100
0000
1001
0000
0010
0000
0100
0000
1000
0000
0110
0000
0001
0000
,
0100
0010
0101
0010
0100
0001
1010
0100
0001
1000
0110
0001
1000
0100
1001
0010
,
0100
0000
1000
0000
0011
0000
0100
0000
0010
0000
0001
0000
1100
0000
0010
0000
0220
0330
0001
0000
1010
0000
0100
0000
0001
0000
1000
0000
0011
0000
0100
0000
,
1000
0000
0010
0000
0101
0000
1000
0000
0100
0000
0010
0000
1001
0000
0010
0000
0202
0303
1000
0000
0110
0000
0001
0000
1000
0000
0100
0000
1010
0000
0001
0000
,
0100
0000
0010
0000
0101
0000
0010
0000
0101
0000
0010
0000
0100
0000
1000
0000
0022
0033
0100
0000
1010
0000
0100
0000
0010
0000
0001
0000
0110
0000
1000
0000
,
0010
0100
1001
0100
0010
0001
1100
0010
0100
0001
0110
1000
0010
0100
0011
0100
,
1000
0000
0000
0010
0000
0000
1001
0000
0000
0100
0000
0000
0001
0000
0000
0100
0000
0000
1010
0000
0000
0001
0000
0000
2200
0000
3300
0010
0000
0000
0101
0000
0000
0010
0000
0000
0100
0000
0000
1000
0000
0000
0110
0000
0000
0001
0000
0000
,
1000
0100
1010
0100
0001
0010
0101
1000
0001
0100
0001
0000
0001
0100
0001
0000
,
0000
0000
0001
0000
0100
0000
0001
0000
0000
0000
0001
0000
0010
0000
0100
0000
2020
3030
0100
0000
1001
0000
0010
0000
0100
0000
1000
0000
0110
0000
0001
0000
,
0100
0010
0101
0010
0100
0001
1010
0100
0001
1000
0110
0001
1000
0100
1001
0010
,
0100
0000
1000
0000
0011
0000
0100
0000
0010
0000
0001
0000
1100
0000
0010
0000
0220
0330
0001
0000
1010
0000
0100
0000
0001
0000
1000
0000
0011
0000
0100
0000
,
1000
0000
0010
0000
0101
0000
1000
0000
0100
0000
0010
0000
1001
0000
0010
0000
0100
0000
1000
0000
0110
0000
0001
0000
2200
3300
0000
0000
2020
3030
0000
0000
,
0100
0000
0010
0000
0101
0000
0010
0000
0202
0303
0000
0000
0220
0330
0000
0000
0001
0000
0100
0000
1010
0000
0100
0000
0010
0000
0001
0000
0110
0000
1000
0000
,
0010
0100
1001
0100
0010
0001
1100
0010
0100
0001
0110
1000
0010
0100
0011
0100
,
1000
0000
0010
0000
1001
0000
0100
0000
0001
0000
0100
0000
1010
0000
0001
0000
2200
3300
0010
0000
0101
0000
0010
0000
0100
0000
1000
0000
0110
0000
0001
0000
,
1000
0100
1010
0100
0001
0010
0101
1000
0001
0010
0100
1000
0001
0010
0100
1000
,
0001
0000
0100
0000
0010
0000
1000
0000
0001
0000
0100
0000
0010
0000
1000
0000
0202
0303
0010
0000
1001
0000
0010
0000
0100
0000
1000
0000
0110
0000
0001
0000
,
1000
0010
0101
1000
0010
0100
0011
1000
0010
0100
1010
0001
0100
0010
1100
0010
,
0001
0000
0100
0000
1001
0000
0010
0000
0100
0000
0001
0000
0110
0000
1000
0000
2002
3003
0010
0000
0101
0000
1000
0000
0010
0000
0100
0000
0011
0000
1000
0000
,
0010
0000
0100
0000
1001
0000
0010
0000
0100
0000
0010
0000
0101
0000
1000
0000
0010
0000
0100
0000
1010
0000
0100
0000
0022
0033
0000
0000
2200
3300
0000
0000
,
0010
0000
1000
0000
0101
0000
0010
0000
2020
3030
0000
0000
0022
0033
0000
0000
0001
0000
1000
0000
0110
0000
0001
0000
1000
0000
0010
0000
1100
0000
0001
0000
,
0100
0010
1001
0100
0010
1000
0101
0010
0100
1000
0110
0001
1000
0010
1100
0010
,
0001
0000
1000
0000
0101
0000
0010
0000
1000
0000
0100
0000
0011
0000
0100
0000
0202
0303
1000
0000
0110
0000
1000
0000
0001
0000
0010
0000
1100
0000
0010
0000
,
0001
1000
0101
0010
1000
0100
1010
0100
1001
0010
0100
1010
0000
0010
0101
1000
,
0011
0000
0000
0100
0000
0000
0010
0000
0000
1100
0000
0000
0001
0000
0000
0100
0000
0000
0011
0000
0000
1000
0000
0000
0001
0000
0010
0000
0100
0000
0010
0000
0100
0000
1000
0000
0010
0000
0100
0000
0001
0000
0010
0000
0100
0000
0010
0000
,
0001
0000
0010
0000
0100
0000
0010
0000
0100
0000
0001
0000
2000
0000
0000
0000
0000
0000
0000
0000
0000
0000
0000
0000
3002
0000
0000
0023
0000
0000
0032
0000
0000
0023
0000
0000
0032
0000
0000
0023
0000
0000
0032
0000
0000
0023
0000
0000
,
0032
0023
0032
0023
2032
0000
0000
0000
3003
0000
0000
0000
0000
0000
0000
0000
;
