#TITLE:Purple storm;
#SUBTITLE:;
#ARTIST:Trick Trap;
#TITLETRANSLIT:;
#SUBTITLETRANSLIT:;
#ARTISTTRANSLIT:;
#CREDIT:;
#BANNER:Purple storm.png;
#BACKGROUND:Purple storm-bg.png;
#LYRICSPATH:;
#CDTITLE:./CDTITLES/GUITAR FREAKS & DRUMMANIA.PNG;
#MUSIC:Purple storm.mp3;
#OFFSET:-0.120;
#SAMPLESTART:40.520;
#SAMPLELENGTH:10.000;
#SELECTABLE:YES;
#BPMS:0.000=240.000;
#STOPS:;
#BGCHANGES:;
// cache tags:
#FIRSTBEAT:12.000;
#LASTBEAT:405.000;
#SONGFILENAME:Songs/toune 3/Purple storm/Purple storm.sm;
#HASMUSIC:1;
#HASBANNER:1;
#MUSICLENGTH:104.192;
// end cache tags

//---------------dance-single - ----------------
#NOTES:
     dance-single:
     :
     Beginner:
     2:
     0.184,0.243,0.048,0.000,0.000,129.000,5.000,0.000,0.000,0.000:  // measure 1
0000
0000
0000
0000
,  // measure 2
0000
0000
0000
0000
,  // measure 3
0000
0000
0000
0000
,  // measure 4
0010
0000
0000
0100
,  // measure 5
0000
0000
0001
0000
,  // measure 6
0000
1000
0000
0000
,  // measure 7
0100
0000
0000
0000
,  // measure 8
0000
0000
0010
0000
,  // measure 9
0000
0100
0000
0000
,  // measure 10
0001
0000
0000
1001
,  // measure 11
0000
0000
1000
0000
,  // measure 12
0000
0100
0000
0000
,  // measure 13
1000
0000
0000
0010
,  // measure 14
0000
0000
0001
0000
,  // measure 15
0000
0100
0000
0000
,  // measure 16
0001
0000
0000
1000
,  // measure 17
0000
0000
0010
0000
,  // measure 18
0000
0100
0000
0000
,  // measure 19
0001
0000
0000
1000
,  // measure 20
0000
0000
0010
0000
,  // measure 21
0000
1000
0000
0000
,  // measure 22
0100
0000
0000
0000
,  // measure 23
0000
0000
0010
0000
,  // measure 24
0000
1001
0000
0000
,  // measure 25
0100
0000
0000
1001
,  // measure 26
0000
0000
0010
0000
,  // measure 27
0000
0001
0000
0000
,  // measure 28
0010
0000
0000
1000
,  // measure 29
0000
0000
0100
0000
,  // measure 30
0000
1000
0000
0000
,  // measure 31
0001
0000
0000
1000
,  // measure 32
0000
0000
0010
0000
,  // measure 33
0000
1000
0000
0000
,  // measure 34
0001
0000
0000
0100
,  // measure 35
0000
0000
0001
0000
,  // measure 36
0000
0000
0100
0100
,  // measure 37
0100
0000
0000
0000
,  // measure 38
0010
0010
0010
0000
,  // measure 39
0000
0000
0001
0001
,  // measure 40
0001
0000
0000
0000
,  // measure 41
1000
1000
1000
0000
,  // measure 42
0000
0000
0000
0000
,  // measure 43
0000
0000
0000
0100
,  // measure 44
0000
0000
0000
0000
,  // measure 45
0000
0000
0000
0000
,  // measure 46
1001
0000
0000
0100
,  // measure 47
0000
0000
0010
0000
,  // measure 48
0000
1000
0000
0000
,  // measure 49
0001
0000
0000
1000
,  // measure 50
0000
0000
0001
0000
,  // measure 51
0000
0000
0000
0000
,  // measure 52
0000
0000
0000
1000
,  // measure 53
0000
0000
0000
0000
,  // measure 54
0000
0000
0000
0000
,  // measure 55
0100
0000
0000
0001
,  // measure 56
0000
0000
1000
0000
,  // measure 57
0000
0010
0000
1000
,  // measure 58
0000
0100
0000
1000
,  // measure 59
0000
0001
0000
0010
,  // measure 60
0010
0000
0001
0000
,  // measure 61
0100
0000
0001
0000
,  // measure 62
0000
1000
1000
1000
,  // measure 63
0000
0100
0000
0010
,  // measure 64
0000
0001
0000
0010
,  // measure 65
0000
0001
0000
1000
,  // measure 66
0000
0001
0000
1000
,  // measure 67
0000
0100
0000
0000
,  // measure 68
0010
0010
0000
0000
,  // measure 69
0001
0000
0000
1000
,  // measure 70
0000
0000
0100
0000
,  // measure 71
0000
1000
0000
0000
,  // measure 72
0000
0000
0000
0001
,  // measure 73
0000
0000
0100
0000
,  // measure 74
0000
0010
0000
0000
,  // measure 75
1000
0000
0000
0100
,  // measure 76
0000
0000
1000
0000
,  // measure 77
0000
0001
0000
0000
,  // measure 78
1000
0000
0000
0010
,  // measure 79
0000
0000
0100
0000
,  // measure 80
0000
0001
0000
0000
,  // measure 81
1000
0000
0000
0001
,  // measure 82
0000
0000
0010
0000
,  // measure 83
0000
0100
0000
0000
,  // measure 84
1000
0000
0000
0001
,  // measure 85
0000
0000
0000
0000
,  // measure 86
0000
0000
0000
0000
,  // measure 87
1000
0000
0000
0000
,  // measure 88
0000
0000
0000
0000
,  // measure 89
0000
0010
0000
0000
,  // measure 90
0100
0000
0000
0001
,  // measure 91
0000
0000
1000
0000
,  // measure 92
0000
0001
0000
0000
,  // measure 93
1000
0000
0000
0100
,  // measure 94
0000
0000
0010
0000
,  // measure 95
0000
1000
0000
0000
,  // measure 96
0001
0000
0000
1000
,  // measure 97
0000
0000
0100
0000
,  // measure 98
0000
0010
0000
0000
,  // measure 99
0100
0000
0000
1000
,  // measure 100
0000
0000
0001
0000
,  // measure 101
0000
1000
0000
0000
,  // measure 102
0000
1001
0000
0000
;

//---------------dance-single - ----------------
#NOTES:
     dance-single:
     :
     Easy:
     5:
     0.431,0.534,0.211,0.096,0.000,282.000,22.000,10.000,0.000,0.000:  // measure 1
0000
0000
0000
0000
,  // measure 2
0000
0000
0000
0000
,  // measure 3
0000
0000
0000
0000
,  // measure 4
0100
0000
0000
0010
,  // measure 5
0000
0000
1000
0000
,  // measure 6
0000
1001
0000
0000
,  // measure 7
0001
0010
0100
0010
,  // measure 8
1000
0100
0110
0000
,  // measure 9
0000
1001
0000
0000
,  // measure 10
0110
0000
0000
1001
,  // measure 11
0000
0000
0010
0000
,  // measure 12
0000
1000
0000
0000
,  // measure 13
0001
0100
0001
1000
,  // measure 14
0000
1000
0100
0000
,  // measure 15
0000
0110
0000
0000
,  // measure 16
0010
0000
0000
1001
,  // measure 17
0000
0000
0001
0000
,  // measure 18
1000
0001
0000
1000
,  // measure 19
0100
0010
0001
1000
,  // measure 20
0000
0000
1000
0001
,  // measure 21
0100
0010
0100
0001
,  // measure 22
0020
0000
0000
0030
,  // measure 23
0000
0000
0100
0000
,  // measure 24
1000
0100
0000
0001
,  // measure 25
0100
0000
0001
1000
,  // measure 26
0000
0010
0100
0010
,  // measure 27
0100
1000
0001
1000
,  // measure 28
0001
0100
0001
1000
,  // measure 29
0010
1000
0100
0000
,  // measure 30
1000
0100
0000
0001
,  // measure 31
0100
0001
0010
1000
,  // measure 32
0000
0000
1000
0000
,  // measure 33
0000
0001
1000
0100
,  // measure 34
0010
0100
0010
0001
,  // measure 35
0100
0010
1000
0010
,  // measure 36
0010
1000
0100
0100
,  // measure 37
0001
0010
0010
0001
,  // measure 38
0100
0100
0001
0010
,  // measure 39
0010
1000
0100
0100
,  // measure 40
1000
0010
0010
0001
,  // measure 41
0100
0000
0001
0000
1001
0000
0000
0100
,  // measure 42
0000
0000
0010
0000
0000
0100
0000
0000
,  // measure 43
0001
0100
0001
1000
,  // measure 44
0000
0100
0000
0000
1000
0000
0000
0100
,  // measure 45
0000
0010
0100
0001
,  // measure 46
1001
0000
0000
0010
0000
0000
0001
0000
,  // measure 47
0000
0010
0000
0000
1000
0000
0000
0010
,  // measure 48
0000
0000
1000
0000
0000
0100
0000
0000
,  // measure 49
1000
0000
0000
0001
0000
0000
0001
0000
,  // measure 50
1000
0000
0100
0000
0010
0000
0000
0010
,  // measure 51
0000
0000
0010
0000
0000
0010
0000
0000
,  // measure 52
0100
0010
0100
1000
,  // measure 53
0000
1000
0000
0000
1000
0000
0000
1000
,  // measure 54
0000
0001
1000
0100
,  // measure 55
0001
0000
0000
1000
0000
0000
0001
0000
,  // measure 56
0000
0100
0000
0000
1000
0000
0000
0001
,  // measure 57
0000
0010
0100
0010
,  // measure 58
1000
0100
0000
0010
,  // measure 59
0100
0010
0001
0100
,  // measure 60
0000
0001
1000
0100
,  // measure 61
0010
0100
0001
1000
,  // measure 62
0001
0100
0100
1000
,  // measure 63
0100
0010
0001
0010
,  // measure 64
0001
1000
0001
0100
,  // measure 65
0010
0100
1000
0010
,  // measure 66
1000
0001
0100
0001
,  // measure 67
0010
0100
0010
1000
,  // measure 68
0010
0100
0000
0010
,  // measure 69
0001
1000
0100
1000
,  // measure 70
0001
0100
0001
1000
,  // measure 71
0010
0200
0000
0000
,  // measure 72
0000
0000
0300
1001
,  // measure 73
0000
0000
0110
0000
,  // measure 74
0000
1001
0000
0000
,  // measure 75
0110
0000
0000
1001
,  // measure 76
0000
0000
1000
0000
,  // measure 77
0000
1001
0000
0000
,  // measure 78
0001
0000
0000
0110
,  // measure 79
0000
0000
0010
0000
,  // measure 80
0000
0110
0000
0000
,  // measure 81
0100
0000
0000
1001
,  // measure 82
0000
0000
0101
0000
,  // measure 83
0000
1100
0000
0000
,  // measure 84
0010
1000
0001
2000
,  // measure 85
0000
3020
0000
0000
0230
0000
0000
0302
,  // measure 86
0000
0103
0001
1000
,  // measure 87
0020
0000
0000
2030
0000
0000
3002
0000
,  // measure 88
0000
0203
0000
0000
0301
0000
0100
0000
,  // measure 89
0001
0000
1001
0000
0000
1000
0000
0000
,  // measure 90
0001
0000
0000
1000
0000
0000
0010
0000
,  // measure 91
0000
0100
0000
0000
0001
0000
0000
0100
,  // measure 92
0000
0000
1000
0000
0000
0001
0000
0000
,  // measure 93
0100
0000
0000
1000
0000
0000
0010
0000
,  // measure 94
0001
1000
0001
1000
,  // measure 95
0100
1000
0010
0100
,  // measure 96
0001
0010
0100
0010
,  // measure 97
1000
0010
1000
0100
,  // measure 98
0001
0100
0001
1000
,  // measure 99
0010
0100
0010
1000
,  // measure 100
0100
0010
0001
0010
,  // measure 101
1000
0001
0100
1000
,  // measure 102
0100
1001
0000
0000
;

//---------------dance-single - ----------------
#NOTES:
     dance-single:
     :
     Medium:
     7:
     0.594,0.680,0.432,0.461,0.000,340.000,45.000,48.000,0.000,0.000:  // measure 1
0000
0000
0000
0000
,  // measure 2
0000
0000
0000
0000
,  // measure 3
0000
0000
0000
0000
,  // measure 4
0101
0000
0000
1001
0000
0000
0101
0000
,  // measure 5
0000
1001
0000
0000
1100
0000
0000
1001
,  // measure 6
0000
0000
0100
0000
0000
1001
0000
0000
,  // measure 7
0010
0001
1000
0100
,  // measure 8
0010
1000
0002
0000
,  // measure 9
0003
2000
0000
3000
,  // measure 10
0020
0000
0030
0220
,  // measure 11
0000
0330
0010
1000
,  // measure 12
0100
0010
0001
0100
,  // measure 13
0001
0100
0010
1000
,  // measure 14
0100
0010
1000
0001
,  // measure 15
1000
0001
0100
0001
,  // measure 16
1000
0010
0100
0220
,  // measure 17
0000
0330
1000
0001
,  // measure 18
0100
0001
1000
0100
,  // measure 19
0001
0010
0100
2000
,  // measure 20
0000
3000
1000
0010
,  // measure 21
1000
0100
0010
0100
,  // measure 22
2002
0000
0000
3003
,  // measure 23
0000
0000
1001
0010
,  // measure 24
0100
0001
0100
0010
,  // measure 25
1000
0100
0010
1000
,  // measure 26
0001
0100
0001
0101
,  // measure 27
0101
1000
1100
1100
,  // measure 28
0010
0110
0110
0010
,  // measure 29
0100
0010
1000
0001
,  // measure 30
1000
0100
1000
0001
,  // measure 31
0100
0010
0100
0002
,  // measure 32
0000
0003
0010
0001
,  // measure 33
0010
0100
1000
0100
,  // measure 34
0020
0000
0030
1000
,  // measure 35
0010
0001
0100
0001
,  // measure 36
1000
0100
0110
0110
,  // measure 37
0010
0100
0010
1000
,  // measure 38
1001
1001
0001
0100
,  // measure 39
0010
0100
0101
0101
,  // measure 40
1000
0100
0010
0100
,  // measure 41
1100
0000
0001
0000
0200
0000
0000
0302
,  // measure 42
0000
0000
2003
0000
0000
3020
0000
0000
,  // measure 43
1030
0100
1000
0002
,  // measure 44
0000
0023
0000
0000
0032
0000
0000
2003
,  // measure 45
0000
3100
0010
1000
,  // measure 46
2001
0000
0000
3200
0000
0000
0320
0000
,  // measure 47
0000
2030
0000
0000
3002
0000
0000
0203
,  // measure 48
0000
0000
0302
0000
0000
2003
0000
0000
,  // measure 49
3002
0000
0000
0203
0000
0000
0310
0000
,  // measure 50
0100
0000
0001
0000
2000
0000
0000
3200
,  // measure 51
0000
0000
2300
0000
0000
3002
0000
0000
,  // measure 52
0013
0001
0010
0002
,  // measure 53
0000
0023
0000
0000
0230
0000
0000
2300
,  // measure 54
0000
3100
1000
0001
,  // measure 55
0001
0000
0000
0101
0000
0000
1000
0000
,  // measure 56
0000
1100
0000
0000
0010
0000
0000
1010
,  // measure 57
0000
0001
1000
0001
,  // measure 58
0100
0010
1000
0100
,  // measure 59
0010
1000
0100
0100
,  // measure 60
0010
0100
0001
1000
,  // measure 61
0001
0010
0001
1000
,  // measure 62
0100
0110
1001
0001
,  // measure 63
0010
0001
1000
0010
,  // measure 64
1000
0100
0010
1000
,  // measure 65
0001
0100
0001
1000
,  // measure 66
0010
1000
0100
0010
,  // measure 67
0100
0001
1000
0110
,  // measure 68
1001
0002
0000
1003
,  // measure 69
0100
1000
0001
0100
,  // measure 70
0010
0100
0001
0010
,  // measure 71
0100
2000
0000
3000
,  // measure 72
1001
1001
1001
0001
,  // measure 73
0100
0001
1000
0100
,  // measure 74
1000
0010
0001
0010
,  // measure 75
1000
0010
1000
0001
,  // measure 76
0100
0001
1000
0100
,  // measure 77
1000
0001
0010
0001
,  // measure 78
1000
0010
0100
1001
,  // measure 79
0100
0010
0001
0010
,  // measure 80
0100
1000
0100
0010
,  // measure 81
1000
0010
0001
1000
,  // measure 82
0100
0001
0100
0010
,  // measure 83
1000
0001
0010
0100
,  // measure 84
0010
1000
0001
0200
,  // measure 85
0000
0320
0000
0000
0230
0000
0000
2300
,  // measure 86
0000
3001
1000
0100
,  // measure 87
0020
0000
0000
0032
0000
0000
0023
0000
,  // measure 88
0000
0230
0000
0000
1300
0000
0100
0000
,  // measure 89
1000
0000
1001
0000
0000
0010
0000
0000
,  // measure 90
0110
0000
0000
1000
0000
0000
1001
0000
,  // measure 91
0000
0001
0000
0000
0101
0000
0000
1000
,  // measure 92
0000
0000
1100
0000
0000
1001
0000
0000
,  // measure 93
0110
0000
0000
1001
0000
0000
0001
0000
,  // measure 94
0100
0001
1000
0010
,  // measure 95
0100
1000
0100
0010
,  // measure 96
0001
0010
1000
0001
,  // measure 97
0100
0001
1000
0010
,  // measure 98
0100
1000
0100
0001
,  // measure 99
0100
0010
1000
0010
,  // measure 100
0001
1000
0100
0001
,  // measure 101
0100
0010
1000
0001
,  // measure 102
1000
1001
0000
0000
;

//---------------dance-single - ----------------
#NOTES:
     dance-single:
     :
     Hard:
     8:
     0.687,0.680,0.384,0.509,0.000,408.000,40.000,53.000,0.000,0.000:  // measure 1
0000
0000
0000
0000
,  // measure 2
0000
0000
0000
0000
,  // measure 3
0000
0000
0000
0000
,  // measure 4
1010
0000
0000
1001
0000
0000
0101
0000
,  // measure 5
0000
1001
0000
0000
0110
0000
0000
1001
,  // measure 6
0000
0000
0010
0000
0000
1001
0000
0000
,  // measure 7
1000
0000
0100
1000
0001
0000
0010
0000
,  // measure 8
1000
0000
0001
0100
0001
0000
0100
0000
,  // measure 9
0100
0010
1000
1000
,  // measure 10
0100
0001
0001
0220
,  // measure 11
0000
0330
1000
0010
,  // measure 12
0100
0001
1000
0000
0001
0000
1000
0100
,  // measure 13
1000
0000
0010
0000
1000
0001
0100
0000
,  // measure 14
0001
0000
0010
0001
0010
0000
0001
0000
,  // measure 15
1000
0100
1000
0001
,  // measure 16
0100
0001
0010
0200
,  // measure 17
0000
0300
0010
1000
,  // measure 18
0001
0010
0001
0000
1000
0000
0100
0010
,  // measure 19
1000
0001
0100
0001
1000
0100
1000
0000
,  // measure 20
0001
0000
1000
0000
0001
0010
0001
1000
,  // measure 21
0100
1000
0100
0010
0100
1000
0001
0100
,  // measure 22
0001
1000
0001
2002
,  // measure 23
0000
3003
0110
0010
,  // measure 24
1000
0100
1000
0000
0001
0000
0010
0001
,  // measure 25
0010
1000
0001
0100
,  // measure 26
1000
0100
1000
1001
,  // measure 27
1001
0010
0110
0110
,  // measure 28
0001
0100
1000
1001
,  // measure 29
1010
1001
1000
0100
,  // measure 30
0001
1000
0100
0000
0010
0000
0100
0001
,  // measure 31
0100
1000
0001
0022
,  // measure 32
0000
0000
0033
0000
0001
0010
0100
0000
,  // measure 33
1000
0000
0100
1000
0001
0000
1000
0000
,  // measure 34
0100
0000
1000
0000
0010
0100
0010
0000
,  // measure 35
0001
0000
1000
0000
0100
0000
1000
0100
,  // measure 36
1000
0001
1001
1001
,  // measure 37
0010
0000
0100
0010
0100
0000
0010
0000
,  // measure 38
1100
0000
1100
0000
0001
0000
1000
0001
,  // measure 39
1000
0001
0101
0101
,  // measure 40
0001
0000
1000
0001
0100
0000
0010
0000
,  // measure 41
0100
0000
0001
0000
2000
0000
0000
3200
,  // measure 42
0000
0000
0320
0000
0000
0032
0000
0000
,  // measure 43
0013
0100
1000
0002
,  // measure 44
0000
2003
0000
0000
3200
0000
0000
0320
,  // measure 45
0000
0130
0001
1000
,  // measure 46
2001
0000
0000
3020
0000
0000
0032
0000
,  // measure 47
0000
2003
0000
0000
3200
0000
0000
2300
,  // measure 48
0000
0000
3200
0000
0000
0320
0000
0000
,  // measure 49
0032
0000
0000
2003
0000
0000
3010
0000
,  // measure 50
0100
0000
0001
0000
2000
0000
0000
3002
,  // measure 51
0000
0000
2003
0000
0000
3002
0000
0000
,  // measure 52
1003
0100
1000
0002
,  // measure 53
0000
0203
0000
0000
0320
0000
0000
0230
,  // measure 54
0000
1300
0001
0100
,  // measure 55
1001
0000
0000
0110
0000
0000
1001
0000
,  // measure 56
0000
0101
0000
0000
1100
0000
0000
0101
,  // measure 57
0000
1000
0100
1000
,  // measure 58
0001
0100
0001
1000
,  // measure 59
0010
0100
1000
0001
,  // measure 60
0010
0001
1000
0100
,  // measure 61
1000
0010
0100
0001
,  // measure 62
1000
1001
0110
0001
,  // measure 63
1000
0100
1000
0010
,  // measure 64
0100
0001
0010
0001
,  // measure 65
1000
0010
1000
0100
,  // measure 66
1000
0001
0100
0001
,  // measure 67
0010
0100
0010
1001
,  // measure 68
0110
0000
0002
0000
0000
0000
1003
0100
,  // measure 69
0010
0100
1000
0001
,  // measure 70
0100
0010
1000
0001
,  // measure 71
0100
2000
0000
3000
,  // measure 72
1001
1001
1001
0001
,  // measure 73
0100
0001
0100
0000
1000
0000
0100
1000
,  // measure 74
0100
0000
0010
0000
0001
0010
0001
0000
,  // measure 75
1000
0000
0010
1000
0010
0000
0100
0000
,  // measure 76
0010
1000
0001
0000
0100
0000
0010
0001
,  // measure 77
0100
0000
0001
0000
0100
0001
0100
0000
,  // measure 78
1000
0000
0100
1000
0100
0000
0010
0000
,  // measure 79
0100
0010
0001
0000
0010
0000
0100
0010
,  // measure 80
1000
0000
0001
0000
1000
0001
0100
0000
,  // measure 81
0010
0000
1000
0100
1000
0000
0001
0000
,  // measure 82
0100
0001
0100
0000
0010
0000
0001
0010
,  // measure 83
1000
0000
1000
0000
1000
0100
0001
0000
,  // measure 84
0100
0010
0100
0002
,  // measure 85
0000
2003
0000
0000
3200
0000
0000
0320
,  // measure 86
0000
0130
0001
1000
,  // measure 87
0020
0000
0000
0230
0000
0000
0302
0000
,  // measure 88
0000
2003
0000
0000
3100
0000
1000
0000
,  // measure 89
0001
0000
1002
0000
0000
0023
0000
0000
,  // measure 90
0032
0000
0000
0023
0000
0000
0230
0000
,  // measure 91
0000
2300
0000
0000
3200
0000
0000
2300
,  // measure 92
0000
0000
3002
0000
0000
2003
0000
0000
,  // measure 93
3001
0100
0001
1000
,  // measure 94
0100
1000
0001
0000
0100
0000
0010
0100
,  // measure 95
0010
0000
0001
0000
0010
1000
0001
0000
,  // measure 96
0100
0000
0010
1000
0100
0000
1000
0000
,  // measure 97
0100
1000
0100
0000
0001
0000
0100
0001
,  // measure 98
0100
0000
0010
0000
0001
0010
1000
0000
,  // measure 99
0100
0000
0001
0100
1000
0000
0100
0000
,  // measure 100
1000
0100
0001
0000
0010
0000
0100
0010
,  // measure 101
0100
0001
1000
0100
,  // measure 102
0010
1001
0000
0000
;
