#TITLE:Meido Kakumei Sakuya -MILLION KNIFE;
#SUBTITLE:;
#ARTIST:BeatMario;
#TITLETRANSLIT:;
#SUBTITLETRANSLIT:;
#ARTISTTRANSLIT:;
#CREDIT:;
#BANNER:million-bn.jpg;
#BACKGROUND:million-bg.jpg;
#LYRICSPATH:;
#CDTITLE:cdtitle-r.png;
#MUSIC:Meido Kakumei Sakuya -MILLION KNIFE.mp3;
#OFFSET:-0.581;
#SAMPLESTART:23.820;
#SAMPLELENGTH:25.000;
#SELECTABLE:YES;
#BPMS:0.000=165.000;
#STOPS:;
#BGCHANGES:;
// cache tags:
#FIRSTBEAT:0.000;
#LASTBEAT:290.000;
#SONGFILENAME:Songs/Hard Songs Megapack Volume 9/Meido Kakumei Sakuya -MILLION KNIFE/Meido Kakumei Sakuya -MILLION KNIFE.sm;
#HASMUSIC:1;
#HASBANNER:1;
#MUSICLENGTH:114.599;
// end cache tags

//---------------dance-single - Copied from----------------
#NOTES:
     dance-single:
     Copied from:
     Hard:
     14:
     1.000,1.000,1.000,0.070,1.000,854.000,321.000,8.000,0.000,19.000:
1001
0000
0000
0000
0000
0000
0000
0000
0000
0000
0000
0000
0010
0100
1000
0100
0010
0001
0010
0100
1000
0100
0010
0001
0010
0100
1000
0100
0010
0001
0010
0100
,
1000
0100
0010
0100
0010
0001
0010
0100
1000
0000
0000
0000
0011
0000
0100
0000
0011
0000
0100
0000
0011
0000
0100
0000
1010
0000
0100
0000
1010
0000
0100
0000
,
1001
0000
0000
0000
0000
0000
0000
0000
0000
0000
0000
0000
1000
0100
0010
0001
0010
0100
1000
0100
0010
0001
0010
0100
1000
0100
0010
0001
1000
0100
0010
0001
,
0010
0100
1000
0100
0010
0001
0010
0100
1000
0000
0000
0000
0101
0000
0010
0000
0101
0000
0010
0000
0101
0000
0010
0000
1100
0000
0010
0000
1100
0000
0010
0000
,
1001
0000
0000
0000
0000
0000
0000
0000
0000
0000
0000
0000
0100
0010
0001
0010
0100
1000
0100
0010
0001
0010
0100
0010
0001
0010
0100
1000
0100
0010
0001
0010
,
1100
0010
0001
0010
0100
1000
0100
0010
0001
0000
0000
0000
1100
0000
0010
0000
1100
0000
0010
0000
1100
0000
0010
0000
0101
0000
0010
0000
0101
0000
0010
0000
,
1100
0000
0000
0000
0000
0000
0000
0000
0000
0000
0000
0000
0001
0010
0100
1000
0110
0001
0010
0100
1000
0100
0010
0001
0010
0100
0010
0001
0010
0100
1000
0100
,
0011
0100
1000
0100
0010
0001
0010
0100
1001
0000
0000
0000
0011
0000
0100
0000
0011
0000
0100
0000
0011
0000
1100
0000
1100
0000
0010
0000
0101
0000
0010
0000
,
1101
0000
0000
0000
0100
0000
0000
0000
1010
0000
0000
0000
0001
0010
0100
1000
0101
0010
0001
0010
0100
1000
0100
0010
1001
0010
0100
1000
0001
0010
0100
1000
,
0101
0010
0001
0010
0100
1000
0100
0010
0101
0000
0000
0000
1001
0000
0010
0000
1001
0000
0010
0000
1001
0000
0010
0000
1100
0000
0010
0000
1100
0000
0010
0000
,
1101
0000
0000
0000
0010
0000
0000
0000
1100
0000
0000
0000
0001
0010
0100
1000
0011
0100
1000
0100
0010
0001
0010
0100
1010
0100
0010
0001
0010
0100
0010
0001
,
0110
1000
0100
0010
0001
0010
0100
1000
0101
0000
0000
0000
0101
0000
0010
0000
0101
0000
0010
0000
0101
0000
0010
0000
1100
0000
0010
0000
1100
0000
0010
0000
,
1101
0000
0000
0000
0010
0000
0000
0000
0101
0000
0000
0000
1000
0100
0010
0001
0110
1000
0100
0010
0001
0010
0100
0010
0101
1000
0100
0010
0001
0010
0100
1000
,
0110
0001
0010
0100
1000
0100
0010
0001
1010
0000
0000
0000
0110
0000
0001
0000
0110
0000
0001
0000
0110
0000
0001
0000
1010
0000
0001
0000
1010
0000
0001
0000
,
1110
0000
0000
0000
0001
0000
0000
0000
1100
0000
0000
0000
0001
0010
0100
1000
0110
0001
0010
0100
1000
0001
0010
0100
1001
0010
0100
1000
0100
0010
0001
0010
,
2202
0000
0000
0000
3303
0000
0000
0000
1100
1100
0011
0000
1100
0000
1100
0000
,
1001
0000
0100
0011
0100
0000
1010
0000
0101
0000
0101
0000
1010
0000
0101
0000
,
1000
0000
0010
0010
0110
0000
0001
0001
0000
0100
0100
0000
1010
0000
0001
0001
,
1010
1000
0100
0010
1001
1000
0100
0010
1001
0001
1010
0000
1010
0000
0101
0000
,
0000
0000
0010
0000
0011
0000
0100
0000
0110
0000
1000
0100
1010
0000
0010
0000
,
0101
0000
0010
0101
1000
0000
0110
0000
1001
0000
1001
0000
0011
0000
0011
0000
,
1100
0100
0100
0100
1010
0010
0010
0010
0101
0100
0010
0000
1001
0000
1000
1000
,
0101
0100
0010
0001
1100
0100
0010
0001
0110
0000
0110
0000
1010
0000
1010
0000
,
0100
0000
0001
0000
1001
0000
0010
0000
1010
0000
0100
0001
1010
0000
1010
0000
,
0110
0000
0001
1010
0100
0000
0011
0000
1100
0000
1100
0000
0101
0000
0101
0000
,
1010
0000
0100
0100
0110
0000
1000
1000
0000
0010
0010
0000
0101
0000
1000
1000
,
0101
0001
0010
0100
1001
0001
0010
0100
1001
0000
1001
0000
0101
0000
0101
0000
,
0000
0000
0100
0000
1100
0000
0001
0000
0110
0100
0100
0000
1001
0000
1001
0000
,
1010
0000
0100
1010
0001
0000
1100
0000
0110
0000
0110
0000
1001
0000
1001
0000
,
0110
0010
0010
0010
0101
0100
0100
0100
1010
0000
1010
0000
0101
0000
0001
0001
,
1010
0010
0100
1000
0011
0010
0100
1000
0110
0010
0010
0000
0101
0000
2001
0000
,
0110
0000
0001
0000
0110
0000
0001
0000
0110
0000
0001
0100
3011
0000
0011
0000
,
1001
0000
0100
0000
1010
0001
0000
0100
0000
0010
0000
0001
0110
1000
0100
0000
,
0001
0000
1000
0000
0101
0010
0000
1000
0000
0100
0000
0001
0110
0000
1000
0000
,
0001
0000
0100
0000
1001
0010
0000
0100
0000
0010
0000
1000
0110
0001
0010
0100
,
0001
0000
0100
0000
0011
0100
0000
0001
0000
0010
0000
0100
1010
0000
0001
0000
,
0100
0000
0001
0000
1010
0001
0000
0100
0000
0010
0000
1000
0110
0001
0010
0000
,
1000
0000
0001
0000
0110
1000
0000
0100
0000
0010
0000
0100
0011
0000
0100
0000
,
1000
0000
0001
0000
0110
0001
0000
0010
0000
0100
0000
0010
0101
1000
0100
0010
,
0101
0000
0010
0000
0100
1000
0000
0010
0000
0100
0000
0001
1010
0000
1010
0000
,
1010
0000
0011
0000
1100
1100
0000
0011
0000
1010
0000
0101
0101
1000
0101
0000
,
1010
0000
1010
0000
1100
1100
0000
0011
0000
0110
0000
0011
0011
0000
1100
0000
,
1001
0000
0110
0000
1001
1001
0000
0110
0000
1010
0000
0101
0101
0010
1100
0010
,
0101
0000
1010
0000
0101
0101
0000
0110
0000
1100
0000
0011
0011
0000
0101
0000
,
1001
0000
0110
0000
1010
1010
0000
0110
0000
1100
0000
0011
0011
0100
1001
0000
,
0110
0000
1010
0000
0101
0101
0000
0110
0000
1100
0000
1001
1001
0000
1010
0000
,
1100
0000
1100
0000
0011
0011
0000
0101
0000
0110
0000
1100
1100
0010
0101
0010
,
1001
0000
0101
0000
1010
1010
0100
0010
1001
1001
0010
0101
0101
0000
0101
0000
,
1001
0000
0000
0000
1100
0000
0010
0000
0000
0000
0001
0010
1010
0100
0010
0000
,
1001
0000
0000
0000
1100
0000
0001
0000
0000
0000
0010
0100
1100
0010
0001
0000
,
1010
0000
0000
0000
1001
0000
0010
0000
0000
0000
0001
0100
0110
1000
0101
0010
,
1001
0000
0000
0001
0000
0000
1001
0000
0000
0001
0000
0000
1001
0000
0000
0010
0001
0010
1100
0000
0000
1100
0000
0000
,
1001
0000
0000
0000
0011
0000
0100
0000
0000
0000
1000
0100
0101
0010
1000
0000
,
0101
0000
0000
0000
0011
0000
1000
0000
0000
0000
0100
0010
0011
0100
1000
0000
,
0011
0100
0011
0100
0011
0100
0011
0100
,
1011
0000
0000
1110
0000
0000
0111
0000
1101
0000
0000
0000
0011
0000
0010
0000
,
1001
0000
0100
0000
0011
0000
0001
0000
1000
0000
0001
0010
1010
0100
0010
0001
,
1100
0010
1001
0001
0100
0010
0110
1000
,
0010
0001
0010
1000
0011
0100
1001
0010
,
0101
0000
0100
0000
0101
0000
0100
0000
0101
0000
0100
0010
0101
0000
0100
0000
,
1001
0000
0010
0000
1100
0000
0100
0000
0010
0000
1000
0100
0101
0010
0100
1000
,
0011
0100
0011
0100
1000
0010
0101
0010
,
0100
0001
1000
0010
0101
0001
1010
0010
,
0101
0000
0010
0000
2001
0000
0001
0000
0100
0000
0001
0010
3101
0000
0101
0000
,
0101
0000
0010
0000
1100
0000
0100
0000
0010
0000
1000
0100
0101
0010
0100
1000
,
0101
0001
1001
1000
0010
0100
0110
0001
,
0100
0010
0100
0010
0100
0001
0100
0001
,
1100
0000
0010
0000
0102
0000
1000
0000
0010
0000
1000
0100
1013
0000
1010
0000
,
1001
0000
0100
0000
0011
0000
0100
0000
1010
0000
0100
0010
1010
0001
0010
0100
,
1001
0100
1001
0001
0100
0010
1100
0010
,
0100
0001
0010
0100
1010
0100
0011
0100
,
1011
0000
0000
0000
0000
0000
1110
0000
0000
0000
0000
0000
1101
0000
0000
0000
1101
0000
0000
0000
0000
0000
0000
0000
0010
0100
0010
0100
0010
0000
0010
0000
,
2002
0000
3003
0000
;
