#TITLE:Ventilator;
#SUBTITLE:DJMAX Trilogy O.S.T;
#ARTIST:Cycle75;
#TITLETRANSLIT:;
#SUBTITLETRANSLIT:;
#ARTISTTRANSLIT:;
#CREDIT:ALICE_;
#BANNER:Ventilator.png;
#BACKGROUND:Ventilator.jpg;
#LYRICSPATH:;
#CDTITLE:cdtitle.png;
#MUSIC:Ventilator.mp3;
#OFFSET:-0.622;
#SAMPLESTART:60.160;
#SAMPLELENGTH:22.620;
#SELECTABLE:YES;
#BPMS:0.000=145.000,96.000=72.500,103.000=145.000,104.000=145.000;
#STOPS:103.125=0.105
,103.375=0.100
,103.625=0.105
,103.875=0.105
;
#BGCHANGES:;
// cache tags:
#FIRSTBEAT:0.000;
#LASTBEAT:232.500;
#SONGFILENAME:Songs/alice 4th complete step/Ventilator/Ventilator.sm;
#HASMUSIC:1;
#HASBANNER:1;
#MUSICLENGTH:106.616;
// end cache tags

//---------------dance-single - ----------------
#NOTES:
     dance-single:
     :
     Hard:
     10:
     1.000,1.000,0.450,0.188,1.000,692.000,48.000,20.000,0.000,0.000:
1000
0000
0001
0100
0010
1000
0100
0010
0000
0000
0000
0000
0000
0000
0000
0000
,
0000
0000
0000
0000
0000
0000
0000
0000
0100
1000
0001
0100
0010
1000
0010
0100
,
0001
1000
0100
0010
1000
0010
0000
0100
0000
0000
0000
0000
0000
0000
0000
0000
,
0000
0000
0000
0000
,
1001
0000
0100
0010
1000
0100
0001
0100
0000
0000
0000
0000
0000
0000
0000
0000
,
0000
0000
0000
0000
0000
0000
0000
0000
0100
1000
0001
0010
0001
1000
0010
0100
,
0001
0010
1000
0010
0001
0100
0000
0010
0000
0000
0000
0000
0000
0000
0000
0000
,
0000
0000
0000
0000
1000
0100
1000
0000
0001
0100
0001
0202
0303
0000
0000
0000
,
1000
0100
0010
0001
0100
0010
0001
0010
0000
0000
1001
0000
0000
0000
0110
0000
,
0000
0100
0001
0010
0000
0100
1000
0010
0000
0100
0010
0001
0010
1000
0100
0010
,
0001
1000
0100
0010
1000
0010
0100
1000
0000
0000
0110
0000
0000
0000
1001
0000
,
0000
0100
1000
0010
0000
0100
0001
0010
0000
0010
1000
0001
0100
1000
0100
0010
,
1000
0001
1000
0100
1000
0010
1000
0001
0000
0000
0101
0000
0000
0000
1100
0000
,
0000
0001
0010
0100
0000
1000
0010
0100
0000
0001
0010
0100
1000
0010
0100
0010
,
1000
0001
0100
0010
0001
0010
0100
0010
0000
0000
0101
0000
0000
0000
1010
0000
,
0000
0100
1000
0010
0000
0010
1000
0001
0100
0001
0010
0001
0100
1000
0100
0010
,
1000
0000
1000
0000
0100
1000
0100
1000
0010
0100
0010
0000
0100
0001
0100
0001
,
0010
0100
0010
0000
0001
1000
0100
1000
0010
0001
0010
0000
1000
0001
0100
0001
,
0010
1000
0100
0001
0100
1000
0001
0010
0100
1000
0100
0000
1000
0010
0100
0010
,
1000
0001
0010
0000
0001
1000
0100
1000
0010
0001
0100
0000
0220
0000
0330
0000
,
0001
0100
0001
0000
0010
0001
0010
0001
0100
0010
1000
0000
0100
1000
0100
1000
,
0010
0100
0001
0000
1000
0001
1000
0010
0100
0001
0000
1100
0000
0001
0010
0001
,
1000
0100
0010
0001
0100
1000
0000
0110
0000
1000
0001
0100
0010
0100
0001
0000
,
1000
0100
0010
0001
0100
0010
1000
0100
0020
0000
0030
0000
0001
0100
0010
1000
,
0100
0000
0010
0000
0100
0000
1000
0010
0000
0000
0010
0000
0100
0000
0001
0010
0000
0000
0010
0000
0100
0000
1000
0001
0000
0000
0001
0000
1000
0000
0010
0100
,
0101
0000
0000
0000
0010
0000
0000
0000
1000
0000
0000
0000
0100
0000
0010
0000
0000
0000
0000
0000
0001
0000
0000
0000
1000
0000
0000
0000
0100
0000
1000
0000
0010
0100
0001
0100
0010
1000
0100
0010
0000
0001
0000
0010
0000
0100
0000
1000
0000
0000
0000
0000
0100
0000
0000
0000
0010
0000
0000
0000
0001
0000
0000
0000
,
1000
0100
1000
0000
0010
0100
0001
0100
0010
1000
0100
0000
0010
0001
0100
0001
,
0010
0100
1000
0000
0010
0100
0001
0100
0010
1000
0100
0000
0010
0100
0010
0001
,
0100
0010
1000
0000
1000
0010
0100
0001
0010
1000
0010
0000
0100
1000
0010
0001
,
0010
0100
0001
1000
0100
0010
1000
0010
0001
0100
1000
0100
0010
0100
0001
0010
,
0100
1000
0100
0000
0100
0010
0100
0001
0100
1000
0100
0000
0100
0010
0100
1000
,
0010
0100
0010
0000
0001
1000
0001
0100
0001
1000
0010
0000
0010
0100
0010
0001
,
0010
1000
0010
0000
0010
1000
0010
0001
0010
1000
0100
0000
1000
0001
0010
0100
,
1000
0010
0100
0001
1000
0010
0001
1000
0100
0010
1000
0100
1000
0010
0100
0001
,
1000
0100
0010
0001
0100
0001
0010
0001
0100
0010
0000
1000
0001
0100
0010
0000
,
0001
0010
0100
1000
0010
1000
0100
1000
0010
0100
0000
0001
1000
0010
0100
0000
,
0001
1000
0010
1000
0001
0100
1000
0100
0010
1000
0001
0010
0100
1000
0010
0000
,
1000
0001
0100
0001
1000
0100
0001
0200
0010
0300
0100
0020
0030
0100
0020
0030
,
0001
1000
0100
0000
1000
0001
1000
0010
0100
0001
0000
1000
0010
0100
0001
0100
,
0010
0001
0010
0100
0010
1000
0010
0100
0001
1000
0000
1000
0100
0010
1000
0010
,
0001
0100
0001
0000
1000
0010
0100
0001
0010
0100
1000
0001
0100
0001
0010
0000
,
0100
1000
0001
1000
0010
0100
1000
0200
0010
0300
0100
0020
0030
0100
0020
0030
,
1000
0001
0100
0010
1000
0100
0001
0000
0100
0010
0000
1000
0001
0010
0001
0100
,
0010
1000
0010
0100
0001
1000
0001
0010
0100
0000
1000
0001
0000
1000
0001
0000
,
0100
0010
1000
0000
0001
0100
0010
0100
0001
0010
0100
0000
1000
0001
0100
0010
,
1000
0001
0100
0010
1000
0001
0010
0200
0001
0300
0100
2000
3000
0010
0200
0300
,
1000
0002
0010
0003
0100
0020
1030
0100
1000
0001
0100
0001
0010
1000
0010
0100
,
1000
0010
0001
1000
0100
0010
0001
0010
1000
0100
1000
0001
0010
1000
0001
0000
,
0100
0010
0100
1000
0001
0100
0010
1000
0010
0001
0100
0010
0001
1000
0010
0100
,
1000
0001
0010
0001
0100
0010
1000
0010
0200
0000
0000
0000
0000
0000
0300
0000
,
1001
0100
1100
0010
0100
1001
0010
0110
,
1000
1001
0100
1010
0100
0101
0011
0100
,
1001
0010
0011
1000
1100
1001
0010
0110
,
0001
1001
0100
1010
0100
0110
1001
0010
,
0102
0013
1100
0001
1000
0110
0011
1000
,
0110
1001
0001
0011
0100
1010
0101
2000
,
3100
0010
1001
0010
0110
1001
1000
0101
,
0010
1100
1000
1010
0100
0011
0101
0020
,
0000
0030
0000
0000
0000
0000
0000
0000
;

//---------------dance-single - Copied from----------------
#NOTES:
     dance-single:
     Copied from:
     Challenge:
     18:
     1.000,1.000,1.000,0.094,1.000,927.000,348.000,10.000,0.000,27.000:
1010
0000
0001
0100
1010
0100
0001
0010
0100
0000
0010
0001
1000
0000
0010
0001
,
0100
0000
0010
0001
1000
0000
0010
0001
1100
0001
0010
1000
0110
0001
1000
0010
,
0101
1000
0100
0010
1001
1000
0100
0010
0100
0000
0100
1000
0010
0000
0100
1000
,
0001
0000
0100
1000
0010
0000
0100
1000
0001
0000
0100
1000
0010
0000
0001
0100
,
1010
0000
0100
0010
1001
0100
0001
0010
1100
0000
0010
0001
1000
0000
0010
0001
,
0100
0000
0010
0001
1000
0000
0010
0001
1100
0010
1000
0100
0001
1010
0100
0001
,
1100
0010
0001
0100
1010
0100
1001
0010
0100
0000
0001
0010
1000
0000
0001
0010
,
0100
0000
0001
0010
1100
1001
0100
0000
0011
1001
0100
0220
0000
0000
2002
3333
,
1000
0100
1010
0001
0100
0010
1100
0001
0010
0000
1001
0000
0100
0000
0110
0000
,
1000
0100
0011
1000
0001
0100
1010
0001
0100
0010
1001
0100
0010
1000
0101
0010
,
1000
0100
0011
1000
0001
0100
1010
0100
0010
0000
0101
0000
1000
0000
1001
0000
,
0010
0000
0100
0000
1001
0010
0100
0001
0010
1000
0100
0000
0110
0000
0001
0000
0100
0000
1010
0000
0011
0000
0100
0000
0010
0000
1000
0000
0101
0000
0010
0000
,
1000
0001
1010
0100
1000
0010
1010
0001
0010
1000
0101
1000
0010
1000
0110
1000
,
0100
0001
1010
0100
0100
0010
1010
0100
0001
1000
0110
0001
1000
0010
0101
0010
,
0100
0001
1010
0100
0010
1000
0101
0010
1000
0010
0101
0010
0001
0010
1100
0010
,
1000
0100
1001
0010
0100
0010
1001
0001
0110
0001
1010
0100
0011
0100
1100
0010
,
1002
0013
0110
1000
0101
1010
0101
1010
0001
0100
1010
0100
0110
1001
0110
1001
,
0010
0100
0011
1000
1100
0011
1100
0011
1000
0001
0010
0100
1001
0110
1001
0110
,
0010
1000
0100
0001
1010
0101
0010
1001
0010
1000
0100
0010
0011
1100
0011
1100
,
1000
0000
0001
0000
0010
0000
0100
0000
0011
0000
1000
0000
0110
0000
1001
0000
0100
0000
0010
0000
0100
0000
1000
0000
0010
0001
0010
0100
1000
0100
0010
0001
,
1010
0100
0001
0100
1010
0101
1010
0101
1000
0010
0101
1000
0010
1001
0110
0001
,
1010
0100
0001
0010
1001
0110
1001
0110
1000
0001
1010
0110
1000
0101
0010
1000
,
0011
0000
0100
0000
1010
0000
1001
0000
0100
0000
1010
0000
0001
0000
0110
0000
0001
0000
1000
0010
0001
0000
0100
0000
1010
0000
0100
0000
0011
0000
1100
0000
,
1000
0000
0100
0000
0010
0000
0001
0000
1100
0000
0001
0000
1010
0000
0100
0000
0010
0001
0100
1000
0010
1000
0100
0010
0001
0000
0100
0000
0010
0000
1000
0000
,
0100
0000
0011
0011
0100
1000
0100
0010
0000
0000
1010
1010
0100
0001
1000
0100
0010
0100
1001
1001
0010
0100
1000
0100
0010
0001
1001
0110
1000
0011
0100
0010
,
0110
0000
1000
0000
1001
0000
0011
0000
1000
0000
0100
0000
1000
0000
0010
0000
0000
0000
0100
0000
0101
0000
0001
0000
1000
0000
0010
0000
0100
0000
1000
0000
0001
0010
0100
1000
0001
0100
0010
0001
0000
1000
0000
0100
0000
0010
0000
1000
0000
0000
0000
0000
0100
0000
0000
0000
0010
0000
0000
0000
0001
0000
0000
0000
,
1001
0110
1001
0100
0010
0101
1000
0010
0101
0010
1001
0100
1100
0010
1001
0100
,
0011
1100
0001
0100
1010
0110
0001
1010
1001
0100
0011
0010
0100
1010
0101
0100
,
1001
0010
1100
0001
0100
0110
1001
0010
0100
1001
1100
0010
1001
0110
0001
1010
,
1000
0101
0001
1100
0011
1000
0110
1000
1101
0010
1001
0100
1001
0010
1101
0001
,
0110
1010
0100
0001
0011
1000
0100
0010
1000
0101
1001
0010
0100
0001
1001
0110
,
0110
0001
1000
0001
0100
0010
1010
0101
1000
0011
0101
0010
0100
1010
0011
0100
,
1000
0010
0101
0100
1001
0010
0101
0110
1001
0100
0010
1100
0101
0010
1100
0111
,
1000
0000
0100
0000
1000
0000
0001
0000
0010
0000
0100
0000
0001
0000
0010
0000
0001
0000
1000
0000
0100
0000
0010
0000
0100
0000
0000
0001
0000
0000
0110
0000
0000
0001
0000
0000
1100
0000
0000
0010
0000
0000
0101
0000
0000
0010
0000
0000
,
1100
0001
0100
0010
1010
0100
0001
0110
1001
0100
1010
0010
0101
1000
0010
0100
,
0011
1000
0100
0010
0101
0110
1000
0100
0011
1000
0100
0011
1001
0010
0100
1000
,
1001
0010
0101
1000
0110
1010
0001
0100
1011
0001
0100
0010
1010
0100
1001
1100
,
0110
1001
0100
0010
1000
0011
0101
0010
1001
0100
0110
1001
1001
0100
0110
1001
,
0010
1010
0100
0001
1100
0010
0100
0001
1010
0100
0100
1001
1010
0010
0101
0110
,
1000
0011
0100
1010
0100
0001
0010
1100
0011
1000
0101
0110
1010
0001
0100
0010
,
1001
1100
1010
0100
0010
1001
0010
0100
0101
1010
0100
1001
1010
0100
0110
1001
,
0010
0101
0100
1010
0001
0100
1010
0100
1001
0010
0110
1001
0010
0110
1001
1000
,
0100
0000
0001
0010
1100
0001
0010
0000
1000
0000
0100
0000
0001
0000
0110
0000
1000
0000
0001
0000
1010
0000
1100
0000
0010
0100
0010
0001
1000
0000
0010
0000
,
1010
1000
1001
0100
1100
0001
0110
1000
1001
0010
0110
1001
0100
0010
1000
0010
,
0110
0000
0001
0100
0010
0100
1000
0000
0010
0100
0001
0100
1000
0000
0010
0000
0110
0000
0001
0000
1000
0000
0100
0000
0001
0010
1000
0100
0001
0000
0010
0000
,
1010
0100
0001
0110
1100
0010
1000
0001
0101
0010
1010
0100
0010
0101
1010
0101
,
1000
0100
0010
0100
1000
0010
0100
0000
0001
0010
0100
1000
0100
0010
0001
0000
0100
0000
1001
0000
0010
0000
1010
0000
0100
0000
0010
0000
1100
0000
0001
0000
,
0010
1100
0010
1001
0110
0001
1000
0100
0001
0010
1010
1001
0100
1100
0011
0100
,
1000
0001
0100
0001
0010
0000
0001
1000
0100
1000
0010
1000
0100
0001
0010
0100
1000
0100
0010
0000
1001
0000
0100
0000
0110
0000
0001
0000
0100
0000
0010
0000
,
1001
0000
0000
0101
0000
0000
0110
0000
0000
1001
0000
0000
1010
0000
0000
0110
0000
0000
1000
0000
0100
0000
0010
0000
0001
0000
0010
0000
0100
0000
1000
0000
0010
0000
0001
0000
1000
0000
0100
0000
0010
0000
0001
0000
0010
0000
0100
0000
,
1100
0001
1010
0000
0111
1000
1010
0000
1100
0000
0111
0000
1010
0000
1101
0000
,
1010
0000
0101
0000
0110
0001
1101
0000
1010
0000
0011
1000
0110
1000
0101
0000
,
0110
0000
1001
0000
1100
0010
0111
0000
1010
0000
1001
0000
1100
0010
0111
0000
,
1010
0000
1011
0000
1100
0001
1010
0100
1100
0000
0110
0000
1101
0000
1010
0000
,
0220
0000
1331
0000
1110
0000
0111
0000
1100
0000
1010
0001
1101
0000
0011
1000
,
1101
0000
0110
0000
1110
0000
0011
0000
1001
0001
1110
0000
1011
1000
0101
0000
,
1010
0001
1001
0001
0110
0010
1110
0100
1001
0010
1100
0100
1011
0000
1010
0000
,
1102
0000
1113
0000
0100
0001
1101
1000
0011
0000
1010
0100
0102
0000
2010
0000
,
3003
0000
0000
0000
;

//---------------dance-single - ----------------
#NOTES:
     dance-single:
     :
     Medium:
     8:
     0.616,0.570,0.206,0.122,0.014,425.000,22.000,13.000,0.000,0.000:
1000
0001
0010
0100
1000
0000
1000
0000
,
0001
0001
0100
1010
,
0001
1000
0010
0100
0001
0000
0001
0000
,
1000
0000
1000
0000
0010
0100
0010
0000
,
1000
0001
0010
0100
1000
0100
0010
0000
,
0001
1000
0100
1000
0001
0100
0010
0000
,
0001
1000
0010
0100
0001
1000
0001
0000
,
1000
0000
0100
0000
1001
0000
0000
0000
0011
0000
0100
1000
0000
0000
0010
0000
,
0100
1000
0100
0001
0100
0010
1000
0000
,
0001
0010
0100
0010
0001
0010
0100
1000
,
0010
0001
0010
1000
0100
0010
0001
0000
,
1000
0010
0100
0010
1000
0010
0100
0001
,
1000
0100
1000
0001
1000
0010
1000
0100
,
0001
1000
0001
0010
0001
1000
0001
0100
,
0010
0001
1000
0001
0100
0010
1000
0010
,
0100
0001
0100
0001
1000
0101
0101
1001
,
0010
0100
0001
0001
0010
0100
1000
1000
,
0010
0100
0001
0001
0100
0010
1000
1000
,
0001
0010
0100
0100
1000
0010
0100
0100
,
0001
0010
0100
0100
1000
0010
0202
0303
,
0100
0010
1000
1000
0100
0010
0001
0001
,
0100
0010
1000
1000
0010
0100
0001
0001
,
1000
0010
0100
0100
0001
0010
0100
0100
,
1000
0010
0100
0100
0001
0010
2200
3300
,
2002
0000
0000
0000
0000
0000
0000
3003
,
0020
0000
0000
0000
2030
3002
0103
0000
,
1000
0100
1000
0100
0001
0100
0001
0100
,
1000
0100
1000
0100
0001
0100
0001
0100
,
1000
0100
0010
0100
0001
0100
0010
0100
,
1000
0010
0100
0001
0100
0010
1000
1100
,
0001
0100
0001
0100
1000
0100
1000
0100
,
0001
0100
0001
0100
1000
0100
1000
0100
,
0001
0100
0010
0100
1000
0100
0001
0010
,
2002
0000
0000
3003
0010
0100
0000
0000
,
0001
1000
0001
1000
0100
1000
0001
0100
,
0001
0010
0001
0010
0001
0100
0010
1000
,
0100
0010
0100
0010
0001
1000
0100
1000
,
0010
0100
0010
0100
0001
1000
0010
1000
,
0100
0001
0100
1000
0001
0010
0001
0010
,
0100
1000
0001
0100
0010
1000
0010
1000
,
0001
0100
1000
0100
0001
0010
0100
1000
,
0010
0001
1000
0100
0010
0100
0001
0100
,
1000
0010
0100
0001
1000
0010
0100
0001
,
1000
0100
0001
1000
0010
0100
1000
0010
,
0100
0001
0010
1000
0010
0001
1000
0100
,
1000
0010
0001
0010
0100
0001
1000
0100
,
0010
0001
1000
0001
0100
0010
0001
0100
,
1000
0010
1000
0001
0100
1000
0100
0010
,
1000
0100
1000
0000
0001
0010
0001
0000
0100
0000
0010
0000
1000
0000
0001
0000
,
0100
0010
0100
0020
2000
0000
0000
0030
,
3001
0100
0001
0000
1001
0101
0010
1000
,
0100
0001
0100
1000
0100
0010
0001
0100
,
0010
1000
0010
0000
1001
1100
0010
0001
,
0100
1000
0100
0001
0010
0100
1000
0001
,
0100
0010
0100
0000
1001
0011
0100
1000
,
0001
0010
0001
0100
1000
0001
1000
0100
,
0010
1000
1001
0101
0010
1000
0001
1000
,
0100
0100
0001
1000
1000
0101
1010
0101
;
