#TITLE:AX;
#SUBTITLE:;
#ARTIST:onoken;
#TITLETRANSLIT:;
#SUBTITLETRANSLIT:;
#ARTISTTRANSLIT:;
#CREDIT:;
#BANNER:Banner.png;
#BACKGROUND:bg.png;
#LYRICSPATH:;
#CDTITLE:../cdtitle.png;
#MUSIC:ax.mp3;
#OFFSET:-1.900;
#SAMPLESTART:52.120;
#SAMPLELENGTH:12.000;
#SELECTABLE:YES;
#BPMS:0.000=136.000;
#STOPS:;
#BGCHANGES:;
// cache tags:
#FIRSTBEAT:16.000;
#LASTBEAT:270.000;
#SONGFILENAME:Songs/Japanese Collaboration Mix/AX/AX.sm;
#HASMUSIC:1;
#HASBANNER:1;
#MUSICLENGTH:121.422;
// end cache tags

//---------------dance-single - ----------------
#NOTES:
     dance-single:
     :
     Challenge:
     11:
     0.717,0.834,0.189,0.074,0.609,577.000,23.000,9.000,0.000,0.000:
0000
0000
0000
0000
,
0000
0000
0000
0000
,
0000
0000
0000
0000
,
0000
0000
0000
0000
,
1000
0100
1000
0000
1100
0000
0000
0000
0001
0100
0001
0000
0101
0000
0000
0000
,
1000
0010
1000
0000
1010
0000
0000
0000
0001
0010
0001
0000
0011
0000
0000
0000
,
1000
0100
1000
0000
0010
0000
0100
0000
0001
0010
0001
0000
0100
0000
0010
0000
,
1000
0100
1000
0000
0010
0000
0100
0000
0001
0010
0001
0000
0100
0000
0100
0000
,
0110
0000
0000
0000
0000
0000
0000
0000
0000
0000
0000
0000
0000
0000
0100
0010
,
0000
0000
0000
0000
0000
1000
1000
1000
,
0001
0100
0001
0000
1000
0000
0001
0100
0001
0000
0010
0000
0001
0000
1000
0000
,
0100
1000
0100
0000
1000
0000
0010
0100
0010
0000
1000
0000
0001
0000
1000
0000
,
0001
0100
0001
0000
1000
0000
0010
0100
0010
0000
1000
0000
0100
0000
0010
0000
,
0100
1000
0100
0000
1000
0000
0001
0010
0001
0000
0100
0000
0010
0000
0100
0000
,
0220
0000
0000
0000
0330
0000
0000
0000
1000
0100
1000
0100
1000
0000
0010
0000
,
1000
0000
0001
0000
0100
0000
0010
0000
1000
0100
1000
0100
1000
0000
0001
0000
,
1000
0000
0001
0000
0100
0000
0010
0000
0100
0010
0100
0010
1000
0000
0100
0000
,
1000
0000
0001
0000
0100
0000
0010
0000
0100
0001
0100
0001
1000
0000
0010
0000
,
1000
0100
0010
0100
1000
0100
0010
0000
0110
0000
0000
0000
0000
0000
0000
0000
,
0000
0000
0000
0000
,
0000
0000
0000
0000
0000
0000
0000
0000
1000
0000
0100
0000
1000
0000
0010
0100
,
0000
0010
0100
0000
0010
0100
0010
0000
1000
0000
0001
0000
1000
0000
0001
0010
,
0000
0001
0010
0000
0001
0010
0001
0000
1000
0000
0010
0000
1000
0000
0100
1000
,
0000
0100
1000
0000
0100
1000
0100
0000
1000
0000
0001
0000
0010
0000
0001
0000
,
0100
0000
0110
0000
0100
0000
0110
0000
1001
0000
0010
0000
0001
0000
0100
0001
,
0000
1000
0001
0000
0100
0001
0100
0001
0100
0000
0001
0000
0010
0000
0001
1000
,
0000
0001
1000
0000
0010
0100
0001
0100
0001
0000
1000
0000
0010
0000
1000
0100
,
0000
1000
0100
0000
1000
0100
1000
0001
0100
0000
0001
0000
1000
0000
0100
1000
,
0000
0100
1000
0001
0100
0001
1000
0001
0100
0000
0010
0000
0110
0000
0100
0010
,
0000
0010
0100
0000
0010
0000
1000
0000
0010
0000
0100
0000
0101
0000
0001
0100
,
0000
0010
1000
0000
1010
0000
0000
0000
1000
0000
0001
0000
1001
0000
0001
0100
,
0000
0100
0010
0000
1000
0000
0010
0000
0100
0000
0001
0000
1001
0000
0001
0100
,
0000
1000
0100
0000
1001
0000
0000
0000
0010
0000
0100
0000
0110
0000
1000
0100
,
0000
0100
1000
0000
0010
0000
0100
0000
0001
0000
0010
0000
0011
0000
0010
0001
,
0000
1000
0010
0000
0110
0000
0000
0000
1000
0000
0001
0000
0100
0000
0001
0010
,
0000
0001
1000
0000
0010
0000
1000
0000
0100
0000
1000
0000
0010
0000
0100
0001
,
0000
1000
0100
0000
1000
0001
1000
0000
1000
0000
0001
0000
0000
0100
0000
0000
,
0001
0000
0000
0010
0000
0000
0001
0000
1000
0000
0010
0000
0000
0100
0000
0000
,
0010
0000
0000
1000
0000
0000
0100
0000
0010
0000
0100
0000
0000
1000
0000
0000
,
0010
0000
0000
0100
0000
0000
0010
0000
1000
0000
0001
0000
0000
0010
0000
0000
,
0001
0000
0000
0100
0000
0000
0010
0000
1000
0000
0001
0010
0100
0000
1000
0000
,
0001
0000
1000
0010
0100
0000
0001
0000
1000
0000
0010
0100
0001
0000
1000
0000
,
0001
0000
0010
0100
1000
0000
0001
0000
1000
0000
0001
0010
0001
0000
1000
0000
,
0010
0000
0100
0010
0100
0000
0001
0000
1000
0000
0001
0010
0001
0000
1000
0000
,
0010
0000
0100
0010
0100
0000
0010
0000
2002
0000
0000
0000
3003
0000
0000
0000
,
0100
0001
1000
0001
0100
0000
0001
0000
0010
0000
0001
0000
1000
0000
0010
0000
,
1000
0100
1000
0001
0100
0000
0010
0000
1000
0000
0100
0000
1100
0000
0000
0000
,
0001
1000
0001
0100
0001
0000
0010
0000
0001
0000
1000
0000
0010
0000
0100
0000
,
0010
1000
0001
0010
0001
0000
1000
0000
0010
0000
0100
0000
1001
0000
0000
0000
,
1000
0001
1000
0001
0100
0001
0100
0001
,
0010
0000
0001
0000
0100
0000
0001
0000
0010
0001
0100
0000
0001
1000
0100
0000
,
1000
0010
0010
0100
0001
0010
0010
0001
,
0100
0000
0010
0000
1000
0000
0010
0000
1000
0100
0010
0000
0100
1000
0010
0000
,
0100
0001
0001
0010
0001
1000
1000
0001
,
0100
0000
0010
0000
1000
0000
0010
0000
0100
0001
1000
0000
0100
1000
0010
0000
,
1000
0100
1000
0100
1000
0010
1000
0001
,
0100
0000
0001
0000
0010
0000
0001
0000
1000
0010
1000
0001
0100
0001
1000
0000
,
0010
0100
0010
0100
0010
0000
0100
0000
0010
1000
0010
1000
0010
0000
1000
0000
,
0010
0100
0010
0100
0010
0000
0100
0000
0001
0000
0010
0000
0001
0000
1000
0000
,
0001
0100
0001
0100
0001
0000
0100
0000
0001
0010
0001
0010
0001
0000
0010
0000
,
0001
0100
0001
0100
0001
0000
1000
0000
0001
0100
0001
1000
0001
0000
1001
0000
,
1000
0100
1000
0001
1000
0100
1000
0000
0001
0100
0001
1000
0001
0100
0001
0000
,
1000
0010
1000
0001
0100
0001
1000
0000
0010
0100
0010
1000
0010
0100
0010
1000
,
0010
0100
0001
0100
0001
1000
0100
0000
1000
0001
0100
0001
1000
0010
1000
0000
,
0100
1000
0010
0100
0001
0010
0001
0000
0100
0001
0010
0001
0100
0010
1000
0100
,
1000
0010
1000
0100
1000
0010
1000
0100
2000
0000
0000
0000
3001
0000
0000
0000
,
0002
0103
0200
0310
,
2000
3002
0103
0000
;
