#TITLE:Pac Man;
#SUBTITLE:;
#ARTIST:Powerpill;
#TITLETRANSLIT:;
#SUBTITLETRANSLIT:;
#ARTISTTRANSLIT:;
#CREDIT:;
#BANNER:ba.jpg;
#BACKGROUND:bg.jpg;
#LYRICSPATH:;
#CDTITLE:!cleaner88hpi.png;
#MUSIC:Powerpill-PAC-MAN-[05]-PAC-MAN.ogg;
#OFFSET:-4.000;
#SAMPLESTART:100.000;
#SAMPLELENGTH:12.000;
#SELECTABLE:YES;
#BPMS:0.000=132.800,96.000=265.600,192.000=132.800,436.000=132.299,469.000=132.800,508.000=132.300,556.000=132.800;
#STOPS:238.000=0.520
,431.750=0.040
,434.000=0.400
,469.000=0.300
;
#BGCHANGES:;
// cache tags:
#FIRSTBEAT:0.000;
#LASTBEAT:573.000;
#SONGFILENAME:Songs/Hard Songs Megapack Volume 9/Pac Man/Powerpill-PAC-MAN-[05]-PAC-MAN.sm;
#HASMUSIC:1;
#HASBANNER:1;
#MUSICLENGTH:243.983;
// end cache tags

//---------------dance-single - Don't think it's imp----------------
#NOTES:
     dance-single:
     Don't think it's imp:
     Challenge:
     15:
     1.000,1.000,1.000,1.000,1.000,2046.000,507.000,608.000,87.000,220.000:
1000
0000
0001
0000
0100
0000
1000
0000
0001
0100
1000
0000
0011
0000
0000
0000
1000
0000
0100
0000
0010
0000
0001
0000
1000
0100
0010
0000
1001
0000
0000
0000
,
1000
0000
0001
0000
0100
0000
0010
0000
0100
1000
0010
0000
1001
0000
0000
0000
1000
1000
1000
0000
0100
0100
0100
0000
0010
0010
0010
0000
0001
0001
0001
0000
,
1000
0000
0001
0000
0100
0000
1000
0000
0100
0010
1000
0000
0101
0000
0000
0000
1000
0000
0010
0000
0100
0000
1000
0000
0100
0010
0001
0000
0110
0000
0000
0000
,
0100
0000
0001
0000
0010
0000
0100
0000
0001
0010
0100
0000
0011
0000
0000
0000
1000
1000
1000
0000
0010
0010
0010
0000
0100
0100
0100
0000
0001
0001
0001
0000
,
0001
0000
1000
0000
0010
0000
0001
0000
1000
0010
0001
0000
1100
0000
0000
0000
0001
0000
0010
0000
0100
0000
1000
0000
0001
0010
0100
0000
1001
0000
0000
0000
,
0001
0000
1000
0000
0010
0000
0100
0000
0010
0001
0100
0000
1001
0000
0000
0000
0001
0001
0001
0000
0010
0010
0010
0000
0100
0100
0100
0000
1000
1000
1000
0000
,
0001
0000
1000
0000
0010
0000
0001
0000
0010
0100
0001
0000
1010
0000
0000
0000
0001
0000
0100
0000
0010
0000
0001
0000
0010
0100
1000
0000
0110
0000
0000
0000
,
0010
0000
1000
0000
0100
0000
0010
0000
1000
0100
0010
0000
1100
0000
0000
0000
0001
0001
0001
0000
0100
0100
0100
0000
0010
0010
0010
0000
1000
1000
1000
0000
,
0001
0000
0100
0000
0010
0000
1000
0000
0100
0010
0001
0000
0110
0000
0000
0000
1000
0000
0010
0000
0100
0000
1000
0000
0010
0001
1000
0000
0101
0000
0000
0000
,
0100
0000
1000
0000
0100
0000
0010
0000
0100
0010
0001
0000
1010
0000
0000
0000
0100
0100
0100
0000
0010
0010
0010
0000
0001
0001
0001
0000
1000
1000
1000
0000
,
0100
0000
1000
0000
0001
0000
0100
0000
0010
1000
0100
0000
0011
0000
0000
0000
1000
0000
0100
0000
1000
0000
0100
0000
0010
0001
0010
0000
0101
0000
0000
0000
,
0001
0000
0100
0000
0010
0000
1000
0000
0100
1000
0010
0000
0110
0000
0000
0000
0001
0001
0001
0000
1000
1000
1000
0000
0100
0100
0100
0000
0010
0010
0010
0000
,
1000
0000
0100
0000
0001
0000
0100
0000
0001
0010
0100
0000
0011
0000
0000
0000
0100
0000
0010
0000
1000
0000
0100
0000
1000
0001
0100
0000
0011
0000
0000
0000
,
1000
0000
0100
0000
0001
0000
0010
0000
0001
0010
0100
0000
0011
0000
0000
0000
0001
0001
0001
0000
0100
0100
0100
0000
0010
0010
0010
0000
1000
1000
1000
0000
,
0012
0000
1000
0000
0010
0003
0100
0000
0010
1000
0100
0000
0011
0000
0000
0000
1000
0000
0100
0000
0001
0000
0100
0000
0001
0100
1000
0000
0101
0000
0000
0000
,
1000
0000
0010
0000
0100
0000
0010
0000
0100
0010
0100
0000
0101
0000
0000
0000
0010
0010
0010
0000
0001
0001
0001
0000
0100
0100
0100
0000
1000
1000
1000
0000
,
2100
0000
0001
0000
0010
3000
0100
0000
0010
1000
0100
0000
0011
0000
0000
0000
1000
0000
0010
0000
0100
0000
1000
0000
0100
1000
0100
0000
0011
0000
0000
0000
,
2010
0000
0100
0000
0010
3000
0001
0000
1000
0100
0010
0000
1001
0000
0000
0000
0010
0010
0010
0000
0100
0100
0100
0000
0001
0001
0001
0000
1000
1000
1000
0000
,
0120
0000
0001
0000
1000
0030
0100
0000
0010
0001
0010
0000
0101
0000
0000
0000
0010
0000
1000
0000
0100
0000
0010
0000
0001
1000
0100
0000
0011
0000
0000
0000
,
1000
0000
0000
0000
0000
0000
0000
0000
0010
0000
0000
0000
0000
0000
0000
0000
0100
0000
0000
0000
0000
0000
0000
0000
0001
0000
0000
0000
0000
0000
0000
0000
0010
0000
0000
0000
0000
0000
0000
0000
0100
0000
0000
0000
0000
0000
0000
0000
1000
0000
0000
0000
0000
0000
0100
0000
0000
0000
0000
0000
0010
0000
0000
0000
0000
0000
0001
0000
0000
0000
0000
0000
0010
0000
0000
0000
0000
0000
0100
0000
0000
0000
0000
0000
1000
0000
0000
0000
0000
0000
0100
0000
0000
0000
0000
0000
0010
0000
0000
0000
0000
0000
0001
0000
0000
0000
0000
0000
0100
0000
0000
0000
0000
0000
1000
0000
0000
0000
0000
0000
0100
0000
0000
0010
0000
0000
0001
0000
0000
1000
0000
0000
0100
0000
0000
0000
0000
0000
0000
0000
0000
0000
0000
0000
0100
0000
0000
0000
0000
0000
0100
0000
0000
0000
0000
0000
0100
0000
0000
0000
0000
0000
0000
0000
0000
0000
0000
0000
0010
0000
0000
0000
0000
0000
0010
0000
0000
0000
0000
0000
0010
0000
0000
0000
0000
0000
0000
0000
0000
0000
0000
0000
,
1000
0000
0001
0000
0100
0000
1000
0000
0001
0100
0000
0000
1001
0000
0000
0000
,
1000
0000
0001
0000
0010
0000
1000
0000
0001
0010
0000
0000
1001
0000
0000
0000
,
1000
0000
0001
0000
0100
0000
1000
0000
0001
0100
0000
0000
1001
0000
0000
0000
,
1000
0100
0010
0000
0100
0010
0001
0000
1000
0100
0001
0000
1001
0000
0000
0000
,
11M1
1M11
M111
111M
,
11M1
1M11
111M
M111
,
M111
111M
11M1
1M11
,
M111
M111
1M11
1M11
,
11M1
11M1
111M
111M
,
11M1
1M11
M111
111M
,
11M1
1M11
M111
111M
,
11M1
1M11
M111
111M
,
0002
0020
0200
0333
0000
0000
0000
0000
2000
0200
0020
3330
0000
0000
0000
0000
0002
0200
2000
3303
0000
0000
0000
0000
2000
0020
0002
3033
0000
0000
0000
0000
,
0002
0020
0200
0333
0000
0000
0000
0000
0020
0200
0002
0333
0000
0000
0000
0000
0200
2000
0002
3303
0000
0000
0000
0000
2000
0200
0002
3303
0000
0000
0000
0000
,
0020
0002
2000
3033
0000
0000
0000
0000
0200
0020
0002
0333
0000
0000
0000
0000
2000
0200
3302
0003
0000
0000
0000
0000
0002
2000
0200
3303
0000
0000
0000
0000
,
0020
0002
0200
0333
0000
0000
0000
0000
0200
2000
0020
3330
0000
0000
0000
0000
2000
0200
0020
3330
0000
0000
0000
0000
0200
0002
0020
0333
0000
0000
0000
0000
,
0002
0200
2000
3303
0000
0000
0000
0000
0020
0200
0002
0333
0000
0000
0000
0000
0200
0020
2000
3330
0000
0000
0000
0000
2000
0200
0002
3303
0000
0000
0000
0000
,
2000
0200
0020
3330
0000
0000
0000
0000
2000
0200
0020
3330
0000
0000
0000
0000
0002
0200
2000
3303
0000
0000
0000
0000
0002
0200
2000
3303
0000
0000
0000
0000
,
0020
0002
0200
0333
0000
0000
0000
0000
0200
2000
0020
3330
0000
0000
0000
0000
2000
0200
0002
3303
0000
0000
0000
0000
0002
0200
0020
0333
0000
0000
0000
0000
,
2000
0200
0020
3330
0000
0000
0000
0000
0002
0020
0200
0333
0000
0000
0000
0000
0002
0200
2000
3303
0000
0000
0000
0000
2000
0200
0002
3303
0000
0000
0000
0000
,
2000
3200
0320
0032
0023
0230
0302
2003
3020
0230
2300
3002
,
0203
0320
2030
3200
0320
0230
2300
3002
0203
0320
0032
0023
,
0230
0320
0230
0302
0203
0320
2030
3020
0230
2300
3200
0302
,
0203
0320
2030
3020
0230
2300
3200
0302
2003
3020
0032
0203
,
0320
0230
2300
3200
0320
0032
2003
3200
0302
0023
2030
3002
,
0203
0320
2030
3002
0203
0320
0230
0320
2030
3200
2300
3200
,
0302
0023
2030
3200
0302
0203
0320
0032
2003
3200
0302
0023
,
0230
0320
0230
0302
2003
3020
0032
0203
2300
3020
0230
0302
,
1113
1110
1110
1110
1110
1110
1110
1110
,
1110
1110
1110
1110
1110
1110
1110
1110
,
0111
0100
1000
1000
1110
0000
0001
0001
0111
0100
1000
1000
1110
0000
0001
0000
,
1101
0100
1000
1000
1011
0000
0001
0001
1101
0100
1000
1000
1011
0000
1011
0000
,
1100
0000
0000
0101
0000
0000
0110
0000
0000
0101
0000
0000
1010
0000
0000
0101
0000
0000
0011
0000
0000
0110
0000
0000
1100
0000
0000
0110
0000
0000
1000
0010
0100
0001
1000
0010
0101
0000
0000
1010
0000
0000
0110
0000
0000
1100
0000
0000
,
0101
0000
0000
0110
0000
0000
1010
0000
0000
0101
0000
0000
1100
0000
0000
0110
0000
0000
0011
0000
0000
1100
0000
0000
0110
0000
0000
1100
0000
0000
0001
1000
0100
0010
0100
0001
1010
0000
0000
0110
0000
0000
1100
0000
0000
1010
0000
0000
,
1001
0000
0000
0101
0000
0000
0011
0000
0000
0110
0000
0000
0101
0000
0000
0110
0000
0000
1000
0001
0100
0010
1000
0001
1100
0000
0000
0110
0000
0000
1001
0000
0000
0110
0000
0000
1100
0000
0000
0101
0000
0000
1010
0000
0000
0110
0000
0000
,
0100
1000
0010
0100
0001
0100
1010
0000
0000
1100
0000
0000
0101
0000
0000
1100
0000
0000
0011
0000
0000
0110
0000
0000
1001
0000
0000
1100
0000
0000
0110
0000
0000
1100
0000
0000
0101
0000
0000
1010
0000
0000
1100
0000
0000
0110
0000
0000
,
1000
0100
0010
1000
0100
0010
0101
0000
0000
0011
0000
0000
0110
0000
0000
0101
0000
0000
0011
0000
0000
1001
0000
0000
0101
0000
0000
1100
0000
0000
0110
0000
0000
0101
0000
0000
1010
0000
0000
0101
0000
0000
0110
0000
0000
1100
0000
0000
,
1000
0000
0000
0000
0000
0000
0000
0000
0010
0000
0000
0000
0000
0000
0000
0000
0100
0000
0000
0000
0000
0000
0000
0000
0001
0000
0000
0000
0000
0000
0000
0000
0010
0000
0000
0000
0000
0000
0000
0000
0100
0000
0000
0000
0000
0000
0000
0000
1000
0000
0000
0000
0000
0000
0100
0000
0000
0000
0000
0000
0010
0000
0000
0000
0000
0000
0001
0000
0000
0000
0000
0000
0010
0000
0000
0000
0000
0000
0100
0000
0000
0000
0000
0000
1000
0000
0000
0000
0000
0000
0100
0000
0000
0000
0000
0000
1000
0000
0000
0000
0010
0000
0000
0000
0100
0000
0000
0000
0001
0000
0000
0000
0010
0000
0000
0000
0100
0000
0000
0000
1000
0000
0000
0000
0100
0000
0000
0000
0010
0000
0000
0000
1000
0000
0000
0000
0001
0000
0000
0000
0100
0000
0000
0000
1001
0000
0000
0000
0000
0000
0000
0000
0000
0000
0000
0000
0110
0000
0000
0000
0000
0000
0000
0000
0000
0000
0000
0000
1100
0000
0000
0000
0000
0000
0000
0000
0000
0000
0000
0000
0101
0000
0000
0000
0000
0000
0000
0000
0000
0000
0000
0000
,
0110
0110
0110
0110
0110
0110
0110
0110
0110
0110
0110
0110
0110
0110
0110
0110
,
0110
0000
0MM0
0MM0
0MM0
0MM0
0MM0
0MM0
0MM0
0MM0
0MM0
0MM0
0MM0
0MM0
0MM0
0MM0
0MM0
0MM0
0MM0
0MM0
0000
0000
0000
0000
0000
0000
0000
0000
0000
0000
0000
0000
0000
0000
0000
0000
0000
0000
0000
0000
0000
0000
0000
0000
0000
0000
0000
0000
0000
0000
0000
0000
0000
0000
0000
0000
0000
0000
0000
0000
0000
0000
0000
0000
,
1000
0000
0100
0000
0010
0000
0001
0000
1000
0100
0010
0000
0011
0000
0000
0000
0001
0000
0010
0000
0100
0000
1000
0000
0001
0010
0100
0000
1100
0000
0000
0000
,
1000
0000
0001
0000
0100
0000
0010
0000
1000
0001
0100
0000
1001
0000
0000
0000
1000
1000
1000
0000
0100
0100
0100
0000
0010
0010
0010
0000
0001
0001
0001
0000
,
0100
0000
0010
0000
0100
0000
0010
0000
0100
0010
0100
0000
0110
0000
0000
0000
0010
0000
0100
0000
0010
0000
0100
0000
0010
0100
0010
0000
0110
0000
0000
0000
,
0001
0000
0100
0000
1000
0000
0001
0000
0100
0010
0001
0000
0110
0000
0000
0000
0100
0100
0100
0000
1000
1000
1000
0000
0010
0010
0010
0000
0001
0001
0001
0000
,
1000
0000
0100
0000
1000
0000
0001
0000
0010
0100
1000
0000
0101
0000
0000
0000
0010
0000
0100
0000
0001
0000
0010
0000
0001
0100
0010
0000
0011
0000
0000
0000
,
1000
0000
0010
0000
0100
0000
1000
0000
0001
0010
0100
0000
0101
0000
0000
0000
0001
0001
0001
0000
1000
1000
1000
0000
0010
0010
0010
0000
0100
0100
0100
0000
,
1000
0000
0100
0000
0010
0000
0100
0000
0001
0010
0100
0000
0011
0000
0000
0000
1000
0000
0010
0000
0100
0000
0001
0000
0010
1000
0010
0000
0101
0000
0000
0000
,
1000
0000
0100
0000
0010
0000
0001
0000
0001
0010
0100
0000
0101
0000
0000
0000
0001
0001
0001
0000
0100
0100
0100
0000
0010
0010
0010
0000
1000
1000
1000
0000
,
0001
0000
0010
0000
0100
0000
0010
0000
1000
0100
0010
0000
1100
0000
0000
0000
0001
0000
0100
0000
0010
0000
1000
0000
0100
0001
0100
0000
1010
0000
0000
0000
,
0001
0000
0010
0000
0100
0000
1000
0000
1000
0100
0010
0000
1010
0000
0000
0000
1000
1000
1000
0000
0010
0010
0010
0000
0100
0100
0100
0000
0001
0001
0001
0000
,
0010
0000
1000
0000
0100
0000
1000
0000
0001
0100
1000
0000
0101
0000
0000
0000
0010
0000
0100
0000
1000
0000
0001
0000
0100
0010
0100
0000
1001
0000
0000
0000
,
0010
0000
1000
0000
0100
0000
0001
0000
0001
0100
1000
0000
1001
0000
0000
0000
0001
0001
0001
0000
1000
1000
1000
0000
0100
0100
0100
0000
0010
0010
0010
0000
,
0120
0000
0030
0000
0120
0000
0030
0000
0120
0000
0030
0000
1020
0000
1230
0300
0210
0300
0210
0000
0000
0000
0321
0000
0000
0000
0000
0000
0000
0000
0000
0000
,
1032
0000
0003
0000
1002
0000
0003
0000
1002
0000
0000
0000
1023
0000
1230
0000
1302
0003
1002
0000
0000
0000
0213
0000
0000
0000
0000
0000
0000
0000
0000
0000
,
0321
0000
0030
0000
0021
0000
0030
0000
0021
0000
0000
0000
0132
0000
1023
0000
1230
0300
1200
0000
0000
0000
0321
0000
0000
0000
1230
0000
0000
0000
0312
0000
,
0000
0000
0000
0000
0000
0000
0003
0000
2100
0000
0000
0000
0000
0000
0000
0000
3012
0000
0000
0000
0000
0000
0000
0000
0123
0000
0000
0000
0000
0000
0000
0000
2031
0000
0000
0000
3000
0000
0000
0000
2001
0000
0000
0000
3220
0000
0000
0000
0000
0000
0000
0000
0000
0000
0000
0000
0330
0000
0000
0000
0002
0003
0000
0000
,
0012
0003
0000
0000
1002
0003
0000
0000
0102
0003
0000
0000
1002
0003
0000
0000
0012
0003
0000
0000
0102
0003
0000
0000
1002
0003
0000
0000
0012
0003
0000
0000
1002
0003
0000
0000
0102
0003
0000
0000
1002
0003
0000
0000
0012
0003
0000
0000
0012
0003
0000
0000
1002
0003
0000
0000
0102
0003
0000
0000
1002
0003
0000
0000
,
0210
0300
0000
0000
0201
0300
0000
0000
1200
0300
0000
0000
0210
0300
0000
0000
0201
0300
0000
0000
0210
0300
0000
0000
1200
0300
0000
0000
1200
0300
0000
0000
0210
0300
0000
0000
0201
0300
0000
0000
1200
0300
0000
0000
0210
0300
0000
0000
0201
0300
0000
0000
1200
0300
0000
0000
0201
0300
0000
0000
1200
0300
0000
0000
,
0120
0030
0000
0000
0120
0030
0000
0000
1020
0030
0000
0000
0021
0030
0000
0000
0120
0030
0000
0000
0021
0030
0000
0000
1020
0030
0000
0000
0120
0030
0000
0000
0021
0030
0000
0000
0120
0030
0000
0000
0021
0030
0000
0000
1020
0030
0000
0000
0120
0030
0000
0000
0120
0030
0000
0000
1020
0030
0000
0000
0021
0030
0000
0000
,
2100
3000
0000
0000
2010
3000
0000
0000
2010
3000
0000
0000
2001
3000
0000
0000
2100
3000
0000
0000
2001
3000
0000
0000
2010
3000
0000
0000
2100
3000
0000
0000
2001
3000
0000
0000
2100
3000
0000
0000
2010
3000
0000
0000
2010
3000
0000
0000
2100
3000
0000
0000
2001
3000
0000
0000
2010
3000
0000
0000
2100
3000
0000
0000
,
0002
0003
0002
0003
0002
0003
0002
0003
0002
0003
0002
0003
0200
0300
0200
0300
0200
0300
0200
0300
0200
0300
0200
0300
0020
0030
0020
0030
0020
0030
0020
0030
0020
0030
0020
0030
2000
3000
2000
3000
2000
3000
2000
3000
2000
3000
2000
3000
,
0200
0300
0200
0300
0200
0300
0200
0300
0200
0300
0200
0300
0020
0030
0020
0030
0020
0030
0020
0030
0020
0030
0020
0030
2000
3000
2000
3000
2000
3000
2000
3000
2000
3000
2000
3000
0002
0003
0002
0003
0002
0003
0002
0003
0002
0003
0002
0003
,
2000
3000
2000
3000
2000
3000
2000
3000
2000
3000
2000
3000
0200
0300
0200
0300
0200
0300
0200
0300
0200
0300
0200
0300
0002
0003
0002
0003
0002
0003
0002
0003
0002
0003
0002
0003
2000
3000
2000
3000
2000
3000
2000
3000
2000
3000
2000
3000
,
0200
0300
0200
0300
0200
0300
0200
0300
0200
0300
0200
0300
0020
0030
0020
0030
0020
0030
0020
0030
0020
0030
0020
0030
0002
0003
0002
0003
0002
0003
0002
0003
0002
0003
0002
0003
0200
0300
0200
0300
0200
0300
0200
0300
0200
0300
0200
0300
,
0020
0030
0020
0030
0020
0030
0020
0030
0020
0030
0020
0030
2000
3000
2000
3000
2000
3000
2000
3000
2000
3000
2000
3000
0200
0300
0200
0300
0200
0300
0200
0300
0200
0300
0200
0300
2000
3000
2000
3000
2000
3000
2000
3000
2000
3000
2000
3000
,
0200
0300
0200
0300
0200
0300
0200
0300
0200
0300
0200
0300
0020
0030
0020
0030
0020
0030
0020
0030
0020
0030
0020
0030
0200
0300
0200
0300
0200
0300
0200
0300
0200
0300
0200
0300
0002
0003
0002
0003
0002
0003
0002
0003
0002
0003
0002
0003
,
2000
3000
2000
3000
2000
3000
2000
3000
2000
3000
2000
3000
0200
0300
0200
0300
0200
0300
0200
0300
0200
0300
0200
0300
2000
3000
2000
3000
2000
3000
2000
3000
2000
3000
2000
3000
0002
0003
0002
0003
0002
0003
0002
0003
0002
0003
0002
0003
,
0020
0030
0020
0030
0020
0030
0020
0030
0020
0030
0020
0030
2000
3000
2000
3000
2000
3000
2000
3000
2000
3000
2000
3000
0020
0030
0020
0030
0020
0030
0020
0030
0020
0030
0020
0030
0002
0003
0002
0003
0002
0003
0002
0003
0002
0003
0002
0003
,
1000
0000
0001
0000
0100
0000
1000
0000
0001
0100
0000
0000
1001
0000
0000
0000
,
1000
0000
0001
0000
0010
0000
1000
0000
0001
0010
0000
0000
1001
0000
0000
0000
,
1000
0000
0001
0000
0100
0000
1000
0000
0001
0100
0000
0000
1001
0000
0000
0000
,
1000
0100
0010
0000
0100
0010
0001
0000
1000
0100
0001
0000
1001
0000
0000
0000
,
1100
0000
0011
0000
0110
0000
1100
0000
0011
0110
0000
0000
1001
0000
0000
0000
,
1100
0000
0110
0000
0011
0000
0110
0000
0101
0110
0000
0000
0101
0000
0000
0000
,
1010
0000
1100
0000
0101
0000
0011
0000
0110
0101
0000
0000
1001
0000
0000
0000
,
1100
0110
0011
0000
1010
0110
0101
0000
0011
0101
1001
0000
1001
0000
0000
0000
,
0110
0000
0101
0000
0110
0000
1010
0000
0110
0110
0000
0000
1001
0000
0000
0000
,
0101
0000
0101
0000
0011
0000
0011
0000
1100
1100
0000
0000
1001
0000
0000
0000
,
1100
0000
0110
0000
1010
0000
0101
0000
1100
1001
0000
0000
0011
0000
0000
0000
,
0110
1010
1100
0000
0110
0101
0011
0000
1001
0110
1001
0000
0011
0000
0000
0000
,
1100
0000
0110
0000
1001
0000
0110
0000
0011
0101
0000
0000
1001
0000
0000
0000
,
1102
0000
1010
0000
1100
0000
1010
0000
0110
0110
0000
0000
0110
0000
0000
0000
,
1100
0000
0110
0000
1010
0000
1100
0000
0110
1100
0000
0000
1010
0000
0000
0000
,
1100
1100
1100
0000
0110
0110
0110
0000
1010
1010
1010
0000
1100
0000
0000
0000
,
0110
0000
1100
0000
1100
0000
0110
0000
1010
1010
0000
0000
0110
0000
0000
0000
,
1100
0000
1100
0000
1010
0000
1010
0000
1100
1100
0000
0000
1010
0000
0000
0000
,
0110
0000
1010
0000
1100
0000
0110
0000
1010
1100
0000
0000
1010
0000
0000
0000
,
1100
0000
0000
0000
1010
0000
0000
0000
1100
0000
0000
0000
0000
0000
0000
0000
0110
0000
0000
0000
1010
0000
0000
0000
0110
0000
0000
0000
0000
0000
0000
0000
1100
0000
0000
0000
1010
0000
0000
0000
1100
0000
0000
0000
0000
0000
0000
0000
1010
0000
0000
0000
0000
0000
0000
0000
0003
0000
0000
0000
0010
00M0
00M0
00M0
,
00M0
00M0
00M0
00M0
00M0
00M0
00M0
00M0
00M0
00M0
00M0
00M0
00M0
00M0
00M0
00M0
0000
0000
0000
0000
0000
0000
0000
0000
0000
0000
0000
0000
0000
0000
0000
0000
0000
0000
0000
0000
0000
0000
0000
0000
0000
0000
0000
0000
0000
0000
0000
0000
0000
0000
0000
0000
0000
0000
0000
0000
0000
0000
0000
0000
0000
0000
0000
0000
,
1102
0000
0110
0000
1010
0000
1100
0000
0110
1100
0000
0000
1010
0000
0000
0000
,
1100
0000
1100
0000
0110
0000
1100
0000
1010
1010
0000
0000
0110
0000
0000
0000
,
1100
0000
1010
0000
0110
0000
1100
0000
0110
0110
0000
0000
0110
0000
0000
0003
,
1000
0000
0000
0000
0021
0030
0000
0000
0120
0030
0000
0000
0021
0030
0000
0000
1020
0030
0000
0000
0120
0030
0000
0000
0021
0030
0000
0000
0120
0030
0000
0000
0021
0030
0000
0000
0021
0030
0000
0000
1020
0030
0000
0000
0120
0030
0000
0000
1020
0030
0000
0000
0120
0030
0000
0000
0120
0030
0000
0000
1020
0030
0000
0000
,
0021
0030
0000
0000
0120
0030
0000
0000
1020
0030
0000
0000
0120
0030
0000
0000
0021
0030
0000
0000
0120
0030
0000
0000
0002
0020
0200
0333
0000
0000
0000
0000
2000
0200
0020
3330
0000
0000
0000
0000
2000
0200
0002
3303
0000
0000
0000
0000
0002
0020
2000
3033
0000
0000
0000
0000
2000
0020
0002
3033
0000
0000
0000
0000
,
0200
0020
2000
3330
0000
0000
0000
0000
0200
2000
0020
3330
0000
0000
0000
0000
0002
0200
0020
0333
0000
0000
0000
0000
0200
0020
2000
3330
0000
0000
0000
0000
2000
0200
0020
3330
0000
0000
0000
0000
0002
0020
0200
0333
0000
0000
0000
0000
2000
0200
0002
3303
0000
0000
0000
0000
0002
0020
2000
3033
0000
0000
0000
0000
,
0020
2000
0002
3033
0000
0000
0000
0000
2000
0200
0020
3330
0000
0000
0000
0000
0200
2000
0002
3303
0000
0000
0000
0000
0020
0002
2000
3033
0000
0000
0000
0000
2000
0200
0020
3330
0000
0000
0000
0000
0002
0200
2000
3303
0000
0000
0000
0000
0200
0020
0002
0333
0000
0000
0000
0000
0020
0200
2000
3330
0000
0000
0000
0000
,
2000
0200
0020
3330
0000
0000
0000
0000
2000
0200
0002
3303
0000
0000
0000
0000
2000
0020
0002
3033
0000
0000
0000
0000
0002
0020
0200
0333
0000
0000
0000
0000
2000
0200
0020
3330
0000
0000
0000
0000
0002
0200
2000
3303
0000
0000
0000
0000
2000
0020
0002
3033
0000
0000
0000
0000
2002
3003
0000
0000
0000
0000
0000
0000
,
0000
0000
0000
0000
,
1000
0000
0001
0000
0100
0000
1000
0000
0010
0100
0010
0000
0110
0000
0000
0000
1000
0000
0001
0000
0100
0000
0010
0000
0100
0010
0001
0000
0110
0000
0000
0000
,
1000
0000
0010
0000
1000
0000
0010
0000
1000
0100
1000
0000
0101
0000
0000
0000
1000
1000
1000
0000
0010
0010
0010
0000
0001
0001
0001
0000
0100
0100
0100
0000
,
0010
0000
0001
0000
0100
0000
1000
0000
0001
0100
0010
0000
0101
0000
0000
0000
1000
0000
0100
0000
1000
0000
0010
0000
1000
0001
1000
0000
1001
0000
0000
0000
,
0001
0000
0010
0000
0001
0000
0100
0000
0001
0100
0010
0000
0101
0000
0000
0000
1000
1000
1000
0000
0001
0001
0001
0000
0010
0010
0010
0000
0100
0100
0100
0000
,
0010
0000
0100
0000
0010
0000
1000
0000
0001
0100
1000
0000
0101
0000
0000
0000
1000
0000
0100
0000
0001
0000
1000
0000
0001
0100
0010
0000
0101
0000
0000
0000
,
1000
0000
0100
0000
0001
0000
0100
0000
0001
0010
0001
0000
0011
0000
0000
0000
0100
0100
0100
0000
0010
0010
0010
0000
1000
1000
1000
0000
0001
0001
0001
0000
,
1000
0000
0100
0000
1000
0000
0010
0000
0100
0010
0100
0000
0110
0000
0000
0000
0001
0000
0100
0000
0010
0000
1000
0000
0100
1000
0010
0000
0101
0000
0000
0000
,
1000
0000
0100
0000
1000
0000
0010
0000
0001
0010
0100
0000
0011
0000
0000
0000
0001
0001
0001
0000
1000
1000
1000
0000
0010
0010
0010
0000
0100
0100
0100
0000
,
0001
0000
0010
0000
0001
0000
0100
0000
0001
0100
0010
0000
0011
0000
0000
0000
0100
0000
1000
0000
0100
0000
0010
0000
0100
0010
0100
0000
0101
0000
0000
0000
,
0001
0000
0100
0000
0010
0000
1000
0000
0100
0010
0001
0000
1100
0000
0000
0000
0010
0010
0010
0000
0100
0100
0100
0000
0001
0001
0001
0000
1000
1000
1000
0000
,
0001
0000
0100
0000
0010
0000
1000
0000
0100
1000
0010
0000
0101
0000
0000
0000
1000
0000
0100
0000
1000
0000
0100
0000
0001
0100
1000
0000
0101
0000
0000
0000
,
0010
0000
0100
0000
0010
0000
0100
0000
0010
0100
0010
0000
1001
0000
0000
0000
0001
0001
0001
0000
0010
0010
0010
0000
1000
1000
1000
0000
0100
0100
0100
0000
,
1000
0000
0010
0000
0100
0000
0001
0000
0010
0100
0001
0000
1001
0000
0000
0000
1000
0000
0001
0000
0010
0000
0100
0000
0001
0010
0100
0000
0011
0000
0000
0000
,
1000
0000
0100
0000
0001
0000
0010
0000
0001
1000
0100
0000
0011
0000
0000
0000
1000
1000
1000
0000
0100
0100
0100
0000
0010
0010
0010
0000
0001
0001
0001
0000
,
1000
0000
0001
0000
0100
0000
0010
0000
0100
0010
1000
0000
0101
0000
0000
0000
0010
0000
1000
0000
0100
0000
0010
0000
1000
0100
1000
0000
0101
0000
0000
0000
,
0001
0000
0010
0000
0001
0000
0100
0000
0010
0001
0100
0000
0011
0000
0000
0000
0001
0001
0001
0000
1000
1000
1000
0000
0100
0100
0100
0000
0010
0010
0010
0000
,
0001
0000
0100
0000
0001
0000
0100
0000
0001
0100
0001
0000
0101
0000
0000
0000
1000
0000
0010
0000
1000
0000
0010
0000
1000
0010
1000
0000
1010
0000
0000
0000
,
0100
0000
0010
0000
0001
0000
0100
0000
0010
0100
1000
0000
0101
0000
0000
0000
1000
1000
1000
0000
0100
0100
0100
0000
0010
0010
0010
0000
0001
0001
0001
0000
,
1002
0000
0010
0000
0100
0000
0010
0000
0100
1000
0010
0000
0110
0000
0000
0000
0010
0000
1000
0000
0100
0000
1000
0000
0100
1000
0100
0000
0110
0000
0000
0000
,
1000
0000
0100
0000
0010
0000
1000
0000
0100
0010
1000
0000
0110
0000
0000
0000
0010
0010
0010
0000
0100
0100
0100
0000
0010
0010
0010
0000
0100
0100
0100
0000
,
0010
0000
1000
0000
0100
0000
0010
0000
1000
0010
0100
0000
0110
0000
0000
0000
0010
0000
0100
0000
0010
0000
1000
0000
0100
0010
1000
0000
0110
0000
0000
0000
,
1000
0000
0100
0000
0010
0000
0100
0000
0010
0100
1000
0000
1010
0000
0000
0000
1000
1000
1000
0000
0010
0010
0010
0000
1000
1000
1000
0000
0010
0010
0010
0000
,
0100
0000
0010
0000
1000
0000
0100
0000
0010
0100
0010
0000
0110
0000
0000
0000
1000
0000
0100
0000
1000
0000
0010
0000
1000
0100
0010
0000
1010
0000
0000
0000
,
0010
0000
0100
0000
1000
0000
0100
0000
1000
0010
0100
0000
0110
0000
0000
0000
1000
1000
1000
0000
1000
1000
1000
0000
1000
1000
1000
0000
1000
1000
1003
0000
,
0000
0000
0000
0000
0000
0000
0000
0002
0023
0032
0023
0032
0023
0032
0023
0032
,
0023
0032
0003
0002
0003
0000
0000
0000
0000
0000
0000
0000
0000
0000
0000
0000
;
