#TITLE:Summer (Speedy Mix);
#SUBTITLE:8-Arrowed;
#ARTIST:Smiley;
#TITLETRANSLIT:;
#SUBTITLETRANSLIT:;
#ARTISTTRANSLIT:;
#CREDIT:Izzy;
#BANNER:summer-bn.png;
#BACKGROUND:summer-bg.png;
#LYRICSPATH:;
#CDTITLE:!IzzyTitle.png;
#MUSIC:Summer -Speedy Mix-.mp3;
#OFFSET:1.280;
#SAMPLESTART:32.560;
#SAMPLELENGTH:14.000;
#SELECTABLE:YES;
#BPMS:0.000=185.000;
#STOPS:;
#BGCHANGES:;
// cache tags:
#FIRSTBEAT:8.000;
#LASTBEAT:332.000;
#SONGFILENAME:Songs/new again/Summer -Speedy Mix-/Summer -Speedy Mix-.sm;
#HASMUSIC:1;
#HASBANNER:1;
#MUSICLENGTH:108.512;
// end cache tags

//---------------dance-double - 8-Arrowed----------------
#NOTES:
     dance-double:
     8-Arrowed:
     Challenge:
     15:
     1.000,1.000,1.000,1.000,0.935,719.000,381.000,111.000,0.000,216.000:
00000000
00000000
00000000
00000000
,
00000000
00000000
00000000
00000000
,
10000000
00000000
00000000
00000000
01000000
00000000
00010000
00100000
00010000
00000000
00110000
00000000
00000000
00000000
10010000
00000000
,
00000000
10010000
10010000
00000000
00100000
10000000
01000000
00000000
,
01100000
00000000
00000000
00000000
01100000
00000000
00000000
10000000
00010000
00000000
10010000
00000000
00000000
00000000
10010000
00000000
,
00000000
10010000
01010000
00000000
00100000
01000000
10000000
00000000
,
11111001
00000000
00000000
00000000
00000101
00000000
00000000
00001000
00000001
00000000
00001001
00000000
00000000
00000000
00000011
00000000
,
00000000
00000000
00001101
00000000
00001101
00000000
00000000
00001000
00000010
00000000
00000100
00000000
00000001
00000000
00000000
00000001
,
00000100
00000000
00000000
00000000
00000101
00000000
00000000
00000010
00001000
00000000
00000110
00000000
00000000
00000001
00000100
00000000
,
00022000
00000000
00000000
00000000
00000000
20000002
00200200
30333303
,
10001010
00000000
10001001
00000000
10000101
00000000
10000001
00001000
10000000
00000010
10000000
00000100
10000001
00000000
10000010
00000000
,
00010110
00000000
00011000
00000000
00010001
00000000
00010010
00000100
00010000
00000001
00010000
00001000
00010001
00000000
00010100
00000000
,
10010110
00000000
10011001
00000000
10011010
00000000
10010100
00000001
10010000
00000010
10010000
00001000
10010100
00000000
10010101
00000000
,
11011010
00000000
11010001
00000000
11010100
00000000
11010010
00000100
11010001
00001000
11010010
00000100
11010001
00000000
11010110
00000000
,
10001001
00000000
10000001
00000000
10001000
00000000
10000100
00000010
10000000
00000001
10000000
00000010
10001000
00000000
10000001
00000000
,
00010010
00000000
00010100
00000000
00011000
00000000
00010001
00000010
00010000
00001000
00010000
00000001
00010100
00000000
00011001
00000000
,
10010011
00000000
10011100
00000000
10011010
00000000
10010001
00000100
10010000
00001000
10010000
00000010
10010100
00000000
10010001
00000000
,
11111000
00000000
11110110
00000000
11111001
00000000
11110010
00000100
11111000
00000010
11111000
00000000
11110101
00000000
11111100
00000000
,
11110110
00000000
00011000
00100100
00011000
00000000
00011000
00100100
00011000
00000000
00011000
00100100
00011000
00000000
10011001
00000000
,
00000000
01100110
01100110
00000000
11011101
00000000
11011101
00000000
,
10011001
00000000
00011000
01000010
00011000
00000000
00011000
01000010
00011000
00000000
00011000
01000010
00011000
00000000
01000100
00000000
,
00000000
00000000
00000000
10011001
10011001
00000000
00000000
00000000
10011001
00000000
00000000
00000000
10011001
00000000
10011001
00000000
,
10011001
00000000
00011000
10000001
00011000
00000000
00011000
10000001
00011000
00000000
00011000
10000001
00011000
00000000
01100110
00000000
,
00000000
00010001
10001000
00000000
10001000
00000000
00010001
00000000
,
10011001
00000000
10000001
00011000
10000001
00000000
10000001
00011000
10000001
00000000
10000001
00011000
10000001
00000000
00100010
00000000
,
00000000
00000000
00000010
00001000
00000100
00000000
00000000
00000000
00011000
01000100
00011000
00000000
01000100
00000000
10000000
00000000
,
00100000
01000000
00000000
00100000
01000000
00010000
00000000
00010000
,
10000000
00010000
10000000
00010000
10000000
00000000
00100000
00000000
00010000
00000000
10000000
00000000
00000000
00000000
01000000
00000000
,
00010000
00100000
00010000
00100000
00010000
00000000
10000000
00000000
01000000
00010000
01000000
00010000
01000000
00000000
00100000
00000000
,
10000000
00000000
00222200
00333300
,
11111000
00000010
11111000
00000010
11111000
00000010
11111000
00000010
11110100
00000001
11110100
00000001
11110100
00000001
11110100
00000001
,
11111000
00000001
11111000
00000001
11111000
00000001
11111000
00000001
11111000
00000010
11110100
00000001
11111000
00000010
11110100
00000001
,
11111000
00000100
11110010
00000001
11111000
00000100
11110010
00000001
11111000
00000001
11110010
00000100
11111000
00000001
11110010
00000100
,
22222000
00000000
00000000
00000000
00000000
00000000
00000000
33333000
22000022
00000000
00000000
00000000
00000000
00000000
33000033
00000000
,
11000000
00000000
11000000
00000000
11000000
00000000
00010000
00100000
00000000
00010000
00000000
00100000
00010000
00000000
00100000
00000000
,
00010000
00000000
00010000
00000000
10000000
00000000
00100000
00010000
00000000
10000000
00000000
00100000
01000000
00000000
00010000
00000000
,
00001010
00000000
00001010
00000000
00000101
00000000
00000001
00001000
00000000
00000010
00000000
00000100
00000001
00000000
00001010
00000000
,
00000101
00000000
00000110
00000000
00001001
00000000
00000100
00000001
00000000
00000010
00000000
00000100
00000001
00000000
00000010
00000100
,
00001001
00000000
00000110
00000000
00001001
00000000
00001000
00000001
00000000
00000010
00000000
00000100
00000001
00000000
00000110
00000000
,
00001001
00000000
00000001
00000000
00001000
00000000
00000010
00000100
00000000
00000010
00000000
00000100
00001000
00000000
00000101
00000000
,
10000000
00000000
01000000
00000000
00100000
00000000
00010000
00100000
00000000
00010000
00000000
10000000
00010000
00000000
01000000
00000000
,
00100000
00000000
10000000
00000000
00010000
00000000
01000000
00000000
00010000
10000000
00010000
00000000
00010000
10000000
00010000
10000000
,
00010000
01000000
00000000
10000000
00000000
00010000
10000000
01000000
,
10000000
00000000
00010000
00100000
00010000
00000000
00010000
00100000
00010000
00100000
00000000
00000000
01000000
00000000
00000000
00000000
,
00100000
00000000
01000000
00000000
10000000
00000000
00010000
00100000
00000000
00010000
01000000
00000000
00100000
00000000
10000000
00000000
,
01000000
00000000
00100000
00010000
00100000
00000000
10000000
00010000
10000000
00010000
00000000
00000000
00000000
00000000
00000000
00000000
,
00000100
00000000
00001001
00000000
00000000
00000000
00001000
00000010
00001000
00000010
00000000
00000100
00000001
00000000
00001001
00000000
,
00000110
00000000
00000010
00000100
00000001
00000000
00001000
00000010
00001000
00000100
00001000
00000000
00000001
00001000
00000001
00000000
,
00000110
00000000
00001001
00000000
00000011
00000000
00001000
00000010
00000000
00001000
00000010
00000100
00000001
00000000
00001010
00000000
,
00000101
00000000
00000001
00000100
00000010
00000000
00000010
00001000
00000100
00001000
00000001
00001000
00000010
00001000
00000100
00000000
,
11110110
00000000
00011000
00100100
00011000
00000000
00011000
00100100
00011000
00000000
00011000
00100100
00011000
00000000
10011001
00000000
,
00000000
01100110
01100110
00000000
11011101
00000000
11011101
00000000
,
10011001
00000000
00011000
01000010
00011000
00000000
00011000
01000010
00011000
00000000
00011000
01000010
00011000
00000000
01000100
00000000
,
00000000
00000000
00000000
10011001
10011001
00000000
00000000
00000000
10011001
00000000
00000000
00000000
10011001
00000000
10011001
00000000
,
10011001
00000000
00011000
10000001
00011000
00000000
00011000
10000001
00011000
00000000
00011000
10000001
00011000
00000000
01100110
00000000
,
00000000
00010001
10001000
00000000
10001000
00000000
00010001
00000000
,
10011001
00000000
10000001
00011000
10000001
00000000
10000001
00011000
10000001
00000000
10000001
00011000
10000001
00000000
00100010
00000000
,
00000000
00000000
00011000
00100100
00011000
00000000
00000000
00000000
00000001
00000010
00000100
00001000
00000010
00000100
00000001
00001000
,
22220011
00000000
00001000
00000100
33331000
00000000
00000110
00000000
00000000
00000000
22221001
00000000
33330000
00000000
00000000
00000000
,
22221001
00000000
00001000
00000010
33331000
00000000
00001001
00000000
00000000
00000000
22220011
00000000
33330000
22220110
00000000
33330000
,
22221010
00000000
33330010
00000100
00001000
00000000
00000101
00000000
11111010
00000000
22220011
00000000
33331100
00000000
00000000
00000000
,
00001001
00000000
00000010
00000100
22220001
00000000
33331000
00000010
22220100
00000001
33331000
00000001
22220010
00000100
33331000
00000001
,
22221100
00000000
33330001
00000100
00000001
00000000
00001010
00000000
00000000
00000000
22220110
00000000
33330000
00000000
00000000
00000000
,
22221001
00000000
00001000
00000001
33331000
00000000
00000110
00000000
00000000
00000000
22220011
00000000
33330000
22220110
00000000
33330000
,
22221010
00000000
33331000
00000100
00000010
00000000
00000101
00000000
11110110
00000000
22221010
00000000
33330101
00000000
00001001
00000000
,
00000110
00000000
00000000
00000000
00001100
00000000
00000000
00000000
00000011
00000000
00000000
00000000
00001001
00000000
00000000
00000000
00000000
00000000
00001000
00000000
00000010
00000000
00000000
00000100
00001000
00000000
00000000
00000000
00000000
00000000
00000000
00000000
,
11111001
22221010
33330000
11110110
11111001
22220101
33330000
11111010
,
11111000
00000001
11110010
00000100
11111000
00000000
11110101
00000000
11111010
00000000
22221001
00000000
33330000
00000000
11111001
00000000
,
11110010
00001000
11110100
00001000
11110001
00000000
11111100
00000000
11110010
00000100
11110001
00001000
11110001
00000000
11111010
00000000
,
00021000
00000100
00001000
00000100
00201000
00000010
00001000
00000001
02001000
00000001
00001000
00000001
20001000
00000010
33331000
00000010
,
11111000
00000001
11110010
00000100
11111000
00000010
11110100
00000001
11111000
00000010
11110100
00000001
11110010
00000001
11110010
00000100
,
11111000
00000100
11111000
00000010
11111000
00000010
11111000
00000010
11110100
00000001
11111000
00000010
11110100
00000001
11110010
00000100
,
11111000
00000010
11110100
00000001
11110010
00000100
11111000
00000100
11111000
00000001
11111000
00000001
11111000
00000010
11111000
00000010
,
20022002
00000000
30033003
10011001
20022002
00000000
30033003
00000000
,
11111101
11111101
11111101
11111101
11111101
11111101
11111101
00000000
,
00010000
00000000
00000000
00000000
01000000
00000000
00100000
00010000
00100000
00000000
11000000
00000000
00000000
00000000
01010000
00000000
,
00000000
10010000
10010000
00000000
01000000
00010000
00110000
00000000
,
10010000
00000000
00000000
00000000
10010000
00000000
00010000
01000000
00010000
00000000
00010000
00000000
00000000
00000000
01100000
00000000
,
00000000
00110000
00110000
00000000
10000000
01000000
01010000
00000000
,
11111010
00000000
00000000
00000000
11111001
00000000
00001000
00000010
11111000
00000000
00000101
00000000
11110000
00000000
00000110
00000000
,
11110000
00000000
00001001
00000000
11111001
00000000
00000000
00000000
11111100
00000000
00000110
00000000
11110011
00000000
00000000
00000010
,
11111000
00000000
00000000
00000000
11111101
00000000
00000000
00000001
11110010
00000000
00001100
00000000
11110000
00000000
00001010
00000000
,
11110000
00000000
00001011
00000000
11111101
00000000
00000000
00000000
00011000
00100100
00011000
00100100
00011000
00000000
00011000
00100100
,
10011001
00000000
00000000
00000000
;

//---------------dance-double - 8-Arrowed----------------
#NOTES:
     dance-double:
     8-Arrowed:
     Hard:
     11:
     1.000,1.000,1.000,0.654,0.161,548.000,190.000,71.000,0.000,87.000:
00000000
00000000
00000000
00000000
,
00000000
00000000
00000000
00000000
,
10000000
00000000
01000000
00010000
00010000
00010000
00000000
10000000
,
00000000
00100000
00100000
00000000
00010000
10000000
00010000
00000000
,
10010000
00000000
00000000
00000000
10010000
00000000
00000000
00100000
00010000
00000000
00010000
00000000
00000000
00000000
01100000
00000000
,
00000000
01000000
01000000
00000000
00100000
01000000
01000000
00000000
,
00011000
00000000
00000000
00000000
00000001
00000000
00000000
00001000
00000001
00000000
00000001
00000000
00000000
00000000
00000100
00000000
,
00000000
00000100
00000100
00000000
00000010
00000010
00000010
00000000
,
00000100
00000000
00000100
00000000
00000001
00001000
00000000
10000001
,
20000002
00000000
00000000
00000000
00000000
00011000
00022000
30033003
,
10001000
10001000
10001000
10001000
10001000
10001000
10001000
10001000
,
00010001
00010001
00010001
00010001
00010001
00010001
00010001
00010001
,
01000100
01000100
01000100
01000100
01000100
01000100
01000100
01000100
,
00100010
00100010
00100010
00100010
00100010
00100010
00100010
00100010
,
10000001
10000001
10000001
10000001
10000001
10000001
10000001
10000001
,
01000010
01000010
01000010
01000010
01000010
01000010
01000010
01000010
,
00100100
00100100
00100100
00100100
00100100
00100100
00100100
00100100
,
00011000
00011000
00011000
00011000
00011000
00011000
00011000
00011000
,
00011000
00000000
00001000
00000100
00001000
00000000
00001000
00000100
00001000
00000000
00001000
00000100
00001000
00000000
00000100
00000000
,
00000000
10000001
00011000
00000000
10011001
00000000
10011001
00000000
,
00010000
00000000
00001000
00000010
00001000
00000000
00001000
00000010
00001000
00000000
00001000
00000010
00001000
00000000
00000100
00000000
,
00000000
00000000
00000000
00011000
00011000
00000000
00000000
00000000
00022000
00000000
00033000
00000000
00000000
00000000
00000000
00000000
,
00010000
00000000
00001000
00000001
00001000
00000000
00001000
00000001
00001000
00000000
00001000
00000001
00001000
00000000
00000100
00000000
,
00000000
00011000
00011000
00000000
00001000
00000000
00010000
00000000
,
00010000
00000000
00000001
00001000
00000001
00000000
00000001
00001000
00000001
00000000
00000001
00001000
00000001
00000000
00001000
00000000
,
00000000
00000000
00000010
00001000
00000001
00000000
00000000
00000000
00011000
00000000
00000000
00000000
00000000
00000000
00000000
00000000
,
00100000
01000000
00000000
00100000
01000000
00010000
00000000
00010000
,
10000000
10000000
10000000
00100000
00010000
10000000
00000000
01000000
,
00010000
00010000
00010000
10000000
01000000
01000000
01000000
00100000
,
10000000
00000000
00022000
00033000
,
00021000
00000000
00001000
00000000
00001000
00000000
00001000
00000000
00000100
00000000
00000100
00000000
00000100
00000000
00000100
00030000
,
00200010
00000000
00000010
00000000
00000010
00000000
00000010
00000000
00000001
00000000
00000001
00000000
00000001
00000000
00000001
00300000
,
02000100
00000000
00000100
00000000
00000100
00000000
00000100
00000000
00000010
00000000
00000010
00000000
00000010
00000000
00000010
03000000
,
00022000
00000000
00000000
00000000
00000000
00000000
00000000
00033000
20000002
00000000
00000000
00000000
00000000
00000000
30000003
00000000
,
10000000
10000000
10000000
10000000
10000000
10000000
10000000
10000000
,
00010000
00010000
00010000
00010000
00010000
00010000
00010000
00010000
,
00001000
00001000
00001000
00001000
00001000
00001000
00001000
00001000
,
00000001
00000001
00000001
00000001
00000001
00000001
00000001
00000001
,
01000000
01000000
01000000
01000000
01000000
01000000
01000000
01000000
,
00100000
00100000
00100000
00100000
00100000
00100000
00100000
00100000
,
00000100
00000100
00000100
00000100
00000100
00000100
00000100
00000100
,
00000010
00000010
00000010
00000010
00000010
00000010
00000010
00000010
,
00000010
01000000
00000000
10000000
00000000
00010000
10000000
01000000
,
10000000
00010000
00010000
00010000
00010000
00000000
01000000
00000000
,
00100000
01000000
10000000
00010000
00000000
01000000
00100000
10000000
,
01000000
00100000
00100000
10000000
10000000
00000000
00000000
00000000
,
00000100
00000001
00000000
00001000
00001000
00001000
00000001
00001000
,
00000100
00000010
00000001
00001000
00001000
00000000
00000001
00000000
,
00000100
00001000
00000001
00001000
00000000
00000010
00000001
00000010
,
00000100
00000001
00000010
00000010
00000100
00000000
00000000
00000000
,
10010000
00000000
00001000
00000100
00001000
00000000
00001000
00000100
00001000
00000000
00001000
00000100
00001000
00000000
10010000
00000000
,
00000000
00000110
00000110
00000000
01100000
00000000
01100000
00000000
,
10010000
00000000
00001000
00000010
00001000
00000000
00001000
00000010
00001000
00000000
00001000
00000010
00001000
00000000
10010000
00000000
,
00000000
00000000
00000000
10000001
10000001
00000000
00000000
00000000
10011001
00000000
00000000
00000000
00000000
00000000
00000000
00000000
,
10010000
00000000
00001000
00000001
00001000
00000000
00001000
00000001
00001000
00000000
00001000
00000001
00001000
00000000
10010000
00000000
,
00000000
00010000
00001000
00000000
00001000
00000000
00010000
00000000
,
10010000
00000000
00000001
00001000
00000001
00000000
00000001
00001000
00000001
00000000
00000001
00001000
00000001
00000000
10010000
00000000
,
00000000
00000000
00001000
00010000
00001000
00000000
00000000
00000000
10011001
00000000
00000000
00000000
00000000
00000000
00000000
00000000
,
20020001
00001000
30031000
00000100
00000000
20021000
30030000
00000010
,
20021000
00000000
00001000
00000000
30031000
00000000
00000001
00000000
00000000
00000000
20020001
00000000
30030000
20020100
00000000
30030000
,
20021000
30030010
00001000
00000001
10010000
20021000
30031000
00000000
,
00001000
00000010
20020001
30031000
20020100
30031000
20020010
30031000
,
20020100
30030001
00000001
00001000
00000000
20020010
30030100
00000000
,
20020001
00000000
00001000
00000000
30031000
00000000
00000010
00000000
00000000
00000000
20020010
00000000
30030000
20020100
00000000
30030000
,
20020010
30031000
00000010
00000001
10010100
20020010
30030100
00000000
,
00000010
00001000
00000001
00000001
00000000
00000010
00001000
00000000
,
10010001
20020010
30030000
10010100
10011000
20020010
30030000
10010010
,
10011000
10010010
10011000
10010001
10011000
20020001
30030000
10011000
,
10010010
10010100
10010001
10011000
10010010
10010001
10010001
10011000
,
00020002
00000000
00000000
00030003
00200020
00000000
00000000
00300030
02000200
00000000
00000000
03000300
20002000
00000000
30003000
00000000
,
10011000
10010010
10011000
10010100
10011000
10010100
10010010
10010010
,
10011000
10011000
10011000
10011000
10010100
10011000
10010100
10010010
,
10011000
10010100
10010010
10011000
10011000
10011000
10011000
10011000
,
20022002
00000000
30033003
10011001
20022002
00000000
30033003
00000000
,
00000001
00000010
00000100
00001000
00010000
00100000
01000000
00000000
,
00010000
00000000
01000000
00100000
00100000
01000000
00000000
00010000
,
00000000
10000000
00010000
00000000
01000000
00010000
00100000
00000000
,
10010000
00000000
10000000
00010000
00010000
00010000
00000000
01000000
,
00000000
10010000
10010000
00000000
10000000
01000000
00010000
00000000
,
00010010
00000000
00010001
00001000
00011000
00000001
00010000
00000100
,
00010000
00000001
00011000
00000000
00011000
00000100
00010010
00000000
,
00011000
00000000
00010001
00000000
00010010
00000100
00010000
00001000
,
00010000
00000000
00000010
00000000
00010100
00000000
00000000
00000000
00001000
00000100
00001000
00000100
00001000
00000000
00001000
00000100
,
00011000
00000000
00000000
00000000
;

//---------------dance-double - 8-Arrowed----------------
#NOTES:
     dance-double:
     8-Arrowed:
     Medium:
     8:
     0.843,1.000,0.903,0.203,0.009,518.000,98.000,22.000,0.000,1.000:
00000000
00000000
00000000
00000000
,
00000000
00000000
00000000
00000000
,
10000000
00000000
01000000
00000000
00010000
00010000
00000000
10000000
,
00000000
00100000
00100000
00000000
00010000
00010000
00010000
00000000
,
10000000
00000000
10000000
00000000
00010000
00010000
00000000
00100000
,
00000000
01000000
01000000
00000000
00100000
01000000
01000000
00000000
,
00011000
00000000
00000001
00000000
00000001
00000001
00000000
00000100
,
00000000
00000100
00000100
00000000
00000010
00000010
00000010
00000000
,
00000100
00000000
00000100
00000000
00000001
00001000
00000000
00000001
,
00000002
00000000
00000000
00000000
00000000
00010000
00020000
00030003
,
10000000
10000000
10000000
10000000
10000000
10000000
10000000
10000000
,
00000001
00000001
00000001
00000001
00000001
00000001
00000001
00000001
,
01000000
01000000
01000000
01000000
01000000
01000000
01000000
01000000
,
00000010
00000010
00000010
00000010
00000010
00000010
00000010
00000010
,
00100000
00100000
00100000
00100000
00100000
00100000
00100000
00100000
,
00000100
00000100
00000100
00000100
00000100
00000100
00000100
00000100
,
00010000
00010000
00010000
00010000
00010000
00010000
00010000
00010000
,
00001000
00001000
00001000
00001000
00001000
00001000
00001000
00001000
,
00000001
00000001
00000010
00000010
00000100
00000100
00001000
00001000
,
00000000
00000001
00001000
00000000
00010000
00000000
10000000
00000000
,
00001000
00001000
00000100
00000100
00000010
00000010
00000001
00000001
,
00000000
00000001
10000000
00000000
00022000
00033000
00000000
00000000
,
10000000
10000000
01000000
01000000
00100000
00100000
00010000
00010000
,
00000000
10000000
00010000
00000000
00001000
00000000
00000001
00000000
,
00010000
00010000
00100000
00100000
01000000
01000000
10000000
10000000
,
00000000
10000000
00000001
00000000
00022000
00033000
00000000
00000000
,
10000000
10000000
00000000
01000000
01000000
00010000
00000000
00010000
,
10000000
10000000
10000000
10000000
10000000
10000000
00000000
01000000
,
00100000
00100000
00100000
10000000
00100000
00100000
00100000
10000000
,
10000000
00000000
00022000
00033000
,
00000001
00000001
00000001
00000001
00000010
00000010
00000010
00000010
,
00000100
00000100
00000100
00000100
00001000
00001000
00001000
00001000
,
00010000
00010000
00010000
00010000
00100000
00100000
00100000
00100000
,
02000000
00000000
00000000
00000000
20000000
00000000
00000000
33000000
,
10000000
10000000
10000000
10000000
10000000
10000000
10000000
10000000
,
01000000
01000000
01000000
01000000
01000000
01000000
01000000
01000000
,
00100000
00100000
00100000
00100000
00100000
00100000
00100000
00100000
,
00010000
00010000
00010000
00010000
00010000
00010000
00010000
00010000
,
10001000
10001000
10001000
10001000
10001000
10001000
10001000
10001000
,
01000100
01000100
01000100
01000100
01000100
01000100
01000100
01000100
,
00100010
00100010
00100010
00100010
00100010
00100010
00100010
00100010
,
00010001
00010001
00010001
00010001
00010001
00010001
00010001
00010001
,
00010001
00000010
00000000
10000000
00000000
00010000
10000000
10000000
,
10000000
00010000
00010000
00010000
00010000
00000000
01000000
00000000
,
00100000
00100000
00100000
00010000
00000000
01000000
10000000
10000000
,
10000000
10000000
10000000
10000000
10000000
00000000
00000000
00000000
,
00000100
00000001
00000000
00001000
00001000
00001000
00001000
00001000
,
00000100
00000010
00000001
00000010
00001000
00000000
00000001
00000000
,
00000001
00000001
00000001
00000001
00000000
00000010
00000010
00000010
,
00000010
00000100
00000010
00000010
00000100
00000000
00000000
00000000
,
00000001
00000001
00000010
00000010
00000100
00000100
00001000
00001000
,
00000000
00000001
00001000
00000000
00010000
00000000
10000000
00000000
,
00001000
00001000
00000100
00000100
00000010
00000010
00000001
00000001
,
00000000
00000001
10000000
00000000
00022000
00033000
00000000
00000000
,
10000000
10000000
01000000
01000000
00100000
00100000
00010000
00010000
,
00000000
10000000
00010000
00000000
00001000
00000000
00000001
00000000
,
00010000
00010000
00100000
00100000
01000000
01000000
10000000
10000000
,
00000000
10000000
00000001
00000000
00022000
00033000
00000000
00000000
,
10010000
00001000
00001000
00001000
00000000
00001000
00000000
00001000
,
10010000
00000000
00000001
00000000
00000001
00000000
00000001
00000000
00000000
00000000
00000001
00000000
00000000
00000001
00000000
00000000
,
10010000
00000010
00000010
00000010
00000000
00000010
00000010
00000000
,
10010000
00000100
00000100
00000100
00000100
00000100
00000100
00000100
,
10010000
00001000
00001000
00001000
00000000
00001000
00001000
00000000
,
10010000
00000000
00000001
00000000
00000001
00000000
00000001
00000000
00000000
00000000
00000001
00000000
00000000
00000001
00000000
00000000
,
10010000
00000010
00000010
00000010
00000010
00000010
00000010
00000000
,
10010000
00000100
00000100
00000100
00000000
00000100
00000100
00000000
,
00010001
00000001
00010000
00001000
00011000
00001000
00010000
00000010
,
00010010
00000010
00010010
00000010
00010010
00000010
00010000
00000100
,
00010100
00000100
00010100
00000100
00010100
00000100
00010100
00000100
,
00000002
00000000
00000000
00000003
00000020
00000000
00000000
00000030
02000000
00000000
00000000
03000000
20000000
00000000
30000000
00000000
,
00010001
00010001
00010001
00010001
00010001
00010001
00010001
00010001
,
00010100
00010100
00010100
00010100
00010100
00010100
00010100
00010100
,
00010010
00010010
00010010
00010010
00010010
00010010
00010010
00010010
,
00022000
00000000
00033000
00011000
00022000
00000000
00033000
00000000
,
00000001
00000010
00000100
00001000
00010000
00100000
01000000
00000000
,
00010000
00000000
00100000
00100000
00100000
00100000
00000000
00010000
,
00000000
10000000
00010000
00000000
01000000
01000000
01000000
00000000
,
00010000
00000000
00010000
10000000
10000000
10000000
00000000
00100000
,
00000000
10000000
10000000
00000000
01000000
01000000
01000000
00000000
,
10000010
00000000
10001000
00001000
10001000
00001000
10000000
00000010
,
10000000
00000001
10001000
00000000
10000010
00000010
10000010
00000000
,
10000001
00000000
10001000
00000000
10000100
00000010
10000000
00000001
,
10000000
00000001
10000001
00000000
00011000
10000001
00011000
10000001
,
10011001
00000000
00000000
00000000
;

//---------------dance-double - 8-Arrowed----------------
#NOTES:
     dance-double:
     8-Arrowed:
     Easy:
     6:
     0.540,0.994,0.664,0.258,0.000,310.000,72.000,28.000,0.000,0.000:
00000000
00000000
00000000
00000000
,
00000000
00000000
00000000
00000000
,
10000000
01000000
00010000
00100000
,
10000000
00100000
00010000
00010000
,
10000000
10000000
00010000
00100000
,
00010000
01000000
00100000
01000000
,
00011000
00000001
00000001
00000100
,
00000010
00000100
00000010
00000010
,
00000100
00000100
00000001
00000100
,
00000002
00000000
00000000
00000000
00000000
00000000
00020000
00030003
,
10000000
10000000
10000000
10000000
,
00000001
00000001
00000001
00000001
,
01000000
01000000
01000000
01000000
,
00000010
00000010
00000010
00000010
,
00100000
00100000
00100000
00100000
,
00000100
00000100
00000100
00000100
,
00010000
00010000
00010000
00010000
,
00001000
00001000
00001000
00001000
,
00000001
00000010
00000100
00001000
,
00000000
00000001
00001000
00000000
00001000
00000000
00010000
00000000
,
00001000
00000100
00000010
00000001
,
00000000
00001000
00010000
00000000
00022000
00033000
00000000
00000000
,
10000000
01000000
00100000
00010000
,
00000000
10000000
00010000
00000000
00010000
00000000
00001000
00000000
,
00010000
00100000
01000000
10000000
,
00000000
00010000
00001000
00000000
00022000
00033000
00000000
00000000
,
20000000
30000000
02000000
03000000
,
10000000
10000000
10000000
10000000
,
00100000
00100000
00100000
00100000
,
00100000
00000000
00022000
00033000
,
00000001
00000001
00000010
00000010
,
00000100
00000100
00001000
00001000
,
00010000
00010000
00100000
00100000
,
02000000
00000000
00000000
00000000
00000000
00000000
00000000
03000000
20000000
00000000
00000000
00000000
00000000
00000000
30000000
00000000
,
10000000
10000000
10000000
10000000
,
01000000
01000000
01000000
01000000
,
00100000
00100000
00100000
00100000
,
00010000
00010000
00010000
00010000
,
10001000
10001000
10001000
10001000
,
01000100
01000100
01000100
01000100
,
00100010
00100010
00100010
00100010
,
00010001
00010001
00010001
00010001
,
00010001
00000000
01000000
10000000
,
10000000
00010000
00010000
01000000
,
00100000
00100000
00010000
10000000
,
10000000
10000000
10000000
00000000
,
00000100
00000010
00001000
00001000
,
00000100
00000001
00001000
00000001
,
00000001
00000001
00000100
00000010
,
00000010
00000010
00000100
00000000
,
00000001
00000010
00000100
00001000
,
00000010
00001000
00001000
00010000
,
00001000
00000100
00000010
00000001
,
00001000
00000000
00010000
00000000
00022000
00033000
00000000
00000000
,
10000000
01000000
00100000
00010000
,
10000000
00010000
00010000
00001000
,
00010000
00100000
01000000
10000000
,
00010000
00000000
00001000
00000000
00022000
00033000
00000000
00000000
,
10000000
00001000
00001000
00001000
,
10000000
00000100
00000100
00000100
,
10000000
00000010
00000010
00000010
,
10000000
00000001
00000001
00000001
,
00010000
00001000
00001000
00001000
,
00010000
00000100
00000100
00000100
,
00010000
00000010
00000010
00000010
,
00010000
00000001
00000001
00000001
,
00010001
00100010
01000100
10001000
,
00010001
00100010
01000100
10001000
,
00010001
00100010
01000100
10001000
,
00022000
00000000
00000000
00033000
00022000
00000000
00000000
00033000
00022000
00000000
00000000
00033000
00022000
00000000
00000000
00033000
,
00010001
00010001
00010001
00010001
,
00010100
00010100
00010100
00010100
,
00010010
00010010
00010010
00010010
,
00022000
00033000
00022000
00033000
,
00000001
00001000
00010000
10000000
,
00010000
00100000
00100000
00010000
,
10000000
00010000
01000000
01000000
,
00010000
00010000
10000000
00100000
,
10000000
10000000
01000000
01000000
,
00010010
00011000
00011000
00010010
,
00010001
00011000
00010010
00010010
,
00010001
00011000
00010100
00010001
,
00010001
00000000
00010001
00000000
00011000
00100100
00011000
00100100
,
00011000
00000000
00000000
00000000
;

//---------------dance-double - 8-Arrowed----------------
#NOTES:
     dance-double:
     8-Arrowed:
     Beginner:
     4:
     0.287,0.535,0.350,0.212,0.000,155.000,38.000,23.000,0.000,1.000:
00000000
00000000
00000000
00000000
,
00000000
00000000
00000000
00000000
,
10000000
00000000
00010000
00000000
,
10000000
00000000
00010000
00000000
,
10000000
00000000
00010000
00000000
,
00010000
00000000
00100000
00000000
,
00011000
00000000
00000001
00000000
,
00000010
00000000
00000010
00000000
,
00000100
00000000
00000001
00000000
,
00000002
00000000
00000000
00000000
00000000
00000000
00000000
00000003
,
10000000
00000000
10000000
00000000
,
00000001
00000000
00000001
00000000
,
01000000
00000000
01000000
00000000
,
00000010
00000000
00000010
00000000
,
00100000
00000000
00100000
00000000
,
00000100
00000000
00000100
00000000
,
00010000
00000000
00010000
00000000
,
00001000
00000000
00001000
00000000
,
00000001
00000000
00000010
00000000
,
00000100
00000000
00001000
00000000
,
00001000
00000000
00000100
00000000
,
00000010
00000000
00000001
00000000
,
10000000
00000000
01000000
00000000
,
00100000
00000000
00010000
00000000
,
00010000
00000000
00100000
00000000
,
01000000
00000000
10000000
00000000
,
20000000
30000000
02000000
03000000
,
00200000
00300000
00020000
00030000
,
00002000
00003000
00000200
00000300
,
00000020
00000030
00000002
00000003
,
00000001
00000000
00000010
00000000
,
00000100
00000000
00001000
00000000
,
00010000
00000000
00100000
00000000
,
02000000
00000000
00000000
00000000
00000000
00000000
00000000
03000000
20000000
00000000
00000000
00000000
00000000
00000000
30000000
00000000
,
10000000
00000000
10000000
00000000
,
01000000
00000000
01000000
00000000
,
00100000
00000000
00100000
00000000
,
00010000
00000000
00010000
00000000
,
00100000
00000000
00100000
00000000
,
01000000
00000000
01000000
00000000
,
10000000
00000000
10000000
00000000
,
01000000
00000000
01000000
00000000
,
10000000
00000000
01000000
00000000
,
10000000
00000000
00010000
00000000
,
00100000
00000000
00010000
00000000
,
10000000
00000000
10000000
00000000
,
00000100
00000000
00001000
00000000
,
00000100
00000000
00001000
00000000
,
00000001
00000000
00000100
00000000
,
00000010
00000000
00000100
00000000
,
00000001
00000000
00000100
00000000
,
00000010
00000000
00001000
00000000
,
00001000
00000000
00000010
00000000
,
00001000
00000000
00000000
00000000
00022000
00033000
00000000
00000000
,
10000000
00000000
00100000
00000000
,
10000000
00000000
00010000
00000000
,
00010000
00000000
01000000
00000000
,
00010000
00000000
00000000
00000000
00022000
00033000
00000000
00000000
,
10000000
00000000
00000000
00000000
,
11000000
00000000
00000000
00000000
,
10100000
00000000
00000000
00000000
,
10010000
00000000
00000000
00000000
,
10001000
00000000
00000000
00000000
,
10000100
00000000
00000000
00000000
,
10000010
00000000
00000000
00000000
,
10000001
00000000
00000000
00000000
,
00010001
00000000
00100010
00000000
,
01000100
00000000
10001000
00000000
,
00010001
00000000
00100010
00000000
,
00022000
00000000
00000000
00000000
00000000
00000000
00000000
00033000
00022000
00000000
00000000
00000000
00000000
00000000
00000000
00033000
,
00010001
00000000
00010001
00000000
,
00010100
00000000
00010100
00000000
,
00010010
00000000
00010010
00000000
,
00022000
00033000
00022000
00033000
,
00001001
00000000
10010000
00000000
,
00010000
00000000
00100000
00000000
,
10000000
00000000
01000000
00000000
,
00010000
00000000
10000000
00000000
,
10000000
00000000
01000000
00000000
,
00010010
00000000
00011000
00000000
,
00010001
00000000
00010010
00000000
,
00010001
00000000
00010100
00000000
,
00010001
00000000
00011000
10011001
,
00011000
00000000
00000000
00000000
;

//---------------dance-double - Insane EDIT----------------
#NOTES:
     dance-double:
     Insane EDIT:
     Edit:
     30:
     1.000,1.000,1.000,1.000,0.935,724.000,628.000,119.000,0.000,425.000:
00000000
00000000
00000000
00000000
,
00000000
00000000
00000000
00000000
,
10000000
00000000
00000000
00000000
01000000
00000000
00110000
00110000
00110000
00000000
00110000
00000000
00000000
00000000
10010000
00000000
,
00000000
10010000
10010000
00000000
00100000
10000000
01000000
00000000
,
01100000
00000000
00000000
00000000
01100000
00000000
00000000
10010000
10010000
00000000
10010000
00000000
00000000
00000000
10010000
00000000
,
00000000
10010000
01010000
00000000
00100000
01000000
10000000
00000000
,
11111001
00000000
00000000
00000000
11110101
00000000
00000000
00001001
11111001
00000000
00001001
00000000
11110000
00000000
00000011
00000000
,
11110000
00000000
00001101
00000000
11111101
00000000
00000000
00001010
11111010
00000000
00000100
00000000
11110001
00000000
00000000
00000101
,
11110101
00000000
00000000
00000000
11110101
00000000
00000000
00001010
11111010
00000000
00000110
00000000
11110000
00000101
00000101
00000000
,
00022000
00000000
00000000
00000000
00000000
20000002
00200200
30333303
,
10011010
00000000
10011001
00000000
10010101
00000000
10010001
10011000
10010000
10010010
10010000
10010100
10010001
00000000
10010010
00000000
,
10010110
00000000
10011000
00000000
10010001
00000000
10010010
10010100
10010000
10010001
10010000
10011000
10010001
00000000
10010100
00000000
,
10010110
00000000
10011001
00000000
10011010
00000000
10010100
10010001
10010000
10010010
10010000
10011000
10010100
00000000
10010101
00000000
,
11011010
00000000
11010001
00000000
11010100
00000000
11010010
11010100
11010001
11011000
11010010
11010100
11010001
11010000
11010110
00000000
,
11111001
00000000
11110001
00000000
11111000
00000000
11110100
11110010
11110000
11110001
11110000
11110010
11111000
00000000
11110001
00000000
,
11110010
00000000
11110100
00000000
11111000
00000000
11110001
11110010
11110000
11111000
11110000
11110001
11110100
00000000
11111001
00000000
,
11110011
00000000
11111100
00000000
11111010
00000000
11110001
11110100
11110000
11111000
11110000
11110010
11110100
00000000
11110001
00000000
,
11111000
00000000
11110110
00000000
11111001
00000000
11110010
11110100
11111000
11110010
11111000
00000000
11110101
00000000
11111100
00000000
,
11110110
00000000
00011000
00010100
00011000
00000000
00011000
00010100
00011000
00000000
00011000
00010100
00011000
00000000
20022002
00000000
,
30033003
11011101
11011101
00000000
11011101
00000000
11011101
00000000
,
10011001
00000000
10011000
10010010
10011000
00000000
10011000
10010010
10011000
00000000
10011000
10010010
10011000
00000000
10011001
00000000
,
00000000
00000000
00000000
10011001
10011001
00000000
00000000
00000000
10011001
00000000
00000000
00000000
10011001
00000000
10011001
00000000
,
10011001
00000000
11011000
11010001
11011000
00000000
11011000
11010001
11011000
00000000
11011000
11010001
11011000
00000000
01100110
00000000
,
00000000
10111011
10111011
00000000
11111001
00000000
11111001
00000000
,
11111111
00000000
11111101
11111101
11111101
00000000
11111101
11111101
11111101
00000000
11111101
11111101
11111101
00000000
00100010
00000000
,
00000000
00000000
00000010
00001000
00000100
00000000
00000000
00000000
00011000
01000100
00011000
00000000
01100110
00000000
10011001
00000000
,
00100000
01000000
00000000
00100000
01000000
00010000
00000000
00010000
,
10010000
10010000
10010000
10010000
10010000
00000000
00100000
00000000
00010000
00000000
10000000
00000000
00000000
00000000
01000000
00000000
,
00110000
00110000
00110000
00110000
00110000
00000000
10000000
00000000
01010000
01010000
01010000
01010000
01010000
00000000
00100000
00000000
,
10000000
00000000
00222200
00333300
,
11111000
11110010
11111000
11110010
11111000
11110010
11111000
11110010
11110100
11110001
11110100
11110001
11110100
11110001
11110100
11110001
,
11111000
11110001
11111000
11110001
11111000
11110001
11111000
11110001
11111000
11110010
11110100
11110001
11111000
11110010
11110100
11110001
,
11111000
11110100
11110010
11110001
11111000
11110100
11110010
11110001
11111000
11110001
11110010
11110100
11111000
11110001
11110010
11110100
,
22222000
00000000
00000000
00000000
00000000
00000000
00000000
33333000
22000022
00000000
00000000
00000000
00000000
00000000
33000033
00000000
,
11000000
00000000
11000000
00000000
11000000
00000000
00110000
00110000
00000000
00110000
00000000
00110000
00110000
00000000
00100000
00000000
,
00010000
00000000
00010000
00000000
10000000
00000000
00110000
00110000
00000000
10000000
00000000
01100000
01100000
00000000
00010000
00000000
,
00001010
00000000
00001010
00000000
00000101
00000000
00001001
00001001
00000000
00000010
00000000
00000101
00000101
00000000
00001010
00000000
,
00000101
00000000
00000110
00000000
00001001
00000000
00000101
00000101
00000000
00000010
00000000
00000101
00000101
00000000
00001001
00001001
,
00001001
00000000
00000110
00000000
00001001
00000000
00001001
00001001
00000000
00000010
00000000
00000101
00000101
00000000
00000110
00000000
,
00001001
00000000
00000001
00000000
00001000
00000000
00000110
00000110
00000000
00000010
00000000
00001100
00001100
00000000
00000101
00000000
,
10000000
00000000
01000000
00000000
00100000
00000000
00110000
00110000
00000000
00010000
00000000
10010000
10010000
00000000
01000000
00000000
,
00100000
00000000
10000000
00000000
00010000
00000000
01000000
00000000
10010000
10010000
10010000
00000000
10010000
10010000
10010000
10010000
,
10010000
01000000
00000000
10000000
00000000
00010000
10000000
01000000
,
10000000
00000000
00110000
00110000
00110000
00000000
00110000
00110000
00110000
00000000
00000000
00000000
01000000
00000000
00000000
00000000
,
00100000
00000000
01000000
00000000
10000000
00000000
00110000
00110000
00000000
01010000
01010000
00000000
00100000
00000000
10000000
00000000
,
01000000
00000000
00110000
00110000
00110000
00000000
10010000
10010000
10010000
00000000
00000000
00000000
00000000
00000000
00000000
00000000
,
00000100
00000000
00001001
00000000
00000000
00000000
00001010
00001010
00001010
00001010
00000000
00000101
00000101
00000000
00001001
00000000
,
00000110
00000000
00000110
00000110
00000110
00000000
00001100
00001010
00001100
00001010
00001100
00000000
00001001
00001001
00001001
00000000
,
00000110
00000000
00001001
00000000
00000011
00000000
00001010
00001010
00000000
00001010
00000101
00001010
00000101
00000000
00001010
00000000
,
00000101
00000000
00001001
00001001
00001001
00000000
00001101
00001101
00001101
00001101
00001101
00001101
00001101
00001101
00001101
00000000
,
11110110
00000000
00011000
00010100
00011000
00000000
00011000
00010100
00011000
00000000
00011000
00010100
00011000
00000000
20022002
00000000
,
30033003
11011101
11011101
00000000
11011101
00000000
11011101
00000000
,
10011001
00000000
10011000
10010010
10011000
00000000
10011000
10010010
10011000
00000000
10011000
10010010
10011000
00000000
10011001
00000000
,
00000000
00000000
00000000
10011001
10011001
00000000
00000000
00000000
10011001
00000000
00000000
00000000
10011001
00000000
10011001
00000000
,
10011001
00000000
11011000
11010001
11011000
00000000
11011000
11010001
11011000
00000000
11011000
11010001
11011000
00000000
01100110
00000000
,
00000000
10111011
10111011
00000000
11111001
00000000
11111001
00000000
,
11111111
00000000
11111101
11111101
11111101
00000000
11111101
11111101
11111101
00000000
11111101
11111101
11111101
00000000
00100010
00000000
,
00000000
00000000
00111100
00111100
00111100
00000000
00000000
00000000
00000001
00000010
00000100
00001000
00000010
00000100
00000001
00001000
,
22220011
00000000
00001100
00001100
33331100
00000000
00000110
00000000
00000000
00000000
22221001
00000000
33330000
00000000
00000000
00000000
,
22221001
00000000
00001010
00001010
33331010
00000000
00001001
00000000
00000000
00000000
22220011
00000000
33330000
22220110
00000000
33330000
,
22221010
00000000
33331101
00001101
00001101
00000000
00000101
00000000
11111010
00000000
22220011
00000000
33331100
00000000
00000000
00000000
,
00001001
00000000
00001001
00001001
22221001
00000000
33331000
00000010
22220100
00000001
33331000
00000001
22220010
00000100
33331000
00000001
,
22221100
00000000
33330101
00000101
00000101
00000000
00001010
00000000
00000000
00000000
22220110
00000000
33330000
00000000
00000000
00000000
,
22221001
00000000
00001001
00001001
33331001
00000000
00000110
00000000
00000000
00000000
22220011
00000000
33330000
22220110
00000000
33330000
,
22221010
00000000
33331100
00001100
00001100
00000000
00000101
00000000
11110110
00000000
22221010
00000000
33330101
00000000
00001001
00000000
,
11110110
00000000
11110000
00000000
11111100
00000000
00000000
00000000
11110011
00000000
00000000
00000000
11111001
00000000
00000000
00000000
11110000
00000000
11111010
00000000
11111010
00000000
00000000
00000100
11111000
00000000
00000000
00000000
11110000
00000000
00000000
00000000
,
11111001
22221010
33330000
11110110
11111001
22220101
33330000
11111010
,
11111000
11110001
11110010
11110100
11111000
00000000
11110101
00000000
11111010
00000000
22221001
00000000
33330000
00000000
11111001
00000000
,
11110010
11111000
11110100
11111000
11110001
00000000
11111100
00000000
11110010
11110100
11110001
11111000
11110001
00000000
11111010
00000000
,
00021000
00000100
00001000
00000100
00201000
00000010
00001000
00000001
02001000
00000001
00001000
00000001
20001000
00000010
33331000
00000010
,
11111000
11110001
11110010
11110100
11111000
11110010
11110100
11110001
11111000
11110010
11110100
11110001
11110010
11110001
11110010
11110100
,
11111000
11110100
11111000
11110010
11111000
11110010
11111000
11110010
11110100
11110001
11111000
11110010
11110100
11110001
11110010
11110100
,
11111000
11110010
11110100
11110001
11110010
11110100
11111000
11110100
11111000
11110001
11111000
11110001
11111000
11110010
11111000
11110010
,
20022002
00000000
30033003
10011001
20022002
00000000
30033003
00000000
,
11111111
11111111
11111111
11111111
11111111
11111111
11111111
00000000
,
00010000
00000000
00000000
00000000
01000000
00000000
00110000
00110000
00110000
00000000
11000000
00000000
00000000
00000000
01010000
00000000
,
00000000
10010000
10010000
00000000
01000000
00010000
00110000
00000000
,
10010000
00000000
00000000
00000000
10010000
00000000
01010000
01010000
01010000
00000000
00010000
00000000
00000000
00000000
01100000
00000000
,
00000000
00110000
00110000
00000000
10000000
01000000
01010000
00000000
,
11111010
00000000
00000000
00000000
11111001
00000000
00001010
00001010
11111010
00000000
00000101
00000000
11110000
00000000
00000110
00000000
,
11110000
00000000
00001001
00000000
11111001
00000000
00000000
00000000
11111100
00000000
00000110
00000000
11110011
00000000
00000000
00001010
,
11111010
00000000
00000000
00000000
11111101
00000000
00000000
00000011
11110011
00000000
00001100
00000000
11110000
00000000
00001010
00000000
,
11110000
00000000
00001011
00000000
11111101
00000000
00000000
00000000
11111111
11111111
11111111
11111111
11111111
00000000
11111111
11111111
,
11111111
00000000
00000000
00000000
;
