#TITLE:Portico;
#SUBTITLE:;
#ARTIST:Sergei Stern;
#TITLETRANSLIT:;
#SUBTITLETRANSLIT:;
#ARTISTTRANSLIT:;
#CREDIT:;
#BANNER:Portico BN.jpg;
#BACKGROUND:Portico BG.jpg;
#LYRICSPATH:;
#CDTITLE:;
#MUSIC:Portico.mp3;
#OFFSET:0.000;
#SAMPLESTART:0.050;
#SAMPLELENGTH:12.000;
#SELECTABLE:YES;
#BPMS:0.000=82.500;
#STOPS:;
#BGCHANGES:;
// cache tags:
#FIRSTBEAT:0.000;
#LASTBEAT:96.000;
#SONGFILENAME:Songs/Fog's StupidStream Pack/[Fogfactor] Portico/Portico.sm;
#HASMUSIC:1;
#HASBANNER:1;
#MUSICLENGTH:69.908;
// end cache tags

//---------------dance-single - Copied from----------------
#NOTES:
     dance-single:
     Copied from:
     Challenge:
     10:
     1.000,1.000,1.000,0.129,1.000,378.000,288.000,9.000,0.000,14.000:
1100
0100
1000
1100
1000
0100
1100
0110
1100
0010
1001
0010
0000
1000
1100
0010
,
0110
0001
0010
1100
0111
0010
1100
0100
1100
1000
0100
0110
0010
0101
0110
0100
,
1200
1000
0001
0311
0001
0010
0101
1011
1101
1000
1111
1000
0001
1000
1001
0000
,
1100
0000
0101
1100
0010
0100
1100
0100
1100
0000
0011
1100
0100
0010
0001
0001
,
1111
0011
0101
1100
0010
1100
0011
0010
0010
1010
0101
0001
0010
0100
1001
1000
,
1010
0010
1001
0010
0110
0001
0101
1000
0011
0101
0011
0100
1010
1010
0101
1001
,
2010
0001
0001
3101
0010
1100
0101
1010
1010
1100
0011
1100
0110
1010
0101
1010
,
1010
0101
0011
0110
0101
0011
0110
1001
0011
1100
0110
0101
1010
0110
0101
0110
,
2101
0001
0110
0010
3010
0110
0101
0110
1100
0101
0110
1100
0110
0101
1100
0101
,
0110
1010
0011
1100
0110
0011
1100
0011
1100
0110
1001
0011
1100
0011
1100
0110
,
2001
0101
0100
3110
0101
1010
1100
0011
0110
0101
1100
0110
1010
0101
0011
0110
,
1100
0110
0011
0110
0101
0110
1010
0110
1001
0110
1100
0110
0101
1010
0110
0101
,
1100
0100
1010
1100
1000
0100
1100
1100
1100
0100
0010
0100
0010
1000
1100
0010
,
1001
0001
0010
1110
0101
1010
1000
0101
1010
0010
0100
1010
0100
1010
1010
0010
,
2100
0010
0111
3101
0010
0101
0011
0011
0101
1001
0001
0101
0001
0011
1010
0000
,
1100
0000
0101
1100
0100
0010
1001
0100
1100
0000
0001
1100
0010
0001
0001
0001
,
2100
0001
0010
3010
1100
0101
0011
1100
0101
0011
1100
0101
0011
0110
1100
1010
,
0101
0011
0110
1001
0110
1100
0101
0110
1100
0101
1100
0101
1010
0011
1100
0110
,
2001
0100
0010
3001
0110
0011
1010
0110
0101
1010
0110
0011
1100
0110
0101
1010
,
0110
0011
1100
0101
0110
1010
0101
0110
1010
1100
0110
0011
0110
1010
1100
0110
,
2001
0010
0100
3010
0011
1010
0110
0011
0110
1010
0101
0110
1001
0110
1001
0110
,
1010
0101
1001
0110
1001
1010
0101
0011
0110
0011
0110
1001
0101
0011
1100
0110
,
2100
0001
0010
3001
1100
0011
0110
1001
0011
0110
1100
0110
0011
0101
0110
1010
,
0110
0101
0011
0110
1100
0110
0011
0101
1010
0110
0011
1010
0101
0110
1100
0011
,
0110
0000
0000
0000
;
