#TITLE:Drrrrrrr!;
#SUBTITLE:;
#ARTIST:DJ Sharpnel;
#TITLETRANSLIT:;
#SUBTITLETRANSLIT:;
#ARTISTTRANSLIT:;
#CREDIT:;
#BANNER:DRR_BN.png;
#BACKGROUND:DRR_BG.png;
#LYRICSPATH:;
#CDTITLE:;
#MUSIC:Drrrrrrr!.ogg;
#OFFSET:-0.460;
#SAMPLESTART:262.457;
#SAMPLELENGTH:21.386;
#SELECTABLE:YES;
#DISPLAYBPM:180.000;
#BPMS:0.000=179.550,604.000=89.775,608.000=179.550,768.000=269.325,768.500=134.662,769.000=269.325,769.500=134.663,770.000=269.325,770.500=134.663,771.000=179.550,776.000=359.100,776.667=89.775,777.000=359.100,777.667=89.775,778.000=359.100,779.000=179.550,876.000=89.775;
#STOPS:778.000=0.042
,778.250=0.042
,778.500=0.041
,778.750=0.042
;
#BGCHANGES:;
// cache tags:
#FIRSTBEAT:0.000;
#LASTBEAT:885.000;
#SONGFILENAME:Songs/SHARPNELSTREAMZ v2/Drrrrrrr!/Drrrrrrr!.sm;
#HASMUSIC:1;
#HASBANNER:1;
#MUSICLENGTH:301.453;
// end cache tags

//---------------dance-single - 16+ (Danppo)----------------
#NOTES:
     dance-single:
     16+ (Danppo):
     Hard:
     16:
     1.000,1.000,0.126,0.093,1.000,2928.000,38.000,28.000,36.000,0.000:
0000
0000
0000
0000
,
0000
0000
0000
0000
,
0000
0000
0000
0000
,
0000
0000
0000
0000
,
0000
0000
0000
0000
,
0000
0000
0000
0000
,
0000
0000
0000
0000
,
0000
0000
0000
1000
,
0001
1000
0010
1000
0001
1000
0100
0010
0001
1000
0010
1000
0001
1000
0001
0100
,
0010
1000
0001
0010
0100
1000
0001
0100
0001
1000
0010
1000
0001
1000
0100
0010
,
0001
0100
0010
1000
0001
0100
0010
1000
0001
0010
0100
1000
0001
1000
0001
1000
,
0010
0010
1000
1000
0100
0100
0010
0010
,
0001
0001
0010
0010
0100
0100
1000
1000
,
0001
0001
1000
1000
0010
0010
0100
0100
,
0001
0001
1000
1000
0100
0100
0010
0010
,
0001
1000
0001
1000
0010
0100
0010
0100
0001
1000
0001
1000
0200
0000
1300
0000
,
2MM2
0000
3003
0000
1000
0001
1000
0001
0010
0100
1000
0001
1000
0010
1000
0010
,
0100
0001
0010
0100
1000
0010
1000
0010
0100
0001
0010
0100
1000
0001
1000
0001
,
0010
0100
1000
0001
1000
0010
1000
0010
0100
0001
0010
0100
1000
0001
1000
0001
,
0100
0001
0010
0100
1000
0001
1000
0001
0010
0100
1000
0001
1000
0010
1000
0001
,
0100
0001
1000
0010
0100
0001
1000
0001
1000
0010
0100
0001
1000
0100
0010
0001
,
1000
0001
1000
0010
0100
0001
0010
0100
1000
0001
1000
0010
0100
0001
0100
0010
,
1000
0100
0010
0001
0100
0001
0010
0100
1000
0001
1000
0100
0010
0001
1000
0010
,
1000
0000
0000
0001
0000
0000
0010
0000
0000
0001
0000
0000
1000
0000
0000
0001
0000
0000
0100
0000
0000
0010
0000
0000
4000
0000
0004
0000
0000
0000
0000
0000
0000
0000
0000
0000
3003
0000
0000
0000
0000
0000
0000
0000
0000
0000
0000
0000
,
0001
1000
0001
0010
0100
1000
0001
1000
0010
0100
0010
0100
0001
1000
0010
0100
,
0001
1000
0100
0010
0001
0100
0010
1000
0100
0010
0001
1000
0001
0100
0001
1000
,
0010
1000
0001
0100
0001
1000
0100
0010
0001
0100
0001
0010
0100
1000
0001
1000
,
0100
0010
0001
1000
0001
0100
0010
1000
0001
0100
0001
0100
0010
1000
0100
0010
,
0001
0100
0001
0010
0100
1000
0001
1000
0010
0100
0010
0100
0001
1000
0010
0100
,
0001
0100
0010
1000
0001
1000
0001
0010
0100
1000
0010
0100
0001
0010
0100
1000
,
0001
0100
0001
1000
0100
1000
0001
0100
0001
1000
0010
0100
0001
0100
0010
1000
,
0001
0010
0100
1000
0001
1000
0001
0010
0100
1000
0004
0000
0000
0000
0003
0000
,
1MM1
0000
0000
0000
1000
0001
0100
0001
0010
0100
1000
0001
1000
0001
0100
0001
,
1000
0010
0100
0001
0100
0001
0010
0100
1000
0001
0100
0001
0100
0001
0010
0100
,
1000
0001
1000
0010
0100
0001
1000
0100
0010
0001
1000
0001
0010
0001
1000
0010
,
1000
0010
1000
0001
0100
0010
1000
0001
0010
0100
1000
0001
0100
0001
1000
0100
,
0010
0001
1000
0001
0010
0100
1000
0010
1000
0001
1000
0100
0010
0001
1000
0100
,
1000
0100
0010
0001
1000
0010
0100
0001
1000
0010
0100
0001
1000
0010
1000
0001
,
0010
0100
1000
0010
0100
0001
0010
0100
1000
0001
0100
0001
0100
0010
0100
0001
,
1000
0000
0000
0100
0000
0000
1000
0000
0000
0100
0000
0000
0010
0000
0000
0001
0000
0000
1000
0000
0000
0010
0000
0000
4000
0000
0004
0000
0000
0000
0000
0000
0000
0000
0000
0000
3003
0000
0000
0000
0000
0000
0000
0000
0000
0000
0000
0000
,
1000
0001
1000
0100
0010
0001
0100
0001
0010
0100
1000
0001
1000
0010
0100
0001
,
1000
0010
0100
0001
0100
0001
0010
0100
1000
0001
0100
0001
0100
0001
0010
0100
,
1000
0001
1000
0010
1000
0001
0100
0001
0010
0100
1000
0001
1000
0010
0100
0001
,
1000
0010
0100
0001
0010
0100
1000
0001
0010
0100
1000
0001
0100
0001
1000
0100
,
0010
0001
1000
0001
0010
0100
1000
0010
1000
0001
1000
0100
0010
0001
1000
0010
,
1000
0010
0100
0001
1000
0010
0100
0001
1000
0100
0010
0001
1000
0010
1000
0001
,
0010
0001
1000
0001
0010
0001
1000
0001
0010
0100
1000
0001
1000
0010
0100
0001
,
1000
0000
0000
0000
0000
0000
0000
0000
0000
0000
0000
0000
0010
0000
0000
0000
0000
0000
0000
0000
0000
0000
0000
0000
1000
0000
0000
0000
0000
0000
0000
0000
0000
0000
0000
0000
0010
0000
0000
0000
0000
0000
0000
0000
0000
0000
0000
0000
0100
0000
0000
0000
0000
0000
0000
0000
0000
0000
0000
0000
0001
0000
0000
0000
0000
0000
0000
0000
0000
0000
0000
0000
1000
0000
0000
0000
0000
0000
0000
0000
0000
0000
0000
0000
0010
0000
0000
0000
0000
0000
0000
0000
0000
0000
0000
0000
1000
0000
0000
0000
0000
0000
0000
0000
0000
0000
0000
0000
0001
0000
0000
0000
0000
0000
0000
0000
0000
0000
0000
0000
2000
0000
0000
0000
0000
0000
0000
0000
0000
0000
0000
0000
0000
0000
0000
0000
0000
0000
0000
0000
0000
0000
0000
0000
0000
0000
0000
0000
0000
0000
0000
0000
0000
0000
0000
0000
0000
0000
0000
0000
0000
0000
0000
0000
0000
0000
0000
0000
0000
0000
0000
0000
0000
0000
0000
0000
0000
0000
0000
0000
0000
0000
0000
0000
0000
0000
0000
0000
0000
0000
3000
0000
,
1001
MMMM
1010
0001
1010
0100
0011
1000
,
0011
1000
0101
0010
0101
0010
2000
0002
,
3000
0023
0100
0030
0100
2000
0000
3020
,
0000
0230
0001
0300
0001
0000
0010
0100
,
1000
0000
0001
1000
0100
1000
0010
1000
,
0001
0010
0001
1000
0001
0100
0000
0200
,
0000
0301
1000
0001
0010
0010
0100
1000
,
0002
0000
0000
0000
0103
0000
0010
0000
1000
0001
1000
0001
1000
0001
1000
0001
,
1000
0100
0010
0001
1000
0100
0010
0001
0100
0010
1000
0010
0100
0001
1000
0001
,
1000
0010
0100
0010
0100
0001
0010
0100
1000
0001
1000
0001
0100
0010
1000
0001
,
0100
0010
0100
0010
1000
0100
1000
0001
0010
0001
1000
0001
0100
0010
0100
0010
,
1000
0001
0100
0001
1000
0100
0010
0001
1000
0100
0010
0001
1000
0010
0100
0001
,
0100
0010
1000
0010
0100
0001
1000
0100
1000
0100
0010
0001
1000
0010
0100
0001
,
0100
0010
1000
0001
0100
0001
0100
0010
1000
0001
1000
0001
0010
0100
1000
0100
,
0010
0001
1000
0001
0100
0010
1000
0100
1000
0100
0010
0001
1000
0010
0100
0001
,
1000
0001
1000
0100
0010
0001
1000
0010
0100
0001
1000
0010
0100
0001
0010
0100
,
1000
0100
0010
0001
1000
0001
1000
0001
0010
0100
1000
0010
0100
0001
0100
0010
,
1000
0001
0100
0010
1000
0100
1000
0100
0010
0001
0100
0010
1000
0100
0010
0001
,
1000
0010
0100
0001
0100
0010
1000
0010
0100
0001
0010
0100
1000
0001
0100
0010
,
1000
0001
0100
0010
1000
0001
0010
0100
1000
0100
1000
0001
0100
0010
0100
0010
,
1000
0001
0100
0010
1000
0001
1000
0001
0010
0100
1000
0100
0010
0001
1000
0010
,
0100
0010
0100
0001
1000
0001
0010
0100
1000
0100
0010
0001
1000
0010
0100
0001
,
0100
0010
0100
0001
1000
0010
1000
0001
1000
0100
1000
0100
0010
0001
1000
0010
,
0100
0001
1000
0001
1000
0100
0010
0001
1000
0001
4000
0000
0000
0000
3000
0000
,
1MM2
0000
0000
0000
0000
0000
2003
0000
0000
0000
0000
0000
3001
0010
0100
1000
,
0010
0100
0001
0100
0010
1000
0001
0010
0100
1000
0100
0010
0001
0010
0100
0010
,
0001
1000
0010
0100
0001
1000
0010
0100
0010
1000
0001
0100
0010
0100
0001
1000
,
0001
0010
0100
1000
0100
0010
0100
1000
0100
0010
0001
1000
0010
0100
0001
0100
,
0010
1000
0010
0100
0001
0100
0010
1000
0001
0010
0100
1000
0100
0010
0100
1000
,
0100
0010
0001
0010
0100
0010
0001
1000
0010
0100
0001
1000
0010
0100
0001
0100
,
0010
1000
0010
0100
0001
0010
0100
1000
0100
0010
0100
1000
0100
0010
0001
1000
,
0010
0000
0000
0100
0000
0000
0010
0000
0000
1000
0000
0000
0001
0000
0000
0100
0000
0000
0010
0000
0000
0100
0000
0000
0010
0000
0000
1000
0000
0000
0001
0000
0000
1000
0000
0000
0004
0000
4000
0000
0000
0000
0000
0000
0000
0000
0003
0000
,
3100
0010
0100
1000
0001
0010
0100
1000
0001
1000
0001
1000
0010
0100
0001
0100
,
0010
1000
0010
0100
0001
0010
0100
1000
0100
0010
0001
1000
0001
0100
0010
1000
,
0001
0100
0010
0100
0001
1000
0100
0010
0001
0010
0100
1000
0100
0010
0100
1000
,
0001
1000
0010
0100
0001
0100
0010
1000
0001
1000
0001
1000
0010
0100
0010
0100
,
0001
1000
0001
1000
0100
0010
0001
1000
0100
0010
0001
1000
0010
0100
0001
1000
,
0001
0100
0010
1000
0001
0100
0010
1000
0001
0010
0100
1000
0100
0010
0001
1000
,
0010
0010
0100
0100
0001
0001
1000
1000
,
000M
000M
0M00
0M00
000M
000M
M000
M000
,
0001
0010
0100
1000
0010
0100
0001
0100
0010
1000
0001
0010
0100
1000
0100
0010
,
0001
0010
0100
0010
0001
1000
0010
0100
0001
1000
0010
0100
0010
1000
0001
0100
,
0010
0100
0001
1000
0001
0010
0100
1000
0100
0010
0100
1000
0100
0010
0001
1000
,
0010
0100
0001
0100
0010
1000
0010
0100
0001
0100
0010
1000
0001
0010
0100
1000
,
0100
0010
0100
1000
0100
0010
0001
0010
0100
0010
0001
1000
0010
0100
0001
1000
,
0010
0100
0001
0100
0010
1000
0010
0100
0001
0010
0100
1000
0100
0010
0100
1000
,
0100
0010
0001
1000
0010
0100
0010
1000
0001
0100
0010
0100
0010
1000
0001
1000
,
0001
0000
0000
0010
0000
0000
0100
0000
0000
1000
0000
0000
0001
0000
0000
0100
0000
0000
0010
0000
0000
1000
0000
0000
0001
0000
0000
0010
0000
0000
0100
0000
0000
1000
0000
0000
0004
0000
4000
0000
0000
0000
0000
0000
0000
0000
0003
0000
,
3010
0100
0010
1000
0001
0010
0100
1000
0100
0010
0100
1000
0100
0010
0001
1000
,
0001
0100
0010
1000
0001
0100
0010
0100
0001
1000
0100
0010
0001
0010
0100
1000
,
0100
0010
0100
1000
0001
1000
0010
0100
0001
0100
0010
1000
0001
1000
0001
1000
,
0010
0000
0000
0100
0000
0000
0010
0000
0000
0100
0000
0000
0001
0000
0000
1000
0000
0000
0001
0000
0000
1000
0000
0000
0100
0000
0000
0010
0000
0000
0001
0000
0000
1000
0000
0000
0004
0000
4000
0000
0000
0000
0000
0000
0000
0000
0003
0000
,
3010
0100
0010
1000
0001
0100
0010
1000
0001
0100
0010
1000
0001
0010
0100
1000
,
0100
0010
0001
1000
0001
1000
0010
0100
0001
0010
0100
1000
0100
0010
0100
1000
,
0001
0100
0010
1000
0001
0100
0010
1000
0001
1000
0001
0010
0100
1000
0001
0100
,
0010
0010
0100
0100
0001
0001
1000
1000
,
0001
0010
0100
1000
0001
0010
0100
1000
0001
0100
0010
0100
0001
1000
0001
0100
,
0010
1000
0001
0010
0100
1000
0100
0010
0100
1000
0001
0100
0010
1000
0010
0100
,
0001
0010
0100
1000
0100
0010
0100
1000
0001
0100
0010
0100
0001
1000
0010
0100
,
0001
1000
0010
0100
0001
1000
0001
0010
0100
1000
0100
0010
0100
1000
0001
0100
,
0010
1000
0010
0100
0001
0010
0100
1000
0001
0010
0100
1000
0001
0100
0010
0100
,
0001
1000
0001
0010
0100
1000
0001
0100
0010
1000
0010
0100
0001
0100
0010
1000
,
0100
0010
0100
1000
0100
0010
0001
0010
0100
0010
0001
1000
0010
0100
0010
1000
,
0001
0000
0000
0100
0000
0000
0001
0000
0000
1000
0000
0000
0001
0000
0000
0010
0000
0000
0100
0000
0000
1000
0000
0000
0100
0000
0000
0010
0000
0000
0001
0000
0000
1000
0000
0000
0004
0000
4000
0000
0000
0000
0000
0000
0000
0000
0003
0000
,
3010
0100
0010
1000
0010
0100
0001
0100
0010
1000
0001
0100
0010
1000
0001
0010
,
0100
1000
0100
0010
0100
1000
0100
0010
0001
0100
0010
1000
0100
0010
0001
1000
,
0010
0100
0001
0100
0010
1000
0100
0010
0001
0010
0100
0010
0001
1000
0010
0100
,
0001
0000
0000
0100
0000
0000
0010
0000
0000
1000
0000
0000
0001
0000
0000
1000
0000
0000
0010
0000
0000
0100
0000
0000
0004
0000
4000
0000
0000
0000
0000
0000
0000
0000
0003
0000
3100
0000
0000
0010
0000
0000
0100
0000
0000
1000
0000
0000
,
0001
0010
0100
1000
0100
0010
0001
1000
0010
0100
0001
0100
0010
1000
0001
1000
,
0001
0010
0100
1000
0001
0100
0010
0100
0001
1000
0010
0100
0001
1000
0001
0010
,
0100
0000
0000
1000
0000
0000
0100
0000
0000
0010
0000
0000
0001
0000
0000
0010
0000
0000
0100
0000
0000
0010
0000
0000
0004
0000
4000
0000
0000
0000
0000
0000
0000
0000
0003
0000
3010
0000
0000
0100
0000
0000
0010
0000
0000
1000
0000
0000
,
0001
0001
1000
1000
0100
0100
0010
0010
,
0001
1000
0001
1000
0010
0100
0001
0100
0010
1000
0001
0010
0100
1000
0100
0010
,
0001
0010
0100
0010
0001
1000
0010
0100
0010
1000
0001
0100
0010
0100
0001
1000
,
0001
0010
0100
1000
0100
0010
0001
0010
0100
0010
0001
1000
0010
0100
0001
0100
,
0010
1000
0010
0100
0001
0010
0100
1000
0001
0100
0010
1000
0001
0100
0010
0100
,
0001
1000
0100
0010
0001
0010
0100
0010
0001
0010
0100
1000
0001
0100
0010
1000
,
0010
0100
0001
0100
0010
1000
0001
0100
0010
1000
0001
0010
0100
1000
0001
0010
,
0100
1000
0001
0100
0010
1000
0001
0100
0010
0100
0001
1000
0001
0010
0100
1000
,
0100
0000
0000
0010
0000
0000
0001
0000
0000
1000
0000
0000
0010
0000
0000
0100
0000
0000
0001
0000
0000
1000
0000
0000
0100
0000
0000
0010
0000
0000
0001
0000
0000
1000
0000
0000
0004
0000
4000
0000
0000
0000
0000
0000
0000
0000
0003
0000
,
3010
0100
0010
1000
0001
0100
0010
0100
0001
1000
0001
0010
0100
1000
0100
0010
,
0001
0010
0100
0010
0001
1000
0010
0100
0001
0100
0010
1000
0010
0100
0001
0010
,
0100
1000
0100
0010
0100
1000
0001
0100
0010
1000
0010
0100
0001
0100
0010
1000
,
0001
0010
0100
1000
0100
0010
0001
0010
0100
0010
0001
1000
0010
0100
0001
0100
,
0010
1000
0001
0010
0100
1000
0001
0010
0100
0010
0001
1000
0010
0100
0010
1000
,
0001
0100
0010
0100
0001
1000
0100
0010
0001
0010
0100
1000
0100
0010
0100
1000
,
0001
0100
0010
1000
0010
0100
0001
0100
0010
1000
0001
0010
0100
1000
0100
0010
,
0001
0000
0000
0010
0000
0000
0100
0000
0000
1000
0000
0000
0001
0000
0000
0100
0000
0000
0010
0000
0000
1000
0000
0000
0004
0000
4000
0000
0000
0000
0000
0000
0000
0000
0003
0000
3100
0000
0000
0010
0000
0000
0100
0000
0000
1000
0000
0000
,
0001
0100
0010
1000
0010
0100
0001
0100
0010
1000
0100
0010
0001
0010
0100
0010
,
0001
1000
0010
0100
0001
0100
0010
1000
0010
0100
0001
0010
0100
1000
0100
0010
,
0100
1000
0001
0100
0010
0100
0001
1000
0100
0010
0001
0010
0100
0010
0001
1000
,
0010
0100
0010
1000
0010
0100
0001
0100
0010
1000
0100
0010
0001
0010
0100
0010
,
0001
0010
0100
1000
0100
0010
0100
1000
0001
0100
0010
0100
0010
1000
0010
0100
,
0001
0010
0100
1000
0100
0010
0001
0100
0010
1000
0001
0100
0010
1000
0001
0100
,
0010
0100
0001
1000
0010
0100
0010
1000
0001
0010
0100
1000
0100
0010
0100
1000
,
0100
0000
0000
0010
0000
0000
0001
0000
0000
1000
0000
0000
0010
0000
0000
0100
0000
0000
0001
0000
0000
0100
0000
0000
0010
0000
0000
1000
0000
0000
0010
0000
0000
0100
0000
0000
0004
0000
4000
0000
0000
0000
0000
0000
0000
0000
0003
0000
,
3100
0010
0100
1000
0100
0010
0001
0010
0100
0010
0001
1000
0010
0100
0001
0100
,
0010
1000
0010
0100
0001
0100
0010
1000
0001
0010
0100
1000
0001
0010
0100
1000
,
0001
1000
0001
1000
0001
1000
0001
1000
0001
1000
0001
1000
0001
1000
0001
1000
,
0001
1000
0001
1000
0001
1000
0001
1000
0001
1000
0001
1000
0001
1000
0001
1000
,
0040
0400
0000
0000
0000
0000
0000
0000
0000
0000
0000
0000
0000
0000
0000
0000
0000
0000
0000
0000
0000
0000
0000
0000
,
0000
0000
0000
0000
,
0000
0000
0000
0000
,
0330
0000
0000
0000
0000
0000
0000
0000
0000
0000
0000
0000
0000
0001
1001
0000
,
1MM1
0000
0000
0000
1000
0001
0100
0001
0010
0100
1000
0001
1000
0001
0100
0001
,
1000
0010
0100
0001
0100
0001
0010
0100
1000
0001
0100
0001
0100
0001
0010
0100
,
1000
0001
1000
0010
0100
0001
1000
0100
0010
0001
1000
0001
0010
0001
1000
0010
,
1000
0010
1000
0001
0010
0100
1000
0001
0010
0100
1000
0001
0100
0001
1000
0100
,
0010
0001
0100
0001
0010
0100
1000
0010
1000
0001
1000
0100
0010
0001
1000
0010
,
1000
0010
0100
0001
1000
0010
0100
0001
1000
0100
0010
0001
1000
0010
1000
0001
,
0010
0001
1000
0001
0010
0001
1000
0001
0010
0001
1000
0010
0100
0010
0100
0001
,
1000
0000
0000
0100
0000
0000
1000
0000
0000
0100
0000
0000
0010
0000
0000
0001
0000
0000
1000
0000
0000
0010
0000
0000
4000
0000
0004
0000
0000
0000
0000
0000
0000
0000
3000
0000
0103
0000
0000
0010
0000
0000
0100
0000
0000
0001
0000
0000
,
1000
0001
1000
0100
0010
0001
0100
0001
0010
0100
1000
0001
1000
0010
0100
0001
,
1000
0010
0100
0001
0100
0001
0010
0100
1000
0001
0100
0001
0100
0001
0010
0100
,
1000
0001
1000
0010
1000
0001
0100
0001
0010
0100
1000
0001
1000
0010
0100
0001
,
1000
0010
0100
0001
0010
0100
1000
0001
0100
0010
1000
0001
0100
0001
1000
0100
,
0010
0001
1000
0001
0010
0100
1000
0010
1000
0001
1000
0100
0010
0001
1000
0010
,
1000
0010
0100
0001
1000
0010
0100
0001
1000
0100
0010
0001
1000
0010
1000
0001
,
0010
0001
1000
0001
0010
0001
1000
0001
0010
0100
1000
0001
1000
0010
0100
0001
,
1000
0000
0000
0000
0000
0000
0000
0000
0000
0000
0000
0000
0010
0000
0000
0000
0000
0000
0000
0000
0000
0000
0000
0000
1000
0000
0000
0000
0000
0000
0000
0000
0000
0000
0000
0000
0010
0000
0000
0000
0000
0000
0000
0000
0000
0000
0000
0000
0100
0000
0000
0000
0000
0000
0000
0000
0000
0000
0000
0000
0001
0000
0000
0000
0000
0000
0000
0000
0000
0000
0000
0000
1000
0000
0000
0000
0000
0000
0000
0000
0000
0000
0000
0000
0010
0000
0000
0000
0000
0000
0000
0000
0000
0000
0000
0000
1000
0000
0000
0000
0000
0000
0000
0000
0000
0000
0000
0000
0001
0000
0000
0000
0000
0000
0000
0000
0000
0000
0000
0000
2000
0000
0000
0000
0000
0000
0000
0000
0000
0000
0000
0000
0000
0000
0000
0000
0000
0000
0000
0000
0000
0000
0000
0000
0000
0000
0000
0000
0000
0000
0000
0000
0000
0000
0000
0000
0000
0000
0000
0000
0000
0000
0000
0000
0000
0000
0000
0000
0000
0000
0000
0000
0000
0000
0000
0000
0000
0000
0000
0000
0000
0000
0000
0000
0000
0000
0000
0000
0000
0000
3000
0000
,
1MM1
0000
0000
0000
0001
0010
0100
1000
0010
0100
0001
0100
0010
1000
0001
1000
,
0001
0100
0010
0100
0010
1000
0100
0010
0001
1000
0001
1000
0010
0100
0001
1000
,
0010
0100
0010
0100
0001
0010
0001
1000
0100
1000
0001
1000
0010
0100
0010
0100
,
0001
1000
0010
1000
0001
0010
0100
1000
0001
0010
0100
1000
0001
0100
0010
1000
,
0010
0100
0001
1000
0010
1000
0001
0010
0001
0010
0100
1000
0001
0100
0010
1000
,
0010
0100
0001
1000
0010
1000
0010
0100
0001
1000
0001
1000
0100
0010
0001
0010
,
0100
1000
0001
1000
0010
0100
0001
0010
0001
0010
0100
1000
0001
0100
0010
1000
,
0001
0000
0000
1000
0000
0000
0001
0000
0000
0010
0000
0000
0100
0000
0000
1000
0000
0000
0001
0000
0000
0100
0000
0000
0004
0000
4000
0000
0000
0000
0000
0000
0000
0000
0000
0000
3003
0000
0000
0000
0000
0000
0000
0000
0000
0000
0000
0000
,
1000
0010
0100
0001
1000
0001
1000
0010
0100
0001
0010
0100
1000
0010
1000
0100
,
0010
0001
1000
0001
1000
0010
0100
0001
1000
0010
1000
0100
0010
0001
0010
0001
,
1000
0010
0100
0010
0100
0001
1000
0010
0100
0001
0010
0100
1000
0001
1000
0001
,
0010
0100
1000
0001
1000
0010
0100
0010
0100
0001
1000
0100
1000
0100
0010
0001
,
1000
0010
0100
0010
1000
0001
1000
0001
0010
0001
0010
0100
1000
0010
0100
0001
,
0010
0100
1000
0001
1000
0010
0100
0010
1000
0010
0100
0001
1000
0010
0100
0001
,
1000
0010
1000
0001
1000
0100
1000
0001
1000
0010
1000
0001
0100
0010
0100
0010
,
1000
0001
1000
0001
0010
0100
1000
0001
0010
0100
4000
0000
0000
0000
3000
0000
,
1001
MMMM
1010
0001
1010
0100
0011
1000
,
0011
1000
0101
0010
0101
0010
2000
0002
,
3000
0023
0100
0030
0100
2000
0000
3020
,
0000
0230
0001
0300
0001
0000
0010
0100
,
1000
0000
0001
1000
0100
1000
0010
1000
,
0001
0010
0001
1000
0001
0100
0000
0200
,
0000
0310
1000
0001
0010
0010
0100
1000
,
0002
0000
0000
0000
0103
0000
0010
0000
1000
0001
1000
0001
1000
0001
1000
0001
,
0200
0300
0200
0300
0200
0000
0300
0040
,
0000
0000
0000
0000
,
1031
0000
0000
0000
1001
0000
0000
0000
0001
1000
0001
1000
0200
0000
0300
0000
,
MMMM
0000
0000
0000
1000
0001
1000
0001
0010
0100
1000
0001
1000
0001
0100
0001
,
1000
0010
0100
0001
0100
0001
0010
0100
1000
0001
0100
0001
0100
0001
0010
0100
,
1000
0001
1000
0010
0100
0001
1000
0100
0010
0001
1000
0001
0010
0001
1000
0010
,
1000
0010
1000
0001
0010
0100
1000
0001
0010
0100
1000
0001
0100
0001
1000
0100
,
0010
0001
1000
0001
0010
0100
1000
0010
1000
0001
1000
0100
0010
0001
1000
0100
,
1000
0100
0010
0001
1000
0010
0100
0001
1000
0100
0010
0001
1000
0010
1000
0001
,
0010
0100
1000
0001
0100
0010
1000
0001
0010
0100
1000
0001
1000
0010
0100
0001
,
1000
0000
0000
0100
0000
0000
1000
0000
0000
0100
0000
0000
0010
0000
0000
0001
0000
0000
1000
0000
0000
0010
0000
0000
4000
0000
0004
0000
0000
0000
0000
0000
0000
0000
3000
0000
0103
0000
0000
0010
0000
0000
0100
0000
0000
0001
0000
0000
,
1000
0001
1000
0100
0010
0001
0100
0001
0010
0100
1000
0001
1000
0010
0100
0001
,
1000
0010
0100
0001
0100
0001
0010
0100
1000
0001
0100
0001
0100
0001
0010
0100
,
1000
0001
1000
0010
1000
0001
0100
0001
0010
0100
1000
0001
1000
0010
0100
0001
,
1000
0010
0100
0001
0010
0100
1000
0001
0010
0100
1000
0001
0100
0001
1000
0100
,
0010
0001
1000
0001
0010
0100
1000
0010
1000
0001
1000
0100
0010
0001
1000
0010
,
1000
0010
0100
0001
1000
0010
0100
0001
1000
0100
0010
0001
1000
0010
1000
0001
,
0010
0001
1000
0001
0010
0001
1000
0001
0010
0100
1000
0001
1000
0010
0100
0001
,
1000
0010
1000
0010
0100
0001
2000
0000
0000
0000
0000
0000
0000
0000
3000
0000
,
1MM1
0000
0000
0000
0001
0010
0100
1000
0001
0100
0010
1000
0001
1000
0010
1000
,
0001
1000
0010
1000
0001
0100
0010
0100
0001
1000
0100
0010
0100
1000
0001
0100
,
0010
1000
0001
0010
0100
1000
0001
0010
0100
1000
0010
1000
0100
0010
0001
0100
,
0001
0010
0100
1000
0010
0100
0001
0010
0100
1000
0001
1000
0100
0010
0001
0100
,
0010
1000
0100
0010
0001
0100
0010
1000
0100
0010
0001
1000
0001
1000
0100
0010
,
0001
0100
0010
1000
0100
0010
0001
1000
0010
1000
0001
0010
0100
1000
0010
0100
,
0001
0010
0100
1000
0001
0100
0010
1000
0001
0010
0100
1000
0001
1000
0010
1000
,
0001
0010
0100
1000
0010
0100
0001
0010
0100
1000
0001
0100
0010
1000
0001
0100
,
0010
0000
0000
0000
,
0000
0000
0000
0000
,
0000
0000
0000
M000
0M00
00M0
000M
0000
0000
0000
0000
0000
0000
0000
0000
0000
0000
0000
0000
0000
0000
0000
0000
0000
;

//---------------dance-single - 17- (Dannpo)----------------
#NOTES:
     dance-single:
     17- (Dannpo):
     Challenge:
     17:
     1.000,1.000,0.076,0.096,1.000,3191.000,23.000,29.000,37.000,0.000:
1000
0100
0010
0001
1000
0100
0010
0001
1000
0010
0100
0001
1000
0001
0100
0010
,
1000
0001
0010
0100
1000
0001
0010
0100
1000
0001
0100
0001
1000
0100
1000
0001
,
1000
0100
0010
0001
1000
0100
0010
0001
1000
0010
0100
0001
1000
0001
0100
0010
,
1000
0100
0010
0001
1000
0001
1000
0100
0010
0001
0100
0001
1000
0010
1000
0001
,
1000
0010
0100
0001
1000
0010
0100
0001
1000
0010
0100
0001
0100
0001
1000
0100
,
0010
0001
1000
0010
0100
0010
1000
0001
1000
0001
0010
0001
1000
0010
0100
0001
,
1000
0001
0100
0001
1000
0001
0010
0100
1000
0010
0100
0001
1000
0001
1000
0100
,
0010
0000
0000
0001
0000
0000
1000
0000
0000
0010
0000
0000
0100
0000
0000
0010
0000
0000
1000
0000
0000
0001
0000
0000
1000
0000
0001
0000
1000
0000
0001
0000
1000
0000
0001
0000
1000
0000
0000
0100
0000
0000
0010
0000
0000
0001
0000
0000
,
1M00
0001
0100
0001
1000
0001
0010
0100
1000
0001
0100
0001
1000
0001
1000
0010
,
0100
0001
1000
0100
0010
0001
1000
0010
1000
0001
0100
0001
1000
0001
0010
0100
,
1000
0010
0100
0001
1000
0010
0100
0001
1000
0100
0010
0001
1000
0001
1000
0001
,
0100
0100
0001
0001
0010
0010
0100
0100
,
1000
1000
0100
0100
0010
0010
0001
0001
,
1000
1000
0001
0001
0100
0100
0010
0010
,
1000
1000
0001
0001
0010
0010
0100
0100
,
1000
0001
1000
0001
0100
0000
0001
1000
0001
1000
0200
0000
0320
0000
0031
0000
,
2MM2
0000
3003
0000
0001
1000
0001
1000
0100
0010
0001
1000
0001
0100
0001
0100
,
0010
1000
0100
0010
0001
0100
0001
0100
0010
1000
0100
0010
0001
1000
0001
1000
,
0100
0010
0001
1000
0001
0100
0001
0100
0010
1000
0100
0010
0001
1000
0001
1000
,
0010
1000
0100
0010
0001
1000
0001
1000
0100
0010
0001
1000
0001
0100
0001
1000
,
0010
1000
0001
0100
0010
1000
0001
1000
0001
0100
0010
1000
0001
0010
0100
1000
,
0001
1000
0001
0100
0010
1000
0100
0010
0001
1000
0001
0100
0010
1000
0010
0100
,
0001
0010
0100
1000
0010
1000
0100
0010
0001
1000
0001
0010
0100
1000
0001
0100
,
0001
0000
0000
1000
0000
0000
0100
0000
0000
1000
0000
0000
0001
0000
0000
1000
0000
0000
0010
0000
0000
0100
0000
0000
0001
0000
1000
0000
0001
0000
1000
0000
0001
0000
1000
0000
0001
0000
0000
0010
0000
0000
0100
0000
0000
1000
0000
0000
,
0001
1000
0001
0010
0100
1000
0001
1000
0010
0100
0010
0100
0001
1000
0010
0100
,
0001
1000
0100
0010
0001
0100
0010
1000
0100
0010
0001
1000
0001
0100
0001
1000
,
0010
1000
0001
0100
0001
1000
0100
0010
0001
0100
0001
0010
0100
1000
0001
1000
,
0100
0010
0001
1000
0001
0100
0010
1000
0001
0100
0001
0100
0010
1000
0100
0010
,
0001
0100
0001
0010
0100
1000
0001
1000
0010
0100
0010
0100
0001
1000
0010
0100
,
0001
0100
0010
1000
0001
1000
0001
0010
0100
1000
0010
0100
0001
0010
0100
1000
,
0001
0100
0001
1000
0100
1000
0001
0100
0001
1000
0010
0100
0001
0100
0010
1000
,
0001
0010
0100
1000
0001
1000
0001
0010
0100
1000
0004
0000
0000
0000
0003
0000
,
1MM1
0000
0000
0000
0001
1000
0010
1000
0100
0010
0001
1000
0001
1000
0010
1000
,
0001
0100
0010
1000
0010
1000
0100
0010
0001
1000
0010
1000
0010
1000
0100
0010
,
0001
1000
0001
0100
0010
1000
0001
0010
0100
1000
0001
1000
0100
1000
0001
0100
,
0001
0100
0001
1000
0010
0100
0001
1000
0100
0010
0001
1000
0010
1000
0001
0010
,
0100
1000
0001
1000
0100
0010
0001
0100
0001
1000
0001
0010
0100
1000
0001
0010
,
0001
0010
0100
1000
0001
0100
0010
1000
0001
0100
0010
1000
0001
0100
0001
1000
,
0100
0010
0001
0100
0010
1000
0100
0010
0001
1000
0010
1000
0010
0100
0010
1000
,
0001
0000
0000
0010
0000
0000
0001
0000
0000
0010
0000
0000
0100
0000
0000
1000
0000
0000
0001
0000
0000
0100
0000
0000
0001
0000
1000
0000
0001
0000
1000
0000
0001
0000
1000
0000
0001
0000
0000
0010
0000
0000
0100
0000
0000
1000
0000
0000
,
0001
1000
0001
0010
0100
1000
0010
1000
0100
0010
0001
1000
0001
0100
0010
1000
,
0001
0100
0010
1000
0010
1000
0100
0010
0001
1000
0010
1000
0010
1000
0100
0010
,
0001
1000
0001
0100
0001
1000
0010
1000
0100
0010
0001
1000
0001
0100
0010
1000
,
0001
0100
0010
1000
0100
0010
0001
1000
0100
0010
0001
1000
0010
1000
0001
0010
,
0100
1000
0001
1000
0100
0010
0001
0100
0001
1000
0001
0010
0100
1000
0001
0100
,
0001
0100
0010
1000
0001
0100
0010
1000
0001
0010
0100
1000
0001
0100
0001
1000
,
0100
1000
0001
1000
0100
1000
0001
1000
0100
0010
0001
1000
0001
0100
0010
1000
,
0001
0000
0000
0000
0000
0000
0000
0000
0000
0000
0000
0000
0100
0000
0000
0000
0000
0000
0000
0000
0000
0000
0000
0000
0001
0000
0000
0000
0000
0000
0000
0000
0000
0000
0000
0000
0100
0000
0000
0000
0000
0000
0000
0000
0000
0000
0000
0000
0010
0000
0000
0000
0000
0000
0000
0000
0000
0000
0000
0000
1000
0000
0000
0000
0000
0000
0000
0000
0000
0000
0000
0000
0001
0000
0000
0000
0000
0000
0000
0000
0000
0000
0000
0000
0100
0000
0000
0000
0000
0000
0000
0000
0000
0000
0000
0000
0001
0000
0000
0000
0000
0000
0000
0000
0000
0000
0000
0000
1000
0000
0000
0000
0000
0000
0000
0000
0000
0000
0000
0000
0002
0000
0000
0000
0000
0000
0000
0000
0000
0000
0000
0000
0000
0000
0000
0000
0000
0000
0000
0000
0000
0000
0000
0000
0000
0000
0000
0000
0000
0000
0000
0000
0000
0000
0000
0000
0000
0000
0000
0000
0000
0000
0000
0000
0000
0000
0000
0000
0000
0000
0000
0000
0000
0000
0000
0000
0000
0000
0000
0000
0000
0000
0000
0000
0000
0000
0000
0000
0000
0000
0003
0000
,
1001
MMMM
0101
1000
0101
0010
1100
0001
,
1100
0001
1010
0100
1010
0100
0002
2000
,
0003
3200
0010
0300
0010
0002
0000
0203
,
0000
0320
1000
0030
1000
0000
0100
0010
,
0001
0001
0001
0001
,
0001
0001
0001
0001
1000
0010
0000
0020
,
0000
0130
0001
1000
0100
0100
0010
0001
,
2000
0000
0000
0000
3010
0000
0100
0000
0001
1000
0001
1000
0001
1000
0001
1000
,
0001
0010
0100
1000
0001
0010
0100
1000
0010
0100
0001
0100
0010
1000
0001
1000
,
0001
0100
0010
0100
0010
1000
0100
0010
0001
1000
0001
1000
0010
0100
0001
1000
,
0010
0100
0010
0100
0001
0010
0001
1000
0100
1000
0001
1000
0010
0100
0010
0100
,
0001
1000
0010
1000
0001
0010
0100
1000
0001
0010
0100
1000
0001
0100
0010
1000
,
0010
0100
0001
0100
0010
1000
0001
0010
0001
0010
0100
1000
0001
0100
0010
1000
,
0010
0100
0001
1000
0010
1000
0010
0100
0001
1000
0001
1000
0100
0010
0001
0010
,
0100
1000
0001
1000
0010
0100
0001
0010
0001
0010
0100
1000
0001
0100
0010
1000
,
0001
1000
0001
0010
0100
1000
0001
0100
0010
1000
0001
0100
0010
1000
0100
0010
,
0001
0010
0100
1000
0001
1000
0001
1000
0100
0010
0001
0100
0010
1000
0010
0100
,
0001
1000
0010
0100
0001
0010
0001
0010
0100
1000
0010
0100
0001
0010
0100
1000
,
0001
0100
0010
1000
0010
0100
0001
0100
0010
1000
0100
0010
0001
1000
0010
0100
,
0001
1000
0010
0100
0001
1000
0100
0010
0001
0010
0001
1000
0010
0100
0010
0100
,
0001
1000
0010
0100
0001
1000
0001
1000
0100
0010
0001
0010
0100
1000
0001
0100
,
0010
0100
0010
1000
0001
1000
0100
0010
0001
0010
0100
1000
0001
0100
0010
1000
,
0010
0100
0010
1000
0001
0100
0001
1000
0001
0010
0001
0010
0100
1000
0001
0100
,
0010
1000
0001
1000
0001
0010
0100
1000
0001
1000
0004
0000
0000
0000
0003
0000
,
2MM1
0000
0000
0000
0000
0000
3002
0000
0000
0000
0000
0000
1003
0100
0010
0001
,
0100
0010
1000
0010
0100
0001
1000
0100
0010
0001
0010
0100
1000
0100
0010
0100
,
1000
0001
0100
0010
1000
0001
0100
0010
0100
0001
1000
0010
0100
0010
1000
0001
,
1000
0100
0010
0001
0010
0100
0010
0001
0010
0100
1000
0001
0100
0010
1000
0010
,
0100
0001
0100
0010
1000
0010
0100
0001
1000
0100
0010
0001
0010
0100
0010
0001
,
0010
0100
1000
0100
0010
0100
1000
0001
0100
0010
1000
0001
0100
0010
1000
0010
,
0100
0001
0100
0010
1000
0100
0010
0001
0010
0100
0010
0001
0010
0100
1000
0001
,
0100
0000
0000
0010
0000
0000
0100
0000
0000
0001
0000
0000
1000
0000
0000
0010
0000
0000
0100
0000
0000
0010
0000
0000
0100
0000
0000
0001
0000
0000
1000
0000
0000
0001
0000
0000
1000
0000
0001
0000
1000
0000
0001
0000
1000
0000
0001
0000
,
1000
0100
0010
0001
1000
0100
0010
0001
1000
0001
1000
0001
0100
0010
1000
0010
,
0100
0001
0100
0010
1000
0100
0010
0001
0010
0100
1000
0001
1000
0010
0100
0001
,
1000
0010
0100
0010
1000
0001
0010
0100
1000
0100
0010
0001
0010
0100
0010
0001
,
1000
0001
0100
0010
1000
0010
0100
0001
1000
0001
1000
0001
0100
0010
0100
0010
,
1000
0001
1000
0001
0010
0100
1000
0001
0010
0100
1000
0001
0100
0010
1000
0001
,
1000
0010
0100
0001
1000
0010
0100
0001
1000
0100
0010
0001
0010
0100
1000
0001
,
0100
0100
0010
0010
1000
1000
0001
0001
,
M000
M000
00M0
00M0
M000
M000
000M
000M
,
1000
0100
0010
0001
0100
0010
1000
0010
0100
0001
1000
0100
0010
0001
0010
0100
,
1000
0100
0010
0100
1000
0001
0100
0010
1000
0001
0100
0010
0100
0001
1000
0010
,
0100
0010
1000
0001
1000
0100
0010
0001
0010
0100
0010
0001
0010
0100
1000
0001
,
0100
0010
1000
0010
0100
0001
0100
0010
1000
0010
0100
0001
1000
0100
0010
0001
,
0010
0100
0010
0001
0010
0100
1000
0100
0010
0100
1000
0001
0100
0010
1000
0001
,
0100
0010
1000
0010
0100
0001
0100
0010
1000
0100
0010
0001
0010
0100
0010
0001
,
0010
0100
1000
0001
0100
0010
0100
0001
1000
0010
0100
0010
0100
0001
1000
0001
,
1000
0000
0000
0100
0000
0000
0010
0000
0000
0001
0000
0000
1000
0000
0000
0010
0000
0000
0100
0000
0000
0001
0000
0000
1000
0000
0000
0100
0000
0000
0010
0000
0000
0001
0000
0000
1000
0000
0001
0000
1000
0000
0001
0000
1000
0000
0001
0000
,
1000
0010
0100
0001
1000
0100
0010
0001
0010
0100
0010
0001
0010
0100
1000
0001
,
1000
0010
0100
0001
1000
0010
0100
0010
1000
0001
0010
0100
1000
0100
0010
0001
,
0010
0100
0010
0001
1000
0001
0100
0010
1000
0010
0100
0001
1000
0001
1000
0001
,
0100
0000
0000
0010
0000
0000
0100
0000
0000
0010
0000
0000
1000
0000
0000
0001
0000
0000
1000
0000
0000
0001
0000
0000
0010
0000
0000
0100
0000
0000
1000
0000
0000
0001
0000
0000
1000
0000
0001
0000
1000
0000
0001
0000
1000
0000
0001
0000
,
1000
0010
0100
0001
1000
0010
0100
0001
1000
0010
0100
0001
1000
0100
0010
0001
,
0010
0100
1000
0001
1000
0001
0100
0010
1000
0100
0010
0001
0010
0100
0010
0001
,
1000
0010
0100
0001
1000
0010
0100
0001
1000
0001
1000
0100
0010
0001
1000
0010
,
0100
0100
0010
0010
1000
1000
0001
0001
,
1000
0100
0010
0001
1000
0100
0010
0001
1000
0010
0100
0010
1000
0001
1000
0010
,
0100
0001
1000
0100
0010
0001
0010
0100
0010
0001
1000
0010
0100
0001
0100
0010
,
1000
0100
0010
0001
0010
0100
0010
0001
1000
0010
0100
0010
1000
0001
0100
0010
,
1000
0001
0100
0010
1000
0001
1000
0100
0010
0001
0010
0100
0010
0001
1000
0010
,
0100
0001
0100
0010
1000
0100
0010
0001
1000
0100
0010
0001
1000
0010
0100
0010
,
1000
0001
1000
0100
0010
0001
1000
0010
0100
0001
0100
0010
1000
0010
0100
0001
,
0010
0100
0010
0001
0010
0100
1000
0100
0010
0100
1000
0001
0100
0010
0100
0001
,
1000
0000
0000
0010
0000
0000
1000
0000
0000
0001
0000
0000
1000
0000
0000
0100
0000
0000
0010
0000
0000
0001
0000
0000
0010
0000
0000
0100
0000
0000
1000
0000
0000
0001
0000
0000
1000
0000
0001
0000
1000
0000
0001
0000
1000
0000
0001
0000
,
1000
0010
0100
0001
0100
0010
1000
0010
0100
0001
1000
0010
0100
0001
1000
0100
,
0010
0001
0010
0100
0010
0001
0010
0100
1000
0010
0100
0001
0010
0100
1000
0001
,
0100
0010
1000
0010
0100
0001
0010
0100
1000
0100
0010
0100
1000
0001
0100
0010
,
1000
0000
0000
0010
0000
0000
0100
0000
0000
0001
0000
0000
1000
0000
0000
0001
0000
0000
0100
0000
0000
0010
0000
0000
1000
0000
0001
0000
1000
0000
0001
0000
1000
0000
0001
0000
1000
0000
0000
0100
0000
0000
0010
0000
0000
0001
0000
0000
,
1000
0100
0010
0001
0010
0100
1000
0001
0100
0010
1000
0010
0100
0001
1000
0001
,
1000
0100
0010
0001
1000
0010
0100
0010
1000
0001
0100
0010
1000
0001
1000
0100
,
0010
0000
0000
0001
0000
0000
0010
0000
0000
0100
0000
0000
1000
0000
0000
0100
0000
0000
0010
0000
0000
0100
0000
0000
1000
0000
0001
0000
1000
0000
0001
0000
1000
0000
0001
0000
1000
0000
0000
0010
0000
0000
0100
0000
0000
0001
0000
0000
,
1000
1000
0001
0001
0010
0010
0100
0100
,
1000
0001
1000
0001
0100
0010
1000
0010
0100
0001
1000
0100
0010
0001
0010
0100
,
1000
0100
0010
0100
1000
0001
0100
0010
0100
0001
1000
0010
0100
0010
1000
0001
,
1000
0100
0010
0001
0010
0100
1000
0100
0010
0100
1000
0001
0100
0010
1000
0010
,
0100
0001
0100
0010
1000
0100
0010
0001
1000
0010
0100
0001
1000
0010
0100
0010
,
1000
0001
0010
0100
1000
0100
0010
0100
1000
0100
0010
0001
1000
0010
0100
0001
,
0100
0010
1000
0010
0100
0001
1000
0010
0100
0001
1000
0100
0010
0001
1000
0100
,
0010
0001
1000
0010
0100
0001
1000
0010
0100
0010
1000
0001
1000
0100
0010
0001
,
0010
0000
0000
0100
0000
0000
1000
0000
0000
0001
0000
0000
0100
0000
0000
0010
0000
0000
1000
0000
0000
0001
0000
0000
0010
0000
0000
0100
0000
0000
1000
0000
0000
0001
0000
0000
1000
0000
0001
0000
1000
0000
0001
0000
1000
0000
0001
0000
,
1000
0010
0100
0001
1000
0010
0100
0010
1000
0001
1000
0100
0010
0001
0010
0100
,
1000
0100
0010
0100
1000
0001
0100
0010
1000
0010
0100
0001
0100
0010
1000
0100
,
0010
0001
0010
0100
0010
0001
1000
0010
0100
0001
0100
0010
1000
0010
0100
0001
,
1000
0100
0010
0001
0010
0100
1000
0100
0010
0100
1000
0001
0100
0010
1000
0010
,
0100
0001
1000
0100
0010
0001
1000
0100
0010
0100
1000
0001
0100
0010
0100
0001
,
1000
0010
0100
0010
1000
0001
0010
0100
1000
0100
0010
0001
0010
0100
0010
0001
,
1000
0010
0100
0001
0100
0010
1000
0010
0100
0001
1000
0100
0010
0001
0010
0100
,
1000
0000
0000
0100
0000
0000
0010
0000
0000
0001
0000
0000
1000
0000
0000
0010
0000
0000
0100
0000
0000
0001
0000
0000
1000
0000
0001
0000
1000
0000
0001
0000
1000
0000
0001
0000
1000
0000
0000
0100
0000
0000
0010
0000
0000
0001
0000
0000
,
1000
0010
0100
0001
0100
0010
1000
0010
0100
0001
0010
0100
1000
0100
0010
0100
,
1000
0001
0100
0010
1000
0010
0100
0001
0100
0010
1000
0100
0010
0001
0010
0100
,
0010
0001
1000
0010
0100
0010
1000
0001
0010
0100
1000
0100
0010
0100
1000
0001
,
0100
0010
0100
0001
0100
0010
1000
0010
0100
0001
0010
0100
1000
0100
0010
0100
,
1000
0100
0010
0001
0010
0100
0010
0001
1000
0010
0100
0010
0100
0001
0100
0010
,
1000
0100
0010
0001
0010
0100
1000
0010
0100
0001
1000
0010
0100
0001
1000
0010
,
0100
0010
1000
0001
0100
0010
0100
0001
1000
0100
0010
0001
0010
0100
0010
0001
,
0010
0000
0000
0100
0000
0000
1000
0000
0000
0001
0000
0000
0100
0000
0000
0010
0000
0000
1000
0000
0000
0010
0000
0000
0100
0000
0000
0001
0000
0000
0100
0000
0000
0010
0000
0000
1000
0000
0001
0000
1000
0000
0001
0000
1000
0000
0001
0000
,
1000
0100
0010
0001
0010
0100
1000
0100
0010
0100
1000
0001
0100
0010
1000
0010
,
0100
0001
0100
0010
1000
0010
0100
0001
1000
0100
0010
0001
1000
0100
0010
0001
,
1000
0100
1000
0001
0100
0010
1000
0001
1000
0010
0100
0001
1000
0010
0100
0001
,
0010
0100
1000
0001
0010
0001
1000
0100
0010
0001
0100
0010
1000
0001
0010
0100
,
1000
0001
1000
0001
1000
0001
1000
0001
1000
0001
1000
0001
1000
0001
1000
0001
,
1000
0001
1000
0001
1000
0001
1000
0001
1000
0001
1000
0001
1000
0001
1000
0001
,
1000
0001
1000
0001
1000
0001
1000
0001
1000
0001
1000
0001
1000
0001
1000
0001
,
1000
0000
0000
0000
0000
0000
0000
0000
0000
0000
0000
0000
0000
0001
1001
0000
,
1MM1
0000
0000
0000
0001
1000
0010
1000
0100
0010
0001
1000
0001
1000
0010
1000
,
0001
0100
0010
1000
0010
1000
0100
0010
0001
1000
0010
1000
0010
1000
0100
0010
,
0001
1000
0001
0100
0010
1000
0001
0010
0100
1000
0001
1000
0100
1000
0001
0100
,
0001
0100
0001
1000
0100
0010
0001
1000
0100
0010
0001
1000
0010
1000
0001
0010
,
0100
1000
0010
1000
0100
0010
0001
0100
0001
1000
0001
0010
0100
1000
0001
0100
,
0001
0100
0010
1000
0001
0100
0010
1000
0001
0010
0100
1000
0001
0100
0001
1000
,
0100
1000
0001
1000
0100
1000
0001
1000
0100
1000
0001
0100
0010
0100
0010
1000
,
0001
0000
0000
0010
0000
0000
0001
0000
0000
0010
0000
0000
0100
0000
0000
1000
0000
0000
0001
0000
0000
0100
0000
0000
0001
0000
1000
0000
0001
0000
1000
0000
0001
0000
1000
0000
0001
0000
0000
0100
0000
0000
0010
0000
0000
1000
0000
0000
,
0001
1000
0001
0010
0100
1000
0010
1000
0100
0010
0001
1000
0001
0100
0010
1000
,
0001
0100
0010
1000
0010
1000
0100
0010
0001
1000
0010
1000
0010
1000
0100
0010
,
0001
1000
0001
0100
0001
1000
0010
1000
0100
0010
0001
1000
0001
0100
0010
1000
,
0001
0100
0010
1000
0100
0010
0001
1000
0010
0100
0001
1000
0010
1000
0001
0010
,
0100
1000
0001
1000
0100
0010
0001
0100
0001
1000
0001
0010
0100
1000
0001
0100
,
0001
0100
0010
1000
0001
0100
0010
1000
0001
0010
0100
1000
0001
0100
0001
1000
,
0100
1000
0001
1000
0100
1000
0001
1000
0100
0010
0001
1000
0001
0100
0010
1000
,
0001
0000
0000
0000
0000
0000
0000
0000
0000
0000
0000
0000
0100
0000
0000
0000
0000
0000
0000
0000
0000
0000
0000
0000
0001
0000
0000
0000
0000
0000
0000
0000
0000
0000
0000
0000
0100
0000
0000
0000
0000
0000
0000
0000
0000
0000
0000
0000
0010
0000
0000
0000
0000
0000
0000
0000
0000
0000
0000
0000
1000
0000
0000
0000
0000
0000
0000
0000
0000
0000
0000
0000
0001
0000
0000
0000
0000
0000
0000
0000
0000
0000
0000
0000
0100
0000
0000
0000
0000
0000
0000
0000
0000
0000
0000
0000
0001
0000
0000
0000
0000
0000
0000
0000
0000
0000
0000
0000
1000
0000
0000
0000
0000
0000
0000
0000
0000
0000
0000
0000
0002
0000
0000
0000
0000
0000
0000
0000
0000
0000
0000
0000
0000
0000
0000
0000
0000
0000
0000
0000
0000
0000
0000
0000
0000
0000
0000
0000
0000
0000
0000
0000
0000
0000
0000
0000
0000
0000
0000
0000
0000
0000
0000
0000
0000
0000
0000
0000
0000
0000
0000
0000
0000
0000
0000
0000
0000
0000
0000
0000
0000
0000
0000
0000
0000
0000
0000
0000
0000
0000
0003
0000
,
1MM1
0000
0000
0000
1000
0100
0010
0001
0100
0010
1000
0010
0100
0001
1000
0001
,
1000
0010
0100
0010
0100
0001
0010
0100
1000
0001
1000
0001
0100
0010
1000
0001
,
0100
0010
0100
0010
1000
0100
1000
0001
0010
0001
1000
0001
0100
0010
0100
0010
,
1000
0001
0100
0001
1000
0100
0010
0001
1000
0100
0010
0001
1000
0010
0100
0001
,
0100
0010
1000
0001
0100
0001
1000
0100
1000
0100
0010
0001
1000
0010
0100
0001
,
0100
0010
1000
0001
0100
0001
0100
0010
1000
0001
1000
0001
0010
0100
1000
0100
,
0010
0001
1000
0001
0100
0010
1000
0100
1000
0100
0010
0001
1000
0010
0100
0001
,
1000
0000
0000
0001
0000
0000
1000
0000
0000
0100
0000
0000
0010
0000
0000
0001
0000
0000
1000
0000
0000
0010
0000
0000
1000
0000
0001
0000
1000
0000
0001
0000
1000
0000
0001
0000
1000
0000
0000
0000
0000
0000
0000
0000
0000
0000
0000
0000
,
0001
0100
0010
1000
0001
1000
0001
0100
0010
1000
0100
0010
0001
0100
0001
0010
,
0100
1000
0001
1000
0001
0100
0010
1000
0001
0100
0001
0010
0100
1000
0100
1000
,
0001
0100
0010
0100
0010
1000
0001
0100
0010
1000
0100
0010
0001
1000
0001
1000
,
0100
0010
0001
1000
0001
0100
0010
0100
0010
1000
0001
0010
0001
0010
0100
1000
,
0001
0100
0010
0100
0001
1000
0001
1000
0100
1000
0100
0010
0001
0100
0010
1000
,
0100
0010
0001
1000
0001
0100
0010
0100
0001
0100
0010
1000
0001
0100
0010
1000
,
0001
0100
0001
1000
0001
0010
0001
1000
0001
0100
0001
1000
0010
0100
0010
0100
,
0001
1000
0001
1000
0100
0010
0001
1000
0100
0010
0004
0000
0000
0000
0003
0000
,
1001
MMMM
0101
1000
0101
0010
1100
0001
,
1100
0001
1010
0100
1010
0100
0002
2000
,
0003
3200
0010
0300
0010
0002
0000
0203
,
0000
0320
1000
0030
1000
0000
0100
0010
,
0001
0001
0001
0001
,
0001
0001
0001
0001
1000
0010
0000
0020
,
0000
0130
0001
1000
0100
0100
0010
0001
,
2000
0000
0000
0000
3010
0000
0100
0000
0001
1000
0001
1000
0001
1000
0001
1000
,
0020
0030
0020
0030
0020
0000
0030
0400
,
0000
0000
0000
0000
,
1301
0000
0000
0000
1001
0000
0000
0000
1000
0001
1000
0001
0020
0000
0030
0000
,
MMMM
0000
0000
0000
0001
1000
0001
1000
0100
0010
0001
1000
0001
1000
0010
1000
,
0001
0100
0010
1000
0010
1000
0100
0010
0001
1000
0010
1000
0010
1000
0100
0010
,
0001
1000
0001
0100
0010
1000
0001
0010
0100
1000
0001
1000
0100
1000
0001
0100
,
0001
0100
0001
1000
0100
0010
0001
1000
0100
0010
0001
1000
0010
1000
0001
0010
,
0100
1000
0001
1000
0100
0010
0001
0100
0001
1000
0001
0010
0100
1000
0001
0010
,
0001
0010
0100
1000
0001
0100
0010
1000
0001
0010
0100
1000
0001
0100
0001
1000
,
0100
0010
0001
1000
0010
0100
0001
1000
0100
0010
0001
1000
0001
0100
0010
1000
,
0001
0000
0000
0010
0000
0000
0001
0000
0000
0010
0000
0000
0100
0000
0000
1000
0000
0000
0001
0000
0000
0100
0000
0000
0001
0000
1000
0000
0001
0000
1000
0000
0001
0000
1000
0000
0001
0000
0000
0100
0000
0000
0010
0000
0000
1000
0000
0000
,
0001
1000
0001
0010
0100
1000
0010
1000
0100
0010
0001
1000
0001
0100
0010
1000
,
0001
0100
0010
1000
0010
1000
0100
0010
0001
1000
0010
1000
0010
1000
0100
0010
,
0001
1000
0001
0100
0001
1000
0010
1000
0100
0010
0001
1000
0001
0100
0010
1000
,
0001
0100
0010
1000
0100
0010
0001
1000
0100
0010
0001
1000
0010
1000
0001
0010
,
0100
1000
0001
1000
0100
0010
0001
0100
0001
1000
0001
0010
0100
1000
0001
0100
,
0001
0100
0010
1000
0001
0100
0010
1000
0001
0010
0100
1000
0001
0100
0001
1000
,
0100
1000
0001
1000
0100
1000
0001
1000
0100
0010
0001
1000
0001
0100
0010
1000
,
0001
0100
0001
0100
0010
1000
0002
0000
0000
0000
0000
0000
0000
0000
0003
0000
,
1MM1
0000
0000
0000
1000
0100
0010
0001
1000
0010
0100
0001
1000
0001
0100
0001
,
1000
0001
0100
0001
1000
0010
0100
0010
1000
0001
0010
0100
0010
0001
1000
0010
,
0100
0001
1000
0100
0010
0001
1000
0100
0010
0001
0100
0001
0010
0100
1000
0010
,
1000
0100
0010
0001
0100
0010
1000
0100
0010
0001
1000
0001
0010
0100
1000
0010
,
0100
0001
0010
0100
1000
0010
0100
0001
0010
0100
1000
0001
1000
0001
0010
0100
,
1000
0010
0100
0001
0010
0100
1000
0001
0100
0001
1000
0100
0010
0001
0100
0010
,
1000
0100
0010
0001
1000
0010
0100
0001
1000
0100
0010
0001
1000
0001
0100
0001
,
1000
0100
0010
0001
0100
0010
1000
0100
0010
0001
1000
0010
0100
0001
1000
0010
,
0100
0000
0000
0000
,
0000
0000
0000
0000
,
0000
0000
0000
000M
00M0
0M00
M000
0000
0000
0000
0000
0000
0000
0000
0000
0000
0000
0000
0000
0000
0000
0000
0000
0000
;

//---------------dance-single - Scythe of 17----------------
#NOTES:
     dance-single:
     Scythe of 17:
     Edit:
     17:
     1.000,1.000,0.076,0.096,1.000,3215.000,23.000,29.000,37.000,0.000:
1000
0100
0010
0001
1000
0100
0010
0001
1000
0010
0100
0001
1000
0001
0100
0010
,
1000
0001
0010
0100
1000
0001
0010
0100
1000
0001
0100
0001
1000
0100
1000
0001
,
1000
0100
0010
0001
1000
0100
0010
0001
1000
0010
0100
0001
1000
0001
0100
0010
,
1000
0100
0010
0001
1000
0001
1000
0100
0010
0001
0100
0001
1000
0010
1000
0001
,
1000
0010
0100
0001
1000
0010
0100
0001
1000
0010
0100
0001
0100
0001
1000
0100
,
0010
0001
1000
0010
0100
0010
1000
0001
1000
0001
0010
0001
1000
0010
0100
0001
,
1000
0001
0100
0001
1000
0001
0010
0100
1000
0010
0100
0001
1000
0001
1000
0100
,
0010
0000
0000
0001
0000
0000
1000
0000
0000
0010
0000
0000
0100
0000
0000
0010
0000
0000
1000
0000
0000
0001
0000
0000
1000
0000
0001
0000
1000
0000
0001
0000
1000
0000
0001
0000
1000
0000
0000
0100
0000
0000
0010
0000
0000
0001
0000
0000
,
1M00
0001
0100
0001
1000
0001
0010
0100
1000
0001
0100
0001
1000
0001
1000
0010
,
0100
0001
1000
0100
0010
0001
1000
0010
1000
0001
0100
0001
1000
0001
0010
0100
,
1000
0010
0100
0001
1000
0010
0100
0001
1000
0100
0010
0001
1000
0001
1000
0001
,
0100
0100
0001
0001
0010
0010
0100
0100
,
1000
1000
0100
0100
0010
0010
0001
0001
,
1000
1000
0001
0001
0100
0100
0010
0010
,
1000
1000
0001
0001
0010
0010
0100
0100
,
1000
0001
1000
0001
0100
0000
0001
1000
0001
1000
0200
0000
0320
0000
0031
0000
,
2MM2
0000
3003
0000
0001
1000
0001
1000
0100
0010
0001
1000
0001
0100
0001
0100
,
0010
1000
0100
0010
0001
0100
0001
0100
0010
1000
0100
0010
0001
1000
0001
1000
,
0100
0010
0001
1000
0001
0100
0001
0100
0010
1000
0100
0010
0001
1000
0001
1000
,
0010
1000
0100
0010
0001
1000
0001
1000
0100
0010
0001
1000
0001
0100
0001
1000
,
0010
1000
0001
0100
0010
1000
0001
1000
0001
0100
0010
1000
0001
0010
0100
1000
,
0001
1000
0001
0100
0010
1000
0100
0010
0001
1000
0001
0100
0010
1000
0010
0100
,
0001
0010
0100
1000
0010
1000
0100
0010
0001
1000
0001
0010
0100
1000
0001
0100
,
0001
0000
0000
1000
0000
0000
0100
0000
0000
1000
0000
0000
0001
0000
0000
1000
0000
0000
0010
0000
0000
0100
0000
0000
0001
0000
1000
0000
0001
0000
1000
0000
0001
0000
1000
0000
0001
0000
0000
0010
0000
0000
0100
0000
0000
1000
0000
0000
,
0001
1000
0001
0010
0100
1000
0001
1000
0010
0100
0010
0100
0001
1000
0010
0100
,
0001
1000
0100
0010
0001
0100
0010
1000
0100
0010
0001
1000
0001
0100
0001
1000
,
0010
1000
0001
0100
0001
1000
0100
0010
0001
0100
0001
0010
0100
1000
0001
1000
,
0100
0010
0001
1000
0001
0100
0010
1000
0001
0100
0001
0100
0010
1000
0100
0010
,
0001
0100
0001
0010
0100
1000
0001
1000
0010
0100
0010
0100
0001
1000
0010
0100
,
0001
0100
0010
1000
0001
1000
0001
0010
0100
1000
0010
0100
0001
0010
0100
1000
,
0001
0100
0001
1000
0100
1000
0001
0100
0001
1000
0010
0100
0001
0100
0010
1000
,
0001
0010
0100
1000
0001
1000
0001
0010
0100
1000
0004
0000
0000
0000
0003
0000
,
1MM1
0000
0000
0000
0001
1000
0010
1000
0100
0010
0001
1000
0001
1000
0010
1000
,
0001
0100
0010
1000
0010
1000
0100
0010
0001
1000
0010
1000
0010
1000
0100
0010
,
0001
1000
0001
0100
0010
1000
0001
0010
0100
1000
0001
1000
0100
1000
0001
0100
,
0001
0100
0001
1000
0010
0100
0001
1000
0100
0010
0001
1000
0010
1000
0001
0010
,
0100
1000
0001
1000
0100
0010
0001
0100
0001
1000
0001
0010
0100
1000
0001
0010
,
0001
0010
0100
1000
0001
0100
0010
1000
0001
0100
0010
1000
0001
0100
0001
1000
,
0100
0010
0001
0100
0010
1000
0100
0010
0001
1000
0010
1000
0010
0100
0010
1000
,
0001
0000
0000
0010
0000
0000
0001
0000
0000
0010
0000
0000
0100
0000
0000
1000
0000
0000
0001
0000
0000
0100
0000
0000
0001
0000
1000
0000
0001
0000
1000
0000
0001
0000
1000
0000
0001
0000
0000
0010
0000
0000
0100
0000
0000
1000
0000
0000
,
0001
1000
0001
0010
0100
1000
0010
1000
0100
0010
0001
1000
0001
0100
0010
1000
,
0001
0100
0010
1000
0010
1000
0100
0010
0001
1000
0010
1000
0010
1000
0100
0010
,
0001
1000
0001
0100
0001
1000
0010
1000
0100
0010
0001
1000
0001
0100
0010
1000
,
0001
0100
0010
1000
0100
0010
0001
1000
0100
0010
0001
1000
0010
1000
0001
0010
,
0100
1000
0001
1000
0100
0010
0001
0100
0001
1000
0001
0010
0100
1000
0001
0100
,
0001
0100
0010
1000
0001
0100
0010
1000
0001
0010
0100
1000
0001
0100
0001
1000
,
0100
1000
0001
1000
0100
1000
0001
1000
0100
0010
0001
1000
0001
0100
0010
1000
,
0001
0000
0000
0000
0000
0000
0000
0000
0000
0000
0000
0000
0100
0000
0000
0000
0000
0000
0000
0000
0000
0000
0000
0000
0001
0000
0000
0000
0000
0000
0000
0000
0000
0000
0000
0000
0100
0000
0000
0000
0000
0000
0000
0000
0000
0000
0000
0000
0010
0000
0000
0000
0000
0000
0000
0000
0000
0000
0000
0000
1000
0000
0000
0000
0000
0000
0000
0000
0000
0000
0000
0000
0001
0000
0000
0000
0000
0000
0000
0000
0000
0000
0000
0000
0100
0000
0000
0000
0000
0000
0000
0000
0000
0000
0000
0000
0001
0000
0000
0000
0000
0000
0000
0000
0000
0000
0000
0000
1000
0000
0000
0000
0000
0000
0000
0000
0000
0000
0000
0000
0002
0000
0000
0000
0000
0000
0000
0000
0000
0000
0000
0000
0000
0000
0000
0000
0000
0000
0000
0000
0000
0000
0000
0000
0000
0000
0000
0000
0000
0000
0000
0000
0000
0000
0000
0000
0000
0000
0000
0000
0000
0000
0000
0000
0000
0000
0000
0000
0000
0000
0000
0000
0000
0000
0000
0000
0000
0000
0000
0000
0000
0000
0000
0000
0000
0000
0000
0000
0000
0000
0003
0000
,
1001
MMMM
0101
1000
0101
0010
1100
0001
,
1100
0001
1010
0100
1010
0100
0002
2000
,
0003
3200
0010
0300
0010
0002
0000
0203
,
0000
0320
1000
0030
1000
0000
0100
0010
,
0001
0001
0001
0001
,
0001
0001
0001
0001
1000
0010
0000
0020
,
0000
0130
0001
1000
0100
0100
0010
0001
,
2000
0000
0000
0000
3010
0000
0100
0000
0001
1000
0001
1000
0001
1000
0001
1000
,
0001
0010
0100
1000
0001
0010
0100
1000
0010
0100
0001
0100
0010
1000
0001
1000
,
0001
0100
0010
0100
0010
1000
0100
0010
0001
1000
0001
1000
0010
0100
0001
1000
,
0010
0100
0010
0100
0001
0010
0001
1000
0100
1000
0001
1000
0010
0100
0010
0100
,
0001
1000
0010
1000
0001
0010
0100
1000
0001
0010
0100
1000
0001
0100
0010
1000
,
0010
0100
0001
0100
0010
1000
0001
0010
0001
0010
0100
1000
0001
0100
0010
1000
,
0010
0100
0001
1000
0010
1000
0010
0100
0001
1000
0001
1000
0100
0010
0001
0010
,
0100
1000
0001
1000
0010
0100
0001
0010
0001
0010
0100
1000
0001
0100
0010
1000
,
0001
1000
0001
0010
0100
1000
0001
0100
0010
1000
0001
0100
0010
1000
0100
0010
,
0001
0010
0100
1000
0001
1000
0001
1000
0100
0010
0001
0100
0010
1000
0010
0100
,
0001
1000
0010
0100
0001
0010
0001
0010
0100
1000
0010
0100
0001
0010
0100
1000
,
0001
0100
0010
1000
0010
0100
0001
0100
0010
1000
0100
0010
0001
1000
0010
0100
,
0001
1000
0010
0100
0001
1000
0100
0010
0001
0010
0001
1000
0010
0100
0010
0100
,
0001
1000
0010
0100
0001
1000
0001
1000
0100
0010
0001
0010
0100
1000
0001
0100
,
0010
0100
0010
1000
0001
1000
0100
0010
0001
0010
0100
1000
0001
0100
0010
1000
,
0010
0100
0010
1000
0001
0100
0001
1000
0001
0010
0001
0010
0100
1000
0001
0100
,
0010
1000
0001
1000
0001
0010
0100
1000
0001
1000
0004
0000
0000
0000
0003
0000
,
2MM1
0000
0000
0000
0000
0000
3002
0000
0000
0000
0000
0000
1003
0100
0010
0001
,
0100
0010
1000
0010
0100
0001
1000
0100
0010
0001
0010
0100
1000
0100
0010
0100
,
1000
0001
0100
0010
1000
0001
0100
0010
0100
0001
1000
0010
0100
0010
1000
0001
,
1000
0100
0010
0001
0010
0100
0010
0001
0010
0100
1000
0001
0100
0010
1000
0010
,
0100
0001
0100
0010
1000
0010
0100
0001
1000
0100
0010
0001
0010
0100
0010
0001
,
0010
0100
1000
0100
0010
0100
1000
0001
0100
0010
1000
0001
0100
0010
1000
0010
,
0100
0001
0100
0010
1000
0100
0010
0001
0010
0100
0010
0001
0010
0100
1000
0001
,
0100
0000
0000
0010
0000
0000
0100
0000
0000
0001
0000
0000
1000
0000
0000
0010
0000
0000
0100
0000
0000
0010
0000
0000
0100
0000
0000
0001
0000
0000
1000
0000
0000
0001
0000
0000
1000
0000
0001
0000
1000
0000
0001
0000
1000
0000
0001
0000
,
1000
0100
0010
0001
1000
0100
0010
0001
1000
0001
1000
0001
0100
0010
1000
0010
,
0100
0001
0100
0010
1000
0100
0010
0001
0010
0100
1000
0001
1000
0010
0100
0001
,
1000
0010
0100
0010
1000
0001
0010
0100
1000
0100
0010
0001
0010
0100
0010
0001
,
1000
0001
0100
0010
1000
0010
0100
0001
1000
0001
1000
0001
0100
0010
0100
0010
,
1000
0001
1000
0001
0010
0100
1000
0001
0010
0100
1000
0001
0100
0010
1000
0001
,
1000
0010
0100
0001
1000
0010
0100
0001
1000
0100
0010
0001
0010
0100
1000
0001
,
0100
0100
0010
0010
1000
1000
0001
0001
,
M000
M000
00M0
00M0
M000
M000
000M
000M
,
1000
0100
0010
0001
0100
0010
1000
0010
0100
0001
1000
0100
0010
0001
0010
0100
,
1000
0100
0010
0100
1000
0001
0100
0010
1000
0001
0100
0010
0100
0001
1000
0010
,
0100
0010
1000
0001
1000
0100
0010
0001
0010
0100
0010
0001
0010
0100
1000
0001
,
0100
0010
1000
0010
0100
0001
0100
0010
1000
0010
0100
0001
1000
0100
0010
0001
,
0010
0100
0010
0001
0010
0100
1000
0100
0010
0100
1000
0001
0100
0010
1000
0001
,
0100
0010
1000
0010
0100
0001
0100
0010
1000
0100
0010
0001
0010
0100
0010
0001
,
0010
0100
1000
0001
0100
0010
0100
0001
1000
0010
0100
0010
0100
0001
1000
0001
,
1000
0000
0000
0100
0000
0000
0010
0000
0000
0001
0000
0000
1000
0000
0000
0010
0000
0000
0100
0000
0000
0001
0000
0000
1000
0000
0000
0100
0000
0000
0010
0000
0000
0001
0000
0000
1000
0000
0001
0000
1000
0000
0001
0000
1000
0000
0001
0000
,
1000
0010
0100
0001
1000
0100
0010
0001
0010
0100
0010
0001
0010
0100
1000
0001
,
1000
0010
0100
0001
1000
0010
0100
0010
1000
0001
0010
0100
1000
0100
0010
0001
,
0010
0100
0010
0001
1000
0001
0100
0010
1000
0010
0100
0001
1000
0001
1000
0001
,
0100
0000
0000
0010
0000
0000
0100
0000
0000
0010
0000
0000
1000
0000
0000
0001
0000
0000
1000
0000
0000
0001
0000
0000
0010
0000
0000
0100
0000
0000
1000
0000
0000
0001
0000
0000
1000
0000
0001
0000
1000
0000
0001
0000
1000
0000
0001
0000
,
1000
0010
0100
0001
1000
0010
0100
0001
1000
0010
0100
0001
1000
0100
0010
0001
,
0010
0100
1000
0001
1000
0001
0100
0010
1000
0100
0010
0001
0010
0100
0010
0001
,
1000
0010
0100
0001
1000
0010
0100
0001
1000
0001
1000
0100
0010
0001
1000
0010
,
0100
0100
0010
0010
1000
1000
0001
0001
,
1000
0100
0010
0001
1000
0100
0010
0001
1000
0010
0100
0010
1000
0001
1000
0010
,
0100
0001
1000
0100
0010
0001
0010
0100
0010
0001
1000
0010
0100
0001
0100
0010
,
1000
0100
0010
0001
0010
0100
0010
0001
1000
0010
0100
0010
1000
0001
0100
0010
,
1000
0001
0100
0010
1000
0001
1000
0100
0010
0001
0010
0100
0010
0001
1000
0010
,
0100
0001
0100
0010
1000
0100
0010
0001
1000
0100
0010
0001
1000
0010
0100
0010
,
1000
0001
1000
0100
0010
0001
1000
0010
0100
0001
0100
0010
1000
0010
0100
0001
,
0010
0100
0010
0001
0010
0100
1000
0100
0010
0100
1000
0001
0100
0010
0100
0001
,
1000
0000
0000
0010
0000
0000
1000
0000
0000
0001
0000
0000
1000
0000
0000
0100
0000
0000
0010
0000
0000
0001
0000
0000
0010
0000
0000
0100
0000
0000
1000
0000
0000
0001
0000
0000
1000
0000
0001
0000
1000
0000
0001
0000
1000
0000
0001
0000
,
1000
0010
0100
0001
0100
0010
1000
0010
0100
0001
1000
0010
0100
0001
1000
0100
,
0010
0001
0010
0100
0010
0001
0010
0100
1000
0010
0100
0001
0010
0100
1000
0001
,
0100
0010
1000
0010
0100
0001
0010
0100
1000
0100
0010
0100
1000
0001
0100
0010
,
1000
0000
0000
0010
0000
0000
0100
0000
0000
0001
0000
0000
1000
0000
0000
0001
0000
0000
0100
0000
0000
0010
0000
0000
1000
0000
0001
0000
1000
0000
0001
0000
1000
0000
0001
0000
1000
0000
0000
0100
0000
0000
0010
0000
0000
0001
0000
0000
,
1000
0100
0010
0001
0010
0100
1000
0001
0100
0010
1000
0010
0100
0001
1000
0001
,
1000
0100
0010
0001
1000
0010
0100
0010
1000
0001
0100
0010
1000
0001
1000
0100
,
0010
0000
0000
0001
0000
0000
0010
0000
0000
0100
0000
0000
1000
0000
0000
0100
0000
0000
0010
0000
0000
0100
0000
0000
1000
0000
0001
0000
1000
0000
0001
0000
1000
0000
0001
0000
1000
0000
0000
0010
0000
0000
0100
0000
0000
0001
0000
0000
,
1000
1000
0001
0001
0010
0010
0100
0100
,
1000
0001
1000
0001
0100
0010
1000
0010
0100
0001
1000
0100
0010
0001
0010
0100
,
1000
0100
0010
0100
1000
0001
0100
0010
0100
0001
1000
0010
0100
0010
1000
0001
,
1000
0100
0010
0001
0010
0100
1000
0100
0010
0100
1000
0001
0100
0010
1000
0010
,
0100
0001
0100
0010
1000
0100
0010
0001
1000
0010
0100
0001
1000
0010
0100
0010
,
1000
0001
0010
0100
1000
0100
0010
0100
1000
0100
0010
0001
1000
0010
0100
0001
,
0100
0010
1000
0010
0100
0001
1000
0010
0100
0001
1000
0100
0010
0001
1000
0100
,
0010
0001
1000
0010
0100
0001
1000
0010
0100
0010
1000
0001
1000
0100
0010
0001
,
0010
0000
0000
0100
0000
0000
1000
0000
0000
0001
0000
0000
0100
0000
0000
0010
0000
0000
1000
0000
0000
0001
0000
0000
0010
0000
0000
0100
0000
0000
1000
0000
0000
0001
0000
0000
1000
0000
0001
0000
1000
0000
0001
0000
1000
0000
0001
0000
,
1000
0010
0100
0001
1000
0010
0100
0010
1000
0001
1000
0100
0010
0001
0010
0100
,
1000
0100
0010
0100
1000
0001
0100
0010
1000
0010
0100
0001
0100
0010
1000
0100
,
0010
0001
0010
0100
0010
0001
1000
0010
0100
0001
0100
0010
1000
0010
0100
0001
,
1000
0100
0010
0001
0010
0100
1000
0100
0010
0100
1000
0001
0100
0010
1000
0010
,
0100
0001
1000
0100
0010
0001
1000
0100
0010
0100
1000
0001
0100
0010
0100
0001
,
1000
0010
0100
0010
1000
0001
0010
0100
1000
0100
0010
0001
0010
0100
0010
0001
,
1000
0010
0100
0001
0100
0010
1000
0010
0100
0001
1000
0100
0010
0001
0010
0100
,
1000
0000
0000
0100
0000
0000
0010
0000
0000
0001
0000
0000
1000
0000
0000
0010
0000
0000
0100
0000
0000
0001
0000
0000
1000
0000
0001
0000
1000
0000
0001
0000
1000
0000
0001
0000
1000
0000
0000
0100
0000
0000
0010
0000
0000
0001
0000
0000
,
1000
0010
0100
0001
0100
0010
1000
0010
0100
0001
0010
0100
1000
0100
0010
0100
,
1000
0001
0100
0010
1000
0010
0100
0001
0100
0010
1000
0100
0010
0001
0010
0100
,
0010
0001
1000
0010
0100
0010
1000
0001
0010
0100
1000
0100
0010
0100
1000
0001
,
0100
0010
0100
0001
0100
0010
1000
0010
0100
0001
0010
0100
1000
0100
0010
0100
,
1000
0100
0010
0001
0010
0100
0010
0001
1000
0010
0100
0010
0100
0001
0100
0010
,
1000
0100
0010
0001
0010
0100
1000
0010
0100
0001
1000
0010
0100
0001
1000
0010
,
0100
0010
1000
0001
0100
0010
0100
0001
1000
0100
0010
0001
0010
0100
0010
0001
,
0010
0000
0000
0100
0000
0000
1000
0000
0000
0001
0000
0000
0100
0000
0000
0010
0000
0000
1000
0000
0000
0010
0000
0000
0100
0000
0000
0001
0000
0000
0100
0000
0000
0010
0000
0000
1000
0000
0001
0000
1000
0000
0001
0000
1000
0000
0001
0000
,
1000
0100
0010
0001
0010
0100
1000
0100
0010
0100
1000
0001
0100
0010
1000
0010
,
0100
0001
0100
0010
1000
0010
0100
0001
1000
0100
0010
0001
1000
0100
0010
0001
,
0100
0010
1000
0001
0100
0001
1000
0010
0100
0001
0010
0100
1000
0100
0010
0001
,
0100
0010
1000
0100
0010
0100
1000
0010
0100
0001
0010
0100
1000
0010
0100
0001
,
1000
0001
1000
0001
1000
0001
1000
0001
1000
0001
1000
0001
1000
0001
1000
0001
1000
0001
1000
0001
1000
0001
1000
0001
,
1000
0001
1000
0001
1000
0001
1000
0001
1000
0001
1000
0001
1000
0001
1000
0001
1000
0001
1000
0001
1000
0001
1000
0001
,
1000
0001
1000
0001
1000
0001
1000
0001
1000
0001
1000
0001
1000
0001
1000
0001
1000
0001
1000
0001
1000
0001
1000
0001
,
1000
0000
0000
0000
0000
0000
0000
0000
0000
0000
0000
0000
0000
1000
1001
0000
,
1MM1
0000
0000
0000
0001
1000
0010
1000
0100
0010
0001
1000
0001
1000
0010
1000
,
0001
0100
0010
1000
0010
1000
0100
0010
0001
1000
0010
1000
0010
1000
0100
0010
,
0001
1000
0001
0100
0010
1000
0001
0010
0100
1000
0001
1000
0100
1000
0001
0100
,
0001
0100
0001
1000
0100
0010
0001
1000
0100
0010
0001
1000
0010
1000
0001
0010
,
0100
1000
0010
1000
0100
0010
0001
0100
0001
1000
0001
0010
0100
1000
0001
0100
,
0001
0100
0010
1000
0001
0100
0010
1000
0001
0010
0100
1000
0001
0100
0001
1000
,
0100
1000
0001
1000
0100
1000
0001
1000
0100
1000
0001
0100
0010
0100
0010
1000
,
0001
0000
0000
0010
0000
0000
0001
0000
0000
0010
0000
0000
0100
0000
0000
1000
0000
0000
0001
0000
0000
0100
0000
0000
0001
0000
1000
0000
0001
0000
1000
0000
0001
0000
1000
0000
0001
0000
0000
0100
0000
0000
0010
0000
0000
1000
0000
0000
,
0001
1000
0001
0010
0100
1000
0010
1000
0100
0010
0001
1000
0001
0100
0010
1000
,
0001
0100
0010
1000
0010
1000
0100
0010
0001
1000
0010
1000
0010
1000
0100
0010
,
0001
1000
0001
0100
0001
1000
0010
1000
0100
0010
0001
1000
0001
0100
0010
1000
,
0001
0100
0010
1000
0100
0010
0001
1000
0010
0100
0001
1000
0010
1000
0001
0010
,
0100
1000
0001
1000
0100
0010
0001
0100
0001
1000
0001
0010
0100
1000
0001
0100
,
0001
0100
0010
1000
0001
0100
0010
1000
0001
0010
0100
1000
0001
0100
0001
1000
,
0100
1000
0001
1000
0100
1000
0001
1000
0100
0010
0001
1000
0001
0100
0010
1000
,
0001
0000
0000
0000
0000
0000
0000
0000
0000
0000
0000
0000
0100
0000
0000
0000
0000
0000
0000
0000
0000
0000
0000
0000
0001
0000
0000
0000
0000
0000
0000
0000
0000
0000
0000
0000
0100
0000
0000
0000
0000
0000
0000
0000
0000
0000
0000
0000
0010
0000
0000
0000
0000
0000
0000
0000
0000
0000
0000
0000
1000
0000
0000
0000
0000
0000
0000
0000
0000
0000
0000
0000
0001
0000
0000
0000
0000
0000
0000
0000
0000
0000
0000
0000
0100
0000
0000
0000
0000
0000
0000
0000
0000
0000
0000
0000
0001
0000
0000
0000
0000
0000
0000
0000
0000
0000
0000
0000
1000
0000
0000
0000
0000
0000
0000
0000
0000
0000
0000
0000
0002
0000
0000
0000
0000
0000
0000
0000
0000
0000
0000
0000
0000
0000
0000
0000
0000
0000
0000
0000
0000
0000
0000
0000
0000
0000
0000
0000
0000
0000
0000
0000
0000
0000
0000
0000
0000
0000
0000
0000
0000
0000
0000
0000
0000
0000
0000
0000
0000
0000
0000
0000
0000
0000
0000
0000
0000
0000
0000
0000
0000
0000
0000
0000
0000
0000
0000
0000
0000
0000
0003
0000
,
1MM1
0000
0000
0000
1000
0100
0010
0001
0100
0010
1000
0010
0100
0001
1000
0001
,
1000
0010
0100
0010
0100
0001
0010
0100
1000
0001
1000
0001
0100
0010
1000
0001
,
0100
0010
0100
0010
1000
0100
1000
0001
0010
0001
1000
0001
0100
0010
0100
0010
,
1000
0001
0100
0001
1000
0100
0010
0001
1000
0100
0010
0001
1000
0010
0100
0001
,
0100
0010
1000
0001
0100
0001
1000
0100
1000
0100
0010
0001
1000
0010
0100
0001
,
0100
0010
1000
0001
0100
0001
0100
0010
1000
0001
1000
0001
0010
0100
1000
0100
,
0010
0001
1000
0001
0100
0010
1000
0100
1000
0100
0010
0001
1000
0010
0100
0001
,
1000
0000
0000
0001
0000
0000
1000
0000
0000
0100
0000
0000
0010
0000
0000
0001
0000
0000
1000
0000
0000
0010
0000
0000
1000
0000
0001
0000
1000
0000
0001
0000
1000
0000
0001
0000
1000
0000
0000
0000
0000
0000
0000
0000
0000
0000
0000
0000
,
0001
0100
0010
1000
0001
1000
0001
0100
0010
1000
0100
0010
0001
0100
0001
0010
,
0100
1000
0001
1000
0001
0100
0010
1000
0001
0100
0001
0010
0100
1000
0100
1000
,
0001
0100
0010
0100
0010
1000
0001
0100
0010
1000
0100
0010
0001
1000
0001
1000
,
0100
0010
0001
1000
0001
0100
0010
0100
0010
1000
0001
0010
0001
0010
0100
1000
,
0001
0100
0010
0100
0001
1000
0001
1000
0100
1000
0100
0010
0001
0100
0010
1000
,
0100
0010
0001
1000
0001
0100
0010
0100
0001
0100
0010
1000
0001
0100
0010
1000
,
0001
0100
0001
1000
0001
0010
0001
1000
0001
0100
0001
1000
0010
0100
0010
0100
,
0001
1000
0001
1000
0100
0010
0001
1000
0100
0010
0004
0000
0000
0000
0003
0000
,
1001
MMMM
0101
1000
0101
0010
1100
0001
,
1100
0001
1010
0100
1010
0100
0002
2000
,
0003
3200
0010
0300
0010
0002
0000
0203
,
0000
0320
1000
0030
1000
0000
0100
0010
,
0001
0001
0001
0001
,
0001
0001
0001
0001
1000
0010
0000
0020
,
0000
0130
0001
1000
0100
0100
0010
0001
,
2000
0000
0000
0000
3010
0000
0100
0000
0001
1000
0001
1000
0001
1000
0001
1000
,
0020
0030
0020
0030
0020
0000
0030
0400
,
0000
0000
0000
0000
,
1301
0000
0000
0000
1001
0000
0000
0000
1000
0001
1000
0001
0020
0000
0030
0000
,
MMMM
0000
0000
0000
0001
1000
0001
1000
0100
0010
0001
1000
0001
1000
0010
1000
,
0001
0100
0010
1000
0010
1000
0100
0010
0001
1000
0010
1000
0010
1000
0100
0010
,
0001
1000
0001
0100
0010
1000
0001
0010
0100
1000
0001
1000
0100
1000
0001
0100
,
0001
0100
0001
1000
0100
0010
0001
1000
0100
0010
0001
1000
0010
1000
0001
0010
,
0100
1000
0001
1000
0100
0010
0001
0100
0001
1000
0001
0010
0100
1000
0001
0010
,
0001
0010
0100
1000
0001
0100
0010
1000
0001
0010
0100
1000
0001
0100
0001
1000
,
0100
0010
0001
1000
0010
0100
0001
1000
0100
0010
0001
1000
0001
0100
0010
1000
,
0001
0000
0000
0010
0000
0000
0001
0000
0000
0010
0000
0000
0100
0000
0000
1000
0000
0000
0001
0000
0000
0100
0000
0000
0001
0000
1000
0000
0001
0000
1000
0000
0001
0000
1000
0000
0001
0000
0000
0100
0000
0000
0010
0000
0000
1000
0000
0000
,
0001
1000
0001
0010
0100
1000
0010
1000
0100
0010
0001
1000
0001
0100
0010
1000
,
0001
0100
0010
1000
0010
1000
0100
0010
0001
1000
0010
1000
0010
1000
0100
0010
,
0001
1000
0001
0100
0001
1000
0010
1000
0100
0010
0001
1000
0001
0100
0010
1000
,
0001
0100
0010
1000
0100
0010
0001
1000
0100
0010
0001
1000
0010
1000
0001
0010
,
0100
1000
0001
1000
0100
0010
0001
0100
0001
1000
0001
0010
0100
1000
0001
0100
,
0001
0100
0010
1000
0001
0100
0010
1000
0001
0010
0100
1000
0001
0100
0001
1000
,
0100
1000
0001
1000
0100
1000
0001
1000
0100
0010
0001
1000
0001
0100
0010
1000
,
0001
0100
0001
0100
0010
1000
0002
0000
0000
0000
0000
0000
0000
0000
0003
0000
,
1MM1
0000
0000
0000
1000
0100
0010
0001
1000
0010
0100
0001
1000
0001
0100
0001
,
1000
0001
0100
0001
1000
0010
0100
0010
1000
0001
0010
0100
0010
0001
1000
0010
,
0100
0001
1000
0100
0010
0001
1000
0100
0010
0001
0100
0001
0010
0100
1000
0010
,
1000
0100
0010
0001
0100
0010
1000
0100
0010
0001
1000
0001
0010
0100
1000
0010
,
0100
0001
0010
0100
1000
0010
0100
0001
0010
0100
1000
0001
1000
0001
0010
0100
,
1000
0010
0100
0001
0010
0100
1000
0001
0100
0001
1000
0100
0010
0001
0100
0010
,
1000
0100
0010
0001
1000
0010
0100
0001
1000
0100
0010
0001
1000
0001
0100
0001
,
1000
0100
0010
0001
0100
0010
1000
0100
0010
0001
1000
0010
0100
0001
1000
0010
,
0100
0000
0000
0000
,
0000
0000
0000
0000
,
0000
0000
0000
000M
00M0
0M00
M000
0000
0000
0000
0000
0000
0000
0000
0000
0000
0000
0000
0000
0000
0000
0000
0000
0000
;
