#TITLE:S;
#SUBTITLE:;
#ARTIST:0mega;
#TITLETRANSLIT:;
#SUBTITLETRANSLIT:;
#ARTISTTRANSLIT:;
#CREDIT:;
#BANNER:../Zeppelin_bn.png;
#BACKGROUND:../bg_Zeppelin.png;
#LYRICSPATH:;
#CDTITLE:../cdtitle_ZAiA.png;
#MUSIC:0mega - S.ogg;
#OFFSET:-0.090;
#SAMPLESTART:47.460;
#SAMPLELENGTH:23.320;
#SELECTABLE:YES;
#BPMS:0.000=166.000;
#STOPS:;
#BGCHANGES:;
// cache tags:
#FIRSTBEAT:4.000;
#LASTBEAT:332.000;
#SONGFILENAME:Songs/Cirque du Zeppelin/S - [Zaia]/S.sm;
#HASMUSIC:1;
#HASBANNER:1;
#MUSICLENGTH:122.932;
// end cache tags

//---------------dance-single - 40/9----------------
#NOTES:
     dance-single:
     40/9:
     Challenge:
     13:
     1.000,1.000,0.008,0.285,1.000,1061.000,1.000,35.000,0.000,0.000:
0000
0000
0000
0000
,
1000
0001
0010
0001
1000
0010
0100
0010
,
1000
0001
0100
0001
0010
0100
1000
0001
,
0200
0310
0000
1000
0001
0010
0100
1000
,
0001
1000
0010
0100
0001
0010
0100
0010
,
0002
1003
0000
0000
0100
1000
0001
0100
,
0010
0100
0001
0010
0001
0100
0010
1000
,
0002
0013
0100
1000
0001
0100
0010
1000
,
0200
1300
0001
1000
0010
0100
0001
1000
,
1100
0100
0010
0001
1000
0001
0010
0100
,
1000
0010
0100
0001
0010
0100
1000
0010
,
1000
0000
0001
0000
0100
0000
0000
0000
0010
0100
0001
1000
0001
0010
0100
1000
,
0010
0000
0100
0000
0010
0000
1000
0000
0100
0000
0010
0001
1000
0001
0100
0010
,
1000
0100
0010
0000
0001
0000
1000
0000
0010
0000
0100
0000
0001
0000
0010
0000
,
0001
0000
0100
0000
0010
0000
1000
0000
0001
0000
0010
0000
0100
1000
0001
1000
,
0010
0000
0000
0000
0100
0001
0010
0001
1000
0000
0000
0000
0001
0100
0010
1000
,
0001
0010
0001
0010
0100
1000
0001
0100
0010
1000
0001
0100
0010
0100
0001
0010
,
0100
0000
1000
0000
0001
0000
0100
0000
0010
0000
0100
0000
0001
0000
0010
0001
,
1000
0000
0100
0000
1000
0000
0010
0000
1000
0000
0001
0000
0100
0000
0001
0010
,
0100
0000
1000
0000
0001
0000
1000
0000
0010
0000
0100
0000
0001
0000
0010
0100
,
1000
0000
0001
0000
1000
0000
0010
0000
0100
0000
0001
0000
1000
0000
0100
0010
,
0001
0100
0001
0010
0100
1000
0010
1000
,
0001
0000
0200
0000
0302
0000
0013
0100
1000
0000
0010
0000
0100
0000
0010
1000
,
0001
0010
0100
1000
0001
0100
0010
1000
,
0100
0010
0100
1000
0010
0100
0001
0010
,
0100
1000
0001
1000
0010
0100
0001
1000
0100
0010
0100
1000
0001
0100
0010
1000
,
0001
0010
0001
1000
0001
0100
0010
0100
0001
1000
0001
0010
0001
1000
0100
1000
,
0010
0100
0001
1000
0001
0010
0001
1000
0010
0100
0001
1000
0010
1000
0001
1000
,
0100
0010
0100
1000
0001
0100
0010
1000
0001
0010
0100
1000
0001
1000
0010
0100
,
0001
0010
0100
0010
0001
1000
0010
0100
0001
1000
0010
1000
0001
0010
0100
1000
,
0001
0100
0001
0010
0100
1000
0010
1000
0001
0100
0001
1000
0100
0010
0001
0100
,
0001
1000
0010
1000
0001
0010
0100
1000
0001
0100
0010
0100
0001
1000
0001
0010
,
0100
1000
0001
1000
0010
0100
0010
1000
0001
1000
0001
0010
0100
1000
0010
1000
,
0001
0100
0001
0010
0100
1000
0100
0010
0001
0100
0010
1000
0001
0100
0001
1000
,
0100
0010
0100
1000
0001
1000
0010
0100
0010
1000
0001
1000
0100
0010
0001
0100
,
0010
1000
0001
0100
0010
0100
0001
1000
0001
1000
0100
1000
0001
0010
0100
1000
,
0010
0100
0001
1000
0010
0100
0010
1000
0100
1000
0001
1000
0100
1000
0001
0100
,
0010
0100
0001
0010
0100
1000
0010
0100
0010
1000
0001
0010
0001
1000
0010
0100
,
0001
0010
0001
1000
0100
0010
0100
0010
0001
1000
0001
1000
0010
0100
0001
0100
,
0010
1000
0100
0010
0001
1000
0100
1000
0010
0100
0001
1000
0010
1000
0001
0010
,
0001
0100
0001
1000
0010
0100
0010
1000
0100
1000
0001
1000
0010
0100
0001
0010
,
0100
1000
0010
1000
0001
0100
0001
0010
0100
1000
0010
0100
0001
1000
0010
1000
,
0001
0010
0100
0010
0001
1000
0001
0100
0010
0100
0001
1000
0001
0010
0100
1000
,
0010
0100
0001
1000
0010
0100
0010
1000
0001
1000
0001
0010
0001
1000
0100
0010
,
0001
0100
0010
1000
0001
0100
0010
0100
0001
0010
0001
1000
0001
0010
0001
0100
,
0010
1000
0100
0010
0100
1000
0001
1000
0010
0100
0001
1000
0100
1000
0001
0100
,
0010
1000
0100
1000
0001
0010
0100
0010
0100
1000
0001
1000
0001
0100
0010
1000
,
0010
0100
0001
0010
0100
1000
0001
0010
0001
0100
0010
1000
0001
0100
0001
1000
,
0100
1000
0010
1000
0001
0010
0100
0010
0001
0100
0001
1000
0001
0010
0100
1000
,
0010
0100
0001
1000
0100
0010
0001
1000
0001
0100
0001
1000
0100
1000
0100
0010
,
0001
1000
0001
1000
0010
0100
0001
1000
0001
0010
0001
1000
0010
0100
0010
0100
,
0001
1000
0001
0010
0001
0010
0100
1000
0001
0100
0010
0100
0001
1000
0100
0010
,
0001
1000
0001
0100
0010
0100
0001
1000
0100
1000
0001
0100
0010
1000
0001
0100
,
0001
0010
0100
1000
0001
0100
0010
1000
0001
1000
0100
1000
0001
0100
0001
0100
,
0010
1000
0001
1000
0001
0010
0100
1000
0001
1000
0010
1000
0001
0010
0100
0010
,
0100
1000
0001
1000
0010
1000
0010
0100
0001
1000
0100
0010
0100
1000
0001
0100
,
0010
1000
0001
1000
0100
0010
0100
1000
0001
0100
0001
1000
0100
1000
0001
0100
,
0001
0010
0001
1000
0010
0100
0001
1000
0001
0010
0001
1000
0010
1000
0010
0100
,
0001
1000
0001
1000
0100
0010
0001
1000
0001
0100
0001
1000
0100
0010
0100
0010
,
0001
1000
0001
0100
0001
0100
0010
1000
0001
0010
0100
0010
0001
1000
0010
0100
,
0001
1000
0001
1000
0100
0010
0001
1000
0010
1000
0001
0010
0100
1000
0001
0010
,
0001
0100
0010
1000
0001
0010
0100
1000
0001
1000
0010
1000
0001
0010
0001
0010
,
0100
1000
0001
1000
0001
0100
0010
1000
0001
1000
0100
1000
0001
0100
0010
0100
,
0010
1000
0001
1000
0100
1000
0100
0010
0001
1000
0010
0100
0010
1000
0001
0010
,
0100
1000
0001
0100
0001
0010
0001
1000
0010
0100
0001
1000
0010
1000
0100
0010
,
0002
0000
0000
0000
0000
0000
0000
0000
1000
0000
0000
0000
0000
0000
0000
0003
0002
0000
0000
0000
0000
0000
0000
0000
0013
0000
0000
0000
0100
0000
0000
0000
2000
0000
0000
0000
0000
0000
0000
0000
0001
0000
0000
0000
0000
0000
0000
3000
2000
0000
0000
0000
0000
0000
0000
0000
0010
0000
0000
0000
0000
0000
0000
3000
,
2000
0100
3020
0130
2000
3010
0200
0301
,
0020
0000
0000
0000
0000
0000
0000
0000
0100
0000
0000
0000
0000
0000
0000
0030
0020
0000
0000
0000
0000
0000
0000
0000
0032
0000
0000
0000
0000
0000
0000
0000
0100
0000
0000
0000
0000
0000
0000
0003
0002
0000
0000
0000
0000
0000
0000
0000
2003
0000
0000
0000
0000
0000
0000
0000
3100
0000
0000
0000
0000
0000
0000
0000
,
0020
0000
0000
0000
0000
0000
0000
0000
0100
0000
0000
0000
0000
0000
0000
0030
0020
0000
0000
0000
0000
0000
0000
0000
0130
0000
0000
0000
1000
0000
0000
0000
0002
0000
0000
0000
0000
0000
0000
0000
0100
0000
0000
0000
0000
0000
0000
0003
0002
0000
0000
0000
0000
0000
0000
0000
1003
0000
0000
0000
0010
0000
0000
0000
,
1000
0000
0000
0000
0001
0000
0000
0000
0200
0000
0000
0000
0000
0000
0000
0000
0010
0000
0000
0000
0000
0000
0000
0300
0200
0000
0000
0000
0000
0000
0000
0000
0001
0000
0000
0000
0000
0000
0000
0300
0200
0000
0000
0000
0000
0000
0000
0000
0010
0000
0000
0000
0000
0000
0000
0300
0200
0000
0000
0000
0000
0000
0000
0000
,
0301
1000
0200
1300
0002
1003
0020
0130
,
0002
0000
0000
0000
0000
0000
0000
0000
1000
0000
0000
0000
0000
0000
0000
0003
0002
0000
0000
0000
0000
0000
0000
0000
0013
0000
0000
0000
0100
0000
0000
0000
2000
0000
0000
0000
0000
0000
0000
0000
0001
0000
0000
0000
0000
0000
0000
3000
2000
0000
0000
0000
0000
0000
0000
0000
3001
0000
0000
0000
0100
0000
0000
0000
,
0010
1000
0001
0010
0100
0010
0001
1000
0001
0100
0010
1000
0001
1000
0001
0010
,
0100
1000
0001
1000
0010
0100
0001
0010
0100
1000
0001
0100
0010
0100
0001
1000
,
0100
1000
0001
0010
0001
0100
0010
1000
0100
1000
0001
0010
0100
1000
0010
1000
,
0001
0100
0001
0010
0100
1000
0010
0100
0001
1000
0001
0010
0100
1000
0010
0100
,
0001
0100
0010
1000
0001
0010
0001
1000
0100
1000
0010
0100
0001
1000
0001
0010
,
0001
1000
0010
0100
0001
1000
0001
0100
0010
1000
0100
0010
0001
0100
0001
1000
,
0100
1000
0001
1000
0100
0010
0100
1000
0001
0100
0010
0100
0001
1000
0001
1000
,
0100
0010
0001
1000
0100
1000
0010
0100
0001
1000
0001
0100
0001
1000
0100
0010
,
0100
1000
0010
1000
0100
1000
0010
1000
0100
0010
0100
0010
0001
1000
0010
0100
,
0002
0000
0000
0000
,
0000
0000
0000
0000
,
0003
0000
0000
0000
;

//---------------dance-single - 8/9/9----------------
#NOTES:
     dance-single:
     8/9/9:
     Hard:
     12:
     1.000,1.000,0.081,0.285,1.000,910.000,10.000,35.000,0.000,0.000:
0000
0000
0000
0000
,
1000
0001
0010
0001
1000
0010
0100
0010
,
1000
0001
0100
0001
0010
0100
1000
0001
,
0200
0310
0000
1000
0001
0010
0100
1000
,
0001
1000
0010
0100
0001
0010
0100
0010
,
0002
1003
0000
0000
0100
1000
0001
0100
,
0010
0100
0001
0010
0001
0100
0010
1000
,
0002
0013
0100
1000
0001
0100
0010
1000
,
0200
1300
0001
1000
0010
0100
0001
1000
,
1100
0100
0010
0001
1000
0001
0010
0100
,
1000
0010
0100
0001
0010
0100
1000
0010
,
1000
0000
0001
0000
0100
0000
0000
0000
0010
0100
0001
1000
0001
0010
0100
1000
,
0010
0000
0100
0000
0010
0000
1000
0000
0100
0000
0010
0001
1000
0001
0100
0010
,
1000
0100
0010
0000
0001
0000
1000
0000
0010
0000
0100
0000
0001
0000
0010
0000
,
0001
0000
0100
0000
0010
0000
1000
0000
0001
0000
0010
0000
0100
1000
0001
1000
,
0010
0000
0000
0000
0100
0001
0010
0001
1000
0000
0000
0000
0001
0100
0010
1000
,
0001
0010
0001
0010
0100
1000
0001
0100
0010
1000
0001
0100
0010
0100
0001
0010
,
0100
0000
1000
0000
0001
0000
0100
0000
0010
0000
0100
0000
0001
0000
0010
0001
,
1000
0000
0100
0000
1000
0000
0010
0000
1000
0000
0001
0000
0100
0000
0001
0010
,
0100
0000
1000
0000
0001
0000
1000
0000
0010
0000
0100
0000
0001
0000
0010
0100
,
1000
0000
0001
0000
1000
0000
0010
0000
0100
0000
0001
0000
1000
0000
0100
0010
,
0001
0100
0001
0010
0100
1000
0010
1000
,
0001
0000
0200
0000
0302
0000
0013
0100
1000
0000
0010
0000
0100
0000
0010
1000
,
0001
0010
0100
1000
0001
0100
0010
1000
,
0100
0010
0100
1000
0010
0100
0001
0010
,
0110
0100
1100
1000
0001
0100
0101
0001
,
1000
0010
1010
1000
0001
0010
0110
0100
,
1000
0001
1001
1000
0010
0100
0101
0001
,
0010
0000
0100
0000
1100
0000
1000
0000
0001
0000
1000
0000
1010
0000
0010
0100
,
0001
1000
0100
0010
0100
1000
0001
0100
,
0001
0000
0010
0000
0001
0000
0100
0010
1000
0000
0001
0000
0010
0000
0001
1000
,
0010
0100
0010
1000
0100
0010
0001
1000
,
0010
0000
0100
0000
0001
0000
0010
0000
0100
0000
1000
0000
0001
0100
0010
1000
,
0001
0100
0001
0010
0100
1000
0100
0010
0001
0100
0010
1000
0001
0100
0001
1000
,
0100
0010
0100
1000
0001
1000
0010
0100
0010
1000
0001
1000
0100
0010
0001
0100
,
0010
1000
0001
0100
0010
0100
0001
1000
0001
1000
0100
1000
0001
0010
0100
1000
,
0010
0100
0001
1000
0010
0100
0010
1000
0100
1000
0001
1000
0100
1000
0001
0100
,
0010
0100
0001
0010
0100
1000
0010
0100
0010
1000
0001
0010
0001
1000
0010
0100
,
0001
0010
0001
1000
0100
0010
0100
0010
0001
1000
0001
1000
0010
0100
0001
0100
,
0010
1000
0100
0010
0001
1000
0100
1000
0010
0100
0001
1000
0010
1000
0001
0010
,
0001
0100
0001
1000
0010
0100
0010
1000
0100
1000
0001
1000
0010
0100
0001
0010
,
0100
0000
1000
0000
0100
0000
1000
0001
0100
0000
0010
0000
1000
0000
0010
0000
,
0100
0001
0010
0100
1000
0001
0100
0001
,
0010
0100
0010
0100
1000
0100
0010
0001
,
1000
0000
0001
0000
1000
0000
0010
0100
0001
0000
0100
0000
0001
0000
0010
0100
,
1000
0010
0100
0000
0001
0000
0100
0000
0010
0000
1000
0000
0100
0000
1000
0000
,
0001
0010
0100
1000
0001
1000
0010
0100
,
0001
0000
0010
0000
0100
0000
1000
0001
0100
0000
0010
0000
1000
0000
0001
1000
,
0100
1000
0010
1000
0001
0010
0100
0010
0001
0100
0001
1000
0001
0010
0100
1000
,
0010
0100
0001
1000
0100
0010
0001
1000
0001
0100
0001
1000
0100
1000
0100
0010
,
0001
1000
0001
1000
0010
0100
0001
1000
0001
0010
0001
1000
0010
0100
0010
0100
,
0001
1000
0001
0010
0001
0010
0100
1000
0001
0100
0010
0100
0001
1000
0100
0010
,
0001
1000
0001
0100
0010
0100
0001
1000
0100
1000
0001
0100
0010
1000
0001
0100
,
0001
0010
0100
1000
0001
0100
0010
1000
0001
1000
0100
1000
0001
0100
0001
0100
,
0010
1000
0001
1000
0001
0010
0100
1000
0001
1000
0010
1000
0001
0010
0100
0010
,
0100
1000
0001
1000
0010
1000
0010
0100
0001
1000
0100
0010
0100
1000
0001
0100
,
0010
1000
0001
1000
0100
0010
0100
1000
0001
0100
0001
1000
0100
1000
0001
0100
,
0001
0000
0010
0000
0100
1000
0100
0000
0010
0000
0001
0000
1000
0010
1000
0000
,
0001
0000
0100
0000
0001
1000
0001
0000
0100
0000
0010
0000
1000
0010
1000
0000
,
0100
0000
0010
0000
0001
0100
0001
0000
1000
0000
0100
0000
0010
0100
0010
0000
,
0001
0000
1000
0000
0001
0100
0001
0000
1000
0000
0100
0000
1000
0010
1000
0000
,
0001
0000
0010
0000
0100
1000
0100
0000
0010
0000
0001
0000
1000
0010
1000
0000
,
0001
0000
0100
0000
0001
1000
0001
0000
0010
0000
0100
0000
1000
0010
1000
0000
,
0100
0000
0010
0000
0001
0100
0001
0000
1000
0000
0100
0000
0010
0100
0010
0000
,
0100
1000
0001
0100
0001
0010
0001
1000
0010
0100
0001
1000
0010
1000
0100
0010
,
0002
0000
0000
0000
0000
0000
0000
0000
1000
0000
0000
0000
0000
0000
0000
0003
0002
0000
0000
0000
0000
0000
0000
0000
0013
0000
0000
0000
0100
0000
0000
0000
2000
0000
0000
0000
0000
0000
0000
0000
0001
0000
0000
0000
0000
0000
0000
3000
2000
0000
0000
0000
0000
0000
0000
0000
0010
0000
0000
0000
0000
0000
0000
3000
,
2000
0100
3020
0130
2000
3010
0200
0301
,
0020
0000
0000
0000
0000
0000
0000
0000
0100
0000
0000
0000
0000
0000
0000
0030
0020
0000
0000
0000
0000
0000
0000
0000
0032
0000
0000
0000
0000
0000
0000
0000
0100
0000
0000
0000
0000
0000
0000
0003
0002
0000
0000
0000
0000
0000
0000
0000
2003
0000
0000
0000
0000
0000
0000
0000
3100
0000
0000
0000
0000
0000
0000
0000
,
0020
0000
0000
0000
0000
0000
0000
0000
0100
0000
0000
0000
0000
0000
0000
0030
0020
0000
0000
0000
0000
0000
0000
0000
0130
0000
0000
0000
1000
0000
0000
0000
0002
0000
0000
0000
0000
0000
0000
0000
0100
0000
0000
0000
0000
0000
0000
0003
0002
0000
0000
0000
0000
0000
0000
0000
1003
0000
0000
0000
0010
0000
0000
0000
,
1000
0000
0000
0000
0001
0000
0000
0000
0200
0000
0000
0000
0000
0000
0000
0000
0010
0000
0000
0000
0000
0000
0000
0300
0200
0000
0000
0000
0000
0000
0000
0000
0001
0000
0000
0000
0000
0000
0000
0300
0200
0000
0000
0000
0000
0000
0000
0000
0010
0000
0000
0000
0000
0000
0000
0300
0200
0000
0000
0000
0000
0000
0000
0000
,
0301
1000
0200
1300
0002
1003
0020
0130
,
0002
0000
0000
0000
0000
0000
0000
0000
1000
0000
0000
0000
0000
0000
0000
0003
0002
0000
0000
0000
0000
0000
0000
0000
0013
0000
0000
0000
0100
0000
0000
0000
2000
0000
0000
0000
0000
0000
0000
0000
0001
0000
0000
0000
0000
0000
0000
3000
2000
0000
0000
0000
0000
0000
0000
0000
3001
0000
0000
0000
0100
0000
0000
0000
,
0010
1000
0001
0010
0100
0010
0001
1000
0001
0100
0010
1000
0001
1000
0001
0010
,
0100
1000
0001
1000
0010
0100
0001
0010
0100
1000
0001
0100
0010
0100
0001
1000
,
0100
1000
0001
0010
0001
0100
0010
1000
0100
1000
0001
0010
0100
1000
0010
1000
,
0001
0100
0001
0010
0100
1000
0010
0100
0001
1000
0001
0010
0100
1000
0010
0100
,
0001
0100
0010
1000
0001
0010
0001
1000
0100
1000
0010
0100
0001
1000
0001
0010
,
0001
1000
0010
0100
0001
1000
0001
0100
0010
1000
0100
0010
0001
0100
0001
1000
,
0100
1000
0001
1000
0100
0010
0100
1000
0001
0100
0010
0100
0001
1000
0001
1000
,
0100
0010
0001
1000
0100
1000
0010
0100
0001
1000
0001
0100
0001
1000
0100
0010
,
0100
1000
0010
1000
0100
1000
0010
1000
0100
0010
0100
0010
0001
1000
0010
0100
,
0002
0000
0000
0000
,
0000
0000
0000
0000
,
0003
0000
0000
0000
;

//---------------dance-single - 1/1/1/1/1/1----------------
#NOTES:
     dance-single:
     1/1/1/1/1/1:
     Medium:
     10:
     0.919,1.000,0.089,0.545,0.472,713.000,11.000,67.000,0.000,0.000:
0000
0000
0000
0000
,
1000
0001
0010
0001
1000
0010
0100
0010
,
1000
0001
0100
0001
0010
0100
1000
0001
,
0200
0310
0000
1000
0001
0010
0100
1000
,
0001
1000
0010
0100
0001
0010
0100
0010
,
0002
1003
0000
0000
0100
1000
0001
0100
,
0010
0100
0001
0010
0001
0100
0010
1000
,
0002
0013
0100
1000
0001
0100
0010
1000
,
0200
1300
0001
1000
0010
0100
0001
1000
,
1100
0100
0010
0001
1000
0001
0010
0100
,
1000
0010
0100
0001
0010
0100
1000
0010
,
1000
0000
0001
0000
0100
0000
0000
0000
0010
0100
0001
1000
0001
0010
0100
1000
,
0010
0000
0100
0000
0010
0000
1000
0000
0100
0000
0010
0001
1000
0001
0100
0010
,
1000
0100
0010
0000
0001
0000
1000
0000
0010
0000
0100
0000
0001
0000
0010
0000
,
0001
0000
0100
0000
0010
0000
1000
0000
0001
0000
0010
0000
0100
1000
0001
1000
,
0010
0000
0000
0000
0100
0001
0010
0001
1000
0000
0000
0000
0001
0100
0010
1000
,
0001
0010
0001
0010
0100
1000
0001
0100
0010
1000
0001
0100
0010
0100
0001
0010
,
0100
0000
1000
0000
0001
0000
0100
0000
0010
0000
0100
0000
0001
0000
0010
0001
,
1000
0000
0100
0000
1000
0000
0010
0000
1000
0000
0001
0000
0100
0000
0001
0010
,
0100
0000
1000
0000
0001
0000
1000
0000
0010
0000
0100
0000
0001
0000
0010
0100
,
1000
0000
0001
0000
1000
0000
0010
0000
0100
0000
0001
0000
1000
0000
0100
0010
,
0001
0100
0001
0010
0100
1000
0010
1000
,
0001
0000
0200
0000
0302
0000
0013
0100
1000
0000
0010
0000
0100
0000
0010
1000
,
0001
0010
0100
1000
0001
0100
0010
1000
,
0100
0010
0100
1000
0010
0100
0001
0010
,
0110
0100
1100
1000
0001
0100
0101
0001
,
1000
0010
1010
1000
0001
0010
0110
0100
,
1000
0001
1001
1000
0010
0100
0101
0001
,
0010
0000
0100
0000
1100
0000
1000
0000
0001
0000
1000
0000
1010
0000
0010
0100
,
0001
1000
0100
0010
0100
1000
0001
0100
,
0001
0000
0010
0000
0001
0000
0100
0010
1000
0000
0001
0000
0010
0000
0001
1000
,
0010
0100
0010
1000
0100
0010
0001
1000
,
0010
0000
0100
0000
0001
0000
0010
0000
0100
0000
1000
0000
0001
0100
0010
1000
,
0002
0000
0000
0000
0000
0000
1003
0100
0020
0000
0000
0000
0000
0000
0000
0000
,
0000
0230
2300
3002
,
0203
0000
0000
0320
0000
0000
2030
0000
,
3002
0000
0000
0000
0013
0100
2000
0000
0000
0000
0000
0000
0000
0000
3001
0010
,
0100
1000
0020
0000
0000
0000
0000
0000
0000
0000
0000
0000
0000
0000
0000
0000
,
0030
0200
0302
0023
,
0032
0000
0000
0000
0000
0000
0103
0010
2000
0000
0000
0000
0000
0000
3100
0010
,
0002
0000
0000
0000
0000
0000
0000
0000
0000
0000
0000
0003
1000
0000
0001
0000
0200
0000
0000
0000
0000
0000
0000
0000
0310
0000
1000
0000
0001
0000
1000
0000
,
0100
0000
0010
0000
0100
0000
1000
0001
0100
0000
0010
0000
1000
0000
0010
0000
,
0100
0001
0010
0100
1000
0001
0100
0001
,
0010
0100
0010
0100
1000
0100
0010
0001
,
1000
0000
0001
0000
1000
0000
0010
0100
0001
0000
0100
0000
0001
0000
0010
0100
,
1000
0010
0100
0000
0001
0000
0100
0000
0010
0000
1000
0000
0100
0000
1000
0000
,
0001
0010
0100
1000
0001
1000
0010
0100
,
0001
0000
0010
0000
0100
0000
1000
0001
0100
0000
0010
0000
1000
0000
0001
1000
,
0100
1000
0010
1000
0001
0010
0100
0010
0001
0100
0001
1000
0001
0010
0100
1000
,
0001
0000
0100
0000
0001
0000
0010
0000
0100
0000
0010
0000
0001
0000
0100
0001
,
1000
0000
0010
0000
1000
0000
0100
0000
1000
0000
0001
0000
0010
0000
0001
0100
,
0010
0000
1000
0000
0001
0000
1000
0000
0100
0000
0010
0000
0001
0000
0100
0010
,
1000
0000
0001
0000
1000
0000
0100
0000
0010
0000
0001
0000
1000
0000
0010
0100
,
0001
0010
0001
0100
0010
1000
0100
1000
,
0001
0000
0020
0000
0032
0000
0103
0010
1000
0000
0100
0000
0010
0000
0100
1000
,
0001
0100
0010
1000
0001
0010
0100
1000
,
0010
0000
0100
0000
0010
0000
1000
0000
0100
0000
0000
0010
0001
0000
1000
0000
,
1001
0000
0001
0000
0010
0001
0010
0000
0100
0000
1000
0000
0001
0100
0001
0000
,
1000
0000
0010
0000
1000
0001
1000
0000
0010
0000
0100
0000
0001
0100
0001
0000
,
0010
0000
0100
0000
1000
0010
1000
0000
0001
0000
0010
0000
0100
0010
0100
0000
,
1000
0000
0001
0000
1000
0010
1000
0000
0001
0000
0010
0000
0001
0100
0001
0000
,
1000
0000
0100
0000
0010
0001
0010
0000
0100
0000
1000
0000
0001
0100
0001
0000
,
1000
0000
0010
0000
1000
0001
1000
0000
0100
0000
0010
0000
0001
0100
0001
0000
,
0010
0000
0100
0000
1000
0010
1000
0000
0001
0000
0010
0000
0100
0010
0100
0000
,
0010
0001
1000
0010
1000
0100
1000
0001
0100
0010
1000
0001
0100
0001
0010
0100
,
2000
0000
0000
0000
0000
0000
0000
0000
0001
0000
0000
0000
0000
0000
0000
3000
2000
0000
0000
0000
0000
0000
0000
0000
3100
0000
0000
0000
0010
0000
0000
0000
0002
0000
0000
0000
0000
0000
0000
0000
1000
0000
0000
0000
0000
0000
0000
0003
0002
0000
0000
0000
0000
0000
0000
0000
0100
0000
0000
0000
0000
0000
0000
0003
,
0002
0010
0203
0310
0002
0103
0020
1030
,
0200
0000
0000
0000
0000
0000
0000
0000
0010
0000
0000
0000
0000
0000
0000
0300
0200
0000
0000
0000
0000
0000
0000
0000
2300
0000
0000
0000
0000
0000
0000
0000
0010
0000
0000
0000
0000
0000
0000
3000
2000
0000
0000
0000
0000
0000
0000
0000
3002
0000
0000
0000
0000
0000
0000
0000
0013
0000
0000
0000
0000
0000
0000
0000
,
0200
0000
0000
0000
0000
0000
0000
0000
0010
0000
0000
0000
0000
0000
0000
0300
0200
0000
0000
0000
0000
0000
0000
0000
0310
0000
0000
0000
0001
0000
0000
0000
2000
0000
0000
0000
0000
0000
0000
0000
0010
0000
0000
0000
0000
0000
0000
3000
2000
0000
0000
0000
0000
0000
0000
0000
3001
0000
0000
0000
0100
0000
0000
0000
,
0001
0000
0000
0000
1000
0000
0000
0000
0020
0000
0000
0000
0000
0000
0000
0000
0100
0000
0000
0000
0000
0000
0000
0030
0020
0000
0000
0000
0000
0000
0000
0000
1000
0000
0000
0000
0000
0000
0000
0030
0020
0000
0000
0000
0000
0000
0000
0000
0100
0000
0000
0000
0000
0000
0000
0030
0020
0000
0000
0000
0000
0000
0000
0000
,
1030
0001
0020
0031
2000
3001
0200
0310
,
2000
0000
0000
0000
0000
0000
0000
0000
0001
0000
0000
0000
0000
0000
0000
3000
2000
0000
0000
0000
0000
0000
0000
0000
3100
0000
0000
0000
0010
0000
0000
0000
0002
0000
0000
0000
0000
0000
0000
0000
1000
0000
0000
0000
0000
0000
0000
0003
0002
0000
0000
0000
0000
0000
0000
0000
1003
0000
0000
0000
0010
0000
0000
0000
,
0100
0001
1000
0100
0010
0100
1000
0001
1000
0010
0100
0001
1000
0001
1000
0100
,
0010
0000
0001
0000
0010
0000
0100
1000
0001
0000
0100
0000
0010
0000
0100
0000
,
0001
0010
0200
1300
0002
0103
0020
1030
,
0002
0013
0001
0020
0130
0010
0200
1300
,
0020
0000
0130
0000
0001
0000
1000
0100
0010
0000
0001
0000
2000
0000
3010
0100
,
0001
0000
1000
0000
0001
0000
0010
0000
0100
1000
0001
1000
0010
0100
0001
1000
,
0200
0310
0001
2000
3010
0100
0002
1003
,
0200
0000
0310
0000
0001
0000
1000
0010
0100
0000
0010
0000
1000
0000
0010
0100
,
0001
1000
0001
1000
0001
1000
0010
1000
0100
0010
0100
0010
0001
1000
0010
0100
,
0002
0000
0000
0000
,
0000
0000
0000
0000
,
0003
0000
0000
0000
;
