#TITLE:Univiidakko;
#SUBTITLE:;
#ARTIST:Chorale;
#TITLETRANSLIT:;
#SUBTITLETRANSLIT:;
#ARTISTTRANSLIT:;
#CREDIT:;
#BANNER:../Banner.png;
#BACKGROUND:../BG.png;
#LYRICSPATH:;
#CDTITLE:../CDTitleJones.png;
#MUSIC:Unividakko.ogg;
#OFFSET:-0.232;
#SAMPLESTART:47.593;
#SAMPLELENGTH:12.000;
#SELECTABLE:YES;
#BPMS:0.000=140.000;
#STOPS:;
#BGCHANGES:;
// cache tags:
#FIRSTBEAT:6.000;
#LASTBEAT:567.500;
#SONGFILENAME:Songs/Index Fusion - Part 2/Univiidakko - [Jones33]/Unividakko.sm;
#HASMUSIC:1;
#HASBANNER:1;
#MUSICLENGTH:243.972;
// end cache tags

//---------------dance-single - ----------------
#NOTES:
     dance-single:
     :
     Challenge:
     19:
     1.000,1.000,0.012,0.000,1.000,2329.000,3.000,0.000,19.000,0.000:
0000
0000
0000
0000
,
0000
0000
0000
0000
1001
0000
1000
0100
,
0010
0000
0000
0010
0000
0000
0010
0000
0001
0010
0100
1000
0001
0100
0010
0100
,
0001
0010
0001
1000
0100
0010
0100
1000
0001
0100
0010
0100
0001
0010
0001
1000
,
0100
0010
0001
0010
0100
1000
0001
0100
0010
0100
0001
1000
0001
0000
0001
0000
,
0010
0000
0000
0000
0001
0000
0000
0000
0010
0000
0000
0000
0001
0000
0000
0000
0100
0000
0000
0000
1001
0000
0000
0000
1000
0100
0010
0001
0010
0100
1000
0001
,
0010
0001
0100
0010
1000
0001
0010
0100
1000
0001
0010
0001
1000
0100
0010
0001
0010
0100
1000
0001
0010
0001
1000
0100
0010
0001
0010
0100
1000
0001
0100
0010
,
0100
0001
0010
0001
1000
0100
0010
0001
1000
0000
0100
0000
0010
0000
0001
0000
1000
0000
0100
0000
0010
0000
0001
0000
0010
0000
0100
0000
1000
0000
0001
0000
,
0100
0010
0100
0001
0010
0001
1000
0100
0010
0001
0010
0100
1000
0001
0100
0010
,
0100
0001
0010
0001
1000
0001
0001
1000
1000
0000
0000
0000
0000
0000
0000
0000
,
0000
0000
0000
0000
0001
1000
0100
0010
,
0001
0010
0100
1000
0010
1000
0100
0010
,
0000
1001
0100
1000
0010
0100
1000
0001
,
0010
0100
1000
0001
0100
1000
0001
0010
,
1000
0100
0010
0001
0100
1000
0010
0010
,
1000
1000
0001
1000
0010
0001
1000
0100
,
0010
0000
0000
0000
0001
0000
0000
0000
1000
0100
0010
0001
0010
0001
0010
0100
1000
0001
0010
0001
0100
0010
0100
0001
0010
0001
1000
0100
0010
0001
0010
0100
,
1000
0001
0100
0010
0100
0001
0010
0001
1000
0100
0010
0001
0010
0100
1000
0001
0100
0010
1000
0001
0010
0001
1000
0100
0010
0001
0010
0100
1000
0001
0100
0010
,
1000
0010
1000
0010
0100
0001
0010
0100
0010
0000
0000
0000
0000
0000
0000
0000
,
0000
0000
0000
0000
0000
0000
0000
0000
1000
0100
1000
0010
1000
0001
0010
0001
,
0010
0100
1000
0001
0010
0001
0010
0100
0001
0100
0001
0010
0001
1000
0010
0100
,
0001
1000
0010
0100
0001
1000
0100
0010
0001
1000
0100
0010
0001
1000
0001
0010
,
0001
1000
0100
1000
0001
0100
0001
0100
0010
1000
0001
1000
0100
0010
0001
0100
,
0001
0010
0100
1000
0100
1000
0001
0010
0100
1000
0100
1000
0010
1000
0100
1000
,
0010
1000
0001
0010
0100
1000
0001
0010
0100
1000
0010
0100
0001
0100
0001
0010
,
0100
1000
0001
0100
0010
1000
0001
0010
0100
1000
0001
0010
0100
1000
0001
1000
,
0010
0100
0001
0010
0001
1000
0100
1000
0010
0100
0010
0100
0001
0100
0001
0000
,
0000
0000
0100
0000
0001
0000
0010
0000
1000
0001
0010
0100
1000
0100
0010
0001
,
0100
0001
1000
0010
0100
0001
0100
0010
1000
0001
0010
0100
1000
0100
0010
0001
,
0100
0001
0100
0010
1000
0010
0100
0001
1000
0010
0100
0001
0010
0100
1000
0100
,
0010
0001
0100
0001
0010
0100
0001
1000
0010
0100
0001
1000
0010
0100
0001
0010
,
0001
1000
0100
0010
0001
0010
0100
1000
0010
1000
0100
0010
0001
1000
0100
0010
,
0001
0010
0100
1000
0100
1000
0001
0100
0001
0010
0001
0100
0010
1000
0100
0010
,
0100
1000
0010
1000
0010
0100
0010
0100
0001
0010
0100
1000
0010
0100
0001
1000
,
0001
0100
0010
1000
0001
0100
0001
1000
0010
1000
0001
0100
0001
0000
1000
0000
,
0001
0000
0010
0000
1000
0000
0000
0000
0001
0010
0001
1000
0100
0010
0001
1000
,
0010
1000
0001
0010
0100
1000
0010
0100
0001
0010
0100
1000
0001
1000
0100
0010
,
0001
0010
0100
1000
0100
0010
0001
0100
1000
0010
0100
0001
0010
0100
1000
0001
,
0010
0100
1000
0001
1000
0001
0010
0100
1000
0001
0010
0100
0001
0010
0100
0010
,
0001
0100
0001
0100
0001
0010
0001
0100
0010
1000
0100
0010
0001
0100
0001
1000
,
0010
0100
0001
0010
0100
1000
0001
0100
0001
0010
1000
0100
1000
0001
1000
0100
,
0010
0001
0010
0100
1000
0100
0010
0001
0010
0100
1000
0010
1000
0001
0100
0010
,
1000
0100
0010
0001
0010
0100
1000
0001
0010
0001
1000
0100
0010
0001
0010
0100
1000
0001
0010
0001
1000
0100
0010
0001
0010
0100
1000
0001
0100
0010
1000
0100
,
0001
1000
0100
0010
0001
1000
0100
0010
0001
0000
0100
0000
0001
0010
0100
1000
,
0100
1000
0010
1000
0001
0100
0001
0010
0001
1000
0100
1000
0010
1000
0001
0010
,
0001
1000
0010
1000
0100
0010
0001
1000
0001
1000
0001
0010
0100
1000
0100
0010
,
0001
0100
0010
1000
0100
0010
0001
0010
0100
1000
0010
1000
0100
0010
0001
0010
,
0100
1000
0100
0010
0001
0100
0010
0100
0001
0010
0100
0010
0100
1000
0100
0010
,
0001
0010
0100
0010
0001
0010
0100
1000
0001
0010
0001
0100
0001
0010
0100
1000
,
0100
0000
1000
0000
0010
0000
0100
0000
0001
0000
1000
0000
0010
0000
0100
0000
0010
1000
0100
0010
0001
0010
0100
1000
0001
0010
0100
1000
0010
0100
0001
1000
,
0100
0010
0001
0010
0100
1000
0001
0010
0001
0100
0010
1000
0100
0010
0001
0010
0100
1000
0001
0100
0010
1000
0001
0010
0100
0000
1000
0000
0001
0000
1000
0000
,
0100
0010
0001
0010
0100
1000
0010
1000
0001
0010
0100
1000
0001
0010
0100
1000
,
0100
1000
0010
0100
0001
1000
0010
0100
0001
1000
0010
1000
0010
0100
0001
1000
,
0010
0100
0001
1000
0010
1000
0100
0010
0001
1000
0100
0010
0001
1000
0001
0100
,
0001
0010
0100
0010
0100
1000
0100
1000
0010
0100
0001
1000
0010
1000
0100
0010
,
0001
0010
1000
0100
0010
0001
1000
0010
1000
0001
0100
0001
0010
0100
1000
0100
,
1000
0100
0010
0001
0010
0100
1000
0100
0010
0001
0010
0100
1000
0010
0100
0001
,
0010
0001
1000
0100
1000
0100
0010
0100
0010
0001
0100
0001
0100
0010
1000
0100
,
1000
0010
0100
0001
0010
0100
1000
0100
0010
0001
0010
0100
1000
0010
0100
0001
,
1000
0010
0100
0001
0010
0100
1000
0001
0010
0001
0100
0001
0100
0010
0100
0010
,
1000
0100
0010
0001
0100
0010
1000
0010
0100
0001
0100
0010
1000
0001
0100
0010
,
1000
0010
0100
0010
1000
0010
0100
0001
1000
0100
1000
0010
0100
0001
0100
0010
,
1000
0001
1000
0010
1000
0010
0100
0001
0100
0001
1000
0010
1000
0001
0010
0100
,
1000
0100
1000
0010
0100
0001
0010
1000
0100
0010
0100
1000
0001
1000
0010
0100
,
0001
1000
0010
0100
0001
0100
0001
0010
0100
0010
0100
1000
0001
0010
0100
1000
,
0001
0000
0100
0000
0001
0000
1000
0000
0100
0000
0010
0000
0001
0000
0100
0000
0010
1000
0100
0010
0001
0010
0100
1000
0001
0010
0001
1000
0100
0010
0001
0100
,
0010
1000
0001
0010
0100
1000
0001
0010
0001
1000
0100
0010
0001
0010
0100
1000
0001
0100
0010
0100
0001
0010
0001
1000
0100
0010
0001
0010
0100
1000
0001
0100
,
0010
1000
0001
0100
0010
0100
0010
1000
0100
0000
0000
0000
0000
0000
0000
0000
,
0000
0000
0000
0000
0000
0000
0000
0000
1000
0001
0100
0001
1000
0010
0100
0001
,
0100
0001
1000
0001
0010
0100
1000
0010
0100
0001
1000
0100
1000
0010
1000
0010
,
1000
0001
1000
0010
1000
0001
1000
0010
1000
0001
0100
0001
1000
0100
1000
0010
,
0100
0010
1000
0010
0100
0001
0010
0100
0010
0001
0010
0001
1000
0100
1000
0001
,
1000
0010
1000
0001
1000
0100
1000
0010
0100
0001
0010
0100
1000
0001
0100
0010
,
1000
0010
1000
0100
0010
1000
0100
1000
0010
0100
0001
0100
0010
1000
0100
0010
,
0100
0010
0001
1000
0100
0010
0001
1000
0010
0100
0001
0100
0001
0100
0010
1000
,
0100
1000
0010
0100
0001
0100
0001
0010
0001
0010
0001
0100
0001
0010
0001
1000
,
0100
0010
0100
1000
0001
0100
0001
0010
0001
1000
0010
1000
0001
0100
0010
1000
,
0001
0010
0001
1000
0100
0010
0001
1000
0100
0010
0001
0100
0001
1000
0010
1000
,
0100
0010
0100
1000
0001
0100
0010
1000
0001
0100
0010
1000
0010
1000
0100
0010
,
0100
0010
0001
1000
0100
1000
0010
1000
0001
0100
0001
0010
0001
0010
0100
1000
,
0001
0100
0010
1000
0010
0100
0001
0010
0100
1000
0010
0100
0001
0100
0001
1000
,
0010
0100
0001
1000
0100
0010
0100
1000
0100
0010
0001
1000
0100
0010
0001
0100
,
0010
1000
0100
0010
0001
0010
0100
1000
0100
1000
0010
1000
0100
0010
0100
0010
,
0001
1000
0010
1000
0100
0010
0001
0010
0100
1000
0001
0100
0001
0000
1000
0000
,
0001
0000
0100
0000
0001
0010
0100
1000
0010
1000
0100
0010
0100
1000
0100
0010
,
0001
0100
0010
1000
0001
0100
0001
0010
0100
1000
0100
0010
0001
0010
0100
1000
,
0001
0100
0010
1000
0100
0010
0001
0010
0100
1000
0010
1000
0001
0100
0001
0010
,
0100
1000
0100
0010
0100
0010
0001
1000
0100
0010
0001
1000
0001
0010
0100
1000
,
0100
1000
0001
0100
0010
1000
0001
0010
0100
1000
0001
0010
0001
0010
0100
1000
,
0010
0100
0001
1000
0100
0010
0001
0100
0010
1000
0001
0100
0010
1000
0001
0100
,
0001
0000
0010
0000
0001
0000
0100
0000
0001
0000
0100
0000
0001
0000
1000
0000
0010
0000
0100
0000
0001
0000
0010
0000
0100
1000
0001
0100
0010
0100
0010
1000
,
0100
0010
0001
0010
0100
1000
0001
0010
0001
1000
0100
0010
0001
0010
0100
1000
0001
0100
0010
0100
0001
0010
0001
1000
0100
0010
0001
0010
0100
1000
0001
0010
,
0100
0001
1000
0100
0010
0001
0010
0001
1000
0000
0000
0000
0001
0100
0001
1000
,
0100
0010
0001
1000
0001
0100
0010
1000
0001
0010
0001
1000
0100
1000
0001
1000
,
0001
1000
0100
0010
0001
0100
0001
1000
0010
1000
0001
0100
0001
1000
0010
1000
,
0001
0100
0010
1000
0001
0010
0001
1000
0100
0010
0100
1000
0001
0010
0001
1000
,
0010
1000
0001
0100
0001
0100
0010
1000
0001
0100
0001
0010
0001
1000
0010
0100
,
0001
0100
0001
1000
0010
0100
0001
0100
0010
1000
0001
0100
0001
0100
0010
1000
,
0010
0000
0100
0000
0001
0000
1000
0000
0001
0000
1000
0000
0010
0000
1000
0000
0010
0100
0001
0010
0001
1000
0100
0010
0001
0010
0100
1000
0001
0010
0001
0100
,
0010
0100
0001
0010
0001
1000
0100
0010
0001
0010
0100
1000
0001
0100
0010
0100
0001
0010
0001
1000
0100
0010
0001
0010
0100
1000
0001
0100
0010
1000
0001
0000
,
1000
0100
1000
0100
1000
0010
0100
0001
1000
0010
0100
0001
1000
0010
0100
0001
,
1000
0010
0100
0001
0010
0001
0100
0001
0100
0010
1000
0001
0100
0010
1000
0001
,
0100
0001
1000
0010
0100
0001
1000
0010
1000
0010
0100
0001
0010
0001
0010
0100
,
1000
0100
0010
0001
0010
0001
0100
0001
0100
0010
1000
0100
0010
0001
1000
0100
,
0010
0100
0010
0001
1000
0010
0100
0001
0100
0001
0010
0100
1000
0100
0010
0001
,
1000
0100
0010
0100
0010
0100
1000
0001
0010
0100
1000
0010
1000
0100
0010
0001
,
1000
0000
0010
0000
0100
0000
0001
0000
1000
0000
0100
0000
0010
0000
0001
0000
1000
0100
0010
0100
1000
0001
0100
0001
0100
0010
1000
0001
0010
0100
1000
0001
,
0100
0010
1000
0100
0010
0001
0010
0100
1000
0001
0100
0010
0100
0001
0010
0001
0100
0010
1000
0001
0010
0100
1000
0001
0100
0010
1000
0100
0010
0001
1000
0010
,
1000
0100
0010
0100
0010
0100
0010
0100
1000
0001
0010
0001
1000
0100
0010
0001
,
1000
0010
0100
0001
0010
0001
0100
0001
1000
0001
0010
0100
1000
0100
0010
0001
,
0100
0010
1000
0001
0100
0001
0010
0100
1000
0100
1000
0001
0010
0001
0100
0001
,
0010
0100
1000
0001
1000
0010
1000
0001
0100
0001
0100
0001
0010
0001
1000
0100
,
1000
0010
1000
0001
0100
0001
0100
0010
1000
0010
1000
0100
1000
0001
0100
1000
,
0010
1000
0100
0010
0100
1000
0001
0100
0001
0100
0010
1000
0001
0100
0001
0010
,
0100
0000
1000
0000
0010
0000
1000
0000
0001
0000
0100
0000
0010
0000
1000
0000
0100
0001
1000
0100
0010
0001
0010
0100
1000
0001
0010
0100
0001
0100
0010
1000
,
0001
0100
0001
0010
0001
1000
0100
0010
0001
1000
0100
0010
0001
0100
0001
0010
0100
1000
0010
1000
0100
0010
0001
0100
0010
1000
0100
0010
0001
0100
0010
0100
,
0001
0100
0001
1000
0010
1000
0100
1000
0100
0010
0001
1000
0100
0010
0001
1000
,
0010
0100
0001
0100
0010
1000
0001
0100
0001
0100
0010
1000
0001
0100
0010
1000
,
0001
0100
0001
0100
0010
0100
0001
0100
0001
0010
0001
0100
0001
0100
0010
1000
,
0001
0100
0010
1000
0001
0100
0010
1000
0001
0010
0100
1000
0100
1000
0100
1000
,
0100
1000
0010
0100
0001
0100
0010
1000
0100
0010
0100
0010
0100
1000
0001
1000
,
0010
1000
0100
0010
1000
0001
0100
0001
0010
0001
0010
0100
1000
0100
1000
0001
,
0010
0000
0100
0000
0010
0000
0100
0000
0010
0000
0001
0000
1000
0000
0001
0000
0010
0100
0001
1000
0010
0100
0001
1000
0010
1000
0010
0100
0001
0010
0001
0100
,
0001
0010
0100
1000
0010
1000
0100
0010
0001
0100
0010
1000
0100
0010
0001
1000
0010
1000
0001
0100
0010
1000
0001
0010
0100
1000
0100
0010
0100
1000
0100
0010
,
0001
0010
0001
1000
0100
0010
0001
1000
0100
0010
0001
1000
0001
0100
0010
1000
,
0001
0100
1000
0010
0001
1000
0100
0010
0001
1000
0100
0010
0001
1000
0010
0100
,
0001
1000
0001
0100
0001
1000
0010
1000
0001
0100
0001
0010
0100
1000
0001
0010
,
0100
1000
0100
0010
0001
0010
0100
1000
0100
1000
0001
0010
0100
1000
0001
0010
,
0100
1000
0100
0010
0001
1000
0100
0010
0001
1000
0010
0100
0001
0100
0010
1000
,
0001
0100
0010
1000
0001
0010
0100
1000
0100
0010
0001
1000
0100
0010
0100
0010
,
0001
0010
0100
1000
0100
0010
0001
0010
0100
1000
0010
1000
0001
0100
0010
1000
,
0001
0100
0001
0100
0001
1000
0010
1000
0001
0100
0001
0100
0001
1000
0010
0100
,
0001
0100
0010
1000
0001
0100
0010
1000
0001
1000
0100
1000
0010
1000
0010
1000
,
0001
0100
0001
1000
0010
0100
0010
0100
0010
0100
0010
1000
0001
0100
0010
1000
,
0001
0100
0001
1000
0010
1000
0001
0100
0010
1000
0001
0100
0001
0010
0001
1000
,
0100
0010
0001
1000
0100
0010
0001
1000
0100
1000
0100
0010
0001
1000
0100
1000
,
0100
1000
0001
1000
0010
1000
0001
0100
0010
1000
0001
0100
0001
1000
0001
0100
,
0010
1000
0100
0010
0100
1000
0001
0010
0100
1000
0001
0010
0001
1000
0100
0010
,
0001
1000
0100
0010
0001
1000
0010
0100
0001
0010
0001
1000
0010
0100
0001
0100
,
0010
0000
1000
0000
0001
0000
0100
0000
0010
0000
0001
0000
1000
0000
0010
0000
1000
0100
0010
0001
0010
0100
1000
0010
0100
0001
0010
0100
1000
0010
0100
0001
,
0100
0010
1000
0000
0010
0000
0100
0000
0001
0000
0010
0000
0001
0000
0001
0000
1000
0000
0000
0000
0000
0000
0000
0000
000M
0000
0M00
0000
000M
0000
M000
0000
,
00M0
0000
0M00
0000
M000
0000
000M
0000
0M00
00M0
0000
0000
000M
0000
000M
0000
M000
0000
0M00
0000
00M0
0000
000M
0000
M000
0000
000M
0000
0M00
0000
0000
0000
;
