#TITLE:The Devil Plays Dance Games;
#SUBTITLE:;
#ARTIST:dbk2;
#TITLETRANSLIT:;
#SUBTITLETRANSLIT:;
#ARTISTTRANSLIT:;
#CREDIT:Mad Matt;
#BANNER:../banner.png;
#BACKGROUND:../bg.png;
#LYRICSPATH:;
#CDTITLE:;
#MUSIC:The Devil Plays Dance Games.ogg;
#OFFSET:0.005;
#SAMPLESTART:16.015;
#SAMPLELENGTH:24.000;
#SELECTABLE:YES;
#DISPLAYBPM:240.000;
#BPMS:0.000=240.000;
#STOPS:;
#BGCHANGES:;
// cache tags:
#FIRSTBEAT:16.000;
#LASTBEAT:268.000;
#SONGFILENAME:Songs/Tachyon Epsilon Short Cuts/The Devil Plays Dance Games - [Mad Matt]/The Devil Plays Dance Games.sm;
#HASMUSIC:1;
#HASBANNER:1;
#MUSICLENGTH:67.991;
// end cache tags

//---------------dance-single - Mad Matt----------------
#NOTES:
     dance-single:
     Mad Matt:
     Hard:
     17:
     1.000,1.000,0.074,0.294,1.000,727.000,5.000,20.000,0.000,0.000:









0000
0000
0000
0000
,
0000
0000
0000
0000
,
0000
0000
0000
0000
,
0000
0000
0000
0000
,
0101
0000
0100
0001
0020
0000
0130
1000
,
0020
0000
0130
0001
2000
0000
3010
0100
,
0002
0000
1003
0100
0020
0000
0130
1000
,
0001
0100
0001
0100
0001
0000
1000
0000
0100
0000
0010
0000
0001
0000
0100
0000
,
0020
0000
1030
0100
0020
0000
0031
1000
,
0200
0000
1300
0001
0020
0000
0130
1000
,
0200
0000
0310
0001
0200
0000
0301
1000
,
0020
0000
2030
0000
3020
0000
0230
0300
,
0101
0000
0001
1000
0020
0000
0130
0001
,
0020
0000
0130
1000
0020
0000
0130
0001
,
2000
0000
0000
0000
3100
0000
0010
0000
0002
0000
0000
0000
0013
0001
1000
0001
,
0100
0110
1010
1001
,
0001
0010
0100
1000
0001
0100
0010
1000
0001
0010
0100
1000
0001
1000
0100
1000
,
0001
0100
0001
1000
0010
0100
0001
1000
0100
1000
0001
0010
0100
0010
0001
1000
,
0001
0100
0010
1000
0001
1000
0100
1000
0001
0100
0010
1000
0001
1000
0010
0100
,
0001
1000
0100
1000
0001
0100
0010
1000
0001
1000
0100
1000
0001
0100
0010
1000
,
0001
0010
0100
1000
0001
0100
0010
1000
0001
0010
0100
1000
0001
0010
0001
1000
,
0010
1000
0001
0100
0010
1000
0001
0010
0001
1000
0100
0010
0100
1000
0001
1000
,
0010
0100
0001
1000
0001
0010
0001
1000
0010
0100
0001
1000
0001
0100
0010
1000
,
0001
0010
0001
1000
0010
0100
0001
1000
0001
0010
0001
1000
0100
0010
0001
1000
,
0001
0100
0010
1000
0001
0010
0100
1000
0001
0100
0010
1000
0001
1000
0010
1000
,
0001
0010
0001
1000
0100
0010
0001
1000
0010
1000
0001
0100
0010
0100
0001
1000
,
0001
0010
0100
1000
0001
1000
0010
1000
0001
0010
0100
1000
0001
1000
0100
0010
,
0001
1000
0010
1000
0001
0010
0100
1000
0001
1000
0010
1000
0001
0010
0100
1000
,
0001
0100
0010
1000
0001
0010
0100
1000
0001
0100
0010
1000
0001
0100
0001
1000
,
0100
1000
0001
0010
0100
1000
0001
0100
0001
1000
0010
0100
0010
1000
0001
1000
,
0100
0010
0001
1000
0001
0100
0001
1000
0100
0010
0001
1000
0001
0010
0100
1000
,
0001
0100
0001
1000
0100
0010
0001
1000
0001
0100
0001
1000
0100
0010
0001
1000
,
0040
0000
0000
0000
,
0430
0000
0000
0000
,
0000
0000
0300
0001
0000
0000
0001
0000
0000
0001
0000
0000
,
1000
0010
1000
0100
1000
0001
1000
0010
,
0100
0001
0100
0010
1000
0001
1000
0100
,
0010
0001
0100
0001
1000
0001
0010
0001
,
1000
0010
0100
0010
1000
0001
0010
0001
,
1000
0100
1000
0010
1000
0001
1000
0010
,
0100
0001
1000
0001
0010
0001
0100
0001
,
1000
0100
0010
0001
0100
0001
1000
0100
,
0010
0100
1000
0010
0100
0001
1000
0001
,
0100
0010
1000
0100
1000
0001
1000
0010
,
0100
0000
0000
0001
0000
0000
0100
0000
0000
0010
0000
0000
1000
0000
0000
0001
0000
0000
1000
0000
0100
0000
0010
0000
,
0001
1000
0010
1000
0001
1000
0100
1000
,
0001
0100
0010
0100
0001
1000
0100
1000
,
0001
0010
0001
0100
0001
1000
0001
0100
,
0010
1000
0001
1000
0100
1000
0010
1000
,
0001
0100
0010
1000
0100
0010
0001
0010
0100
1000
0010
0100
,
0001
1000
0100
0010
0001
0010
0100
1000
0100
0010
0001
1000
,
0001
0100
0010
1000
0001
1000
0100
1000
0001
0010
0100
0010
0001
1000
0001
0100
,
0001
1000
0010
0100
0010
1000
0001
1000
0100
1000
0001
1000
0010
0100
0001
1000
,
0001
0010
0100
0010
0001
1000
0100
0010
0001
1000
0001
0100
0001
1000
0010
0100
,
0001
1000
0100
1000
0001
1000
0010
0100
0001
1000
0010
0100
0010
1000
0001
1000
,
0100
0010
0001
1000
0100
0010
0100
1000
0001
0010
0100
1000
0001
1000
0010
0100
,
0001
1000
0100
1000
0001
1000
0010
0100
0001
1000
0010
0100
0010
1000
0001
1000
,
0100
0010
0100
1000
0001
0010
0100
1000
0001
1000
0010
1000
0001
0100
0010
1000
,
0001
1000
0100
1000
0001
0010
0001
1000
0001
0100
0010
1000
0001
1000
0010
1000
,
0001
0010
0100
1000
0001
1000
0010
1000
0001
0100
0010
0100
0001
1000
0001
0010
,
0001
1000
0100
0010
0100
1000
0001
1000
0010
1000
0001
1000
0100
0010
0001
1000
,
0001
0100
0010
0100
0001
1000
0010
0100
0001
1000
0001
0010
0001
1000
0100
0010
,
0001
1000
0010
1000
0001
1000
0100
0010
0001
1000
0100
0010
0100
1000
0001
1000
,
0010
0100
0001
1000
0010
0100
0010
1000
0001
0100
0010
1000
0001
1000
0100
0010
,
0001
1000
0010
1000
0001
1000
0100
0010
0001
1000
0100
0010
0100
1000
0001
1000
,
0010
0100
0010
1000
0001
1000
0100
0010
0100
1000
0010
1000
0001
0010
0100
0010
,
0001
0100
0001
1000
0100
1000
0010
0100
0010
1000
0001
1000
0100
0010
0100
1000
,
0001
0000
0000
0000
;

//---------------dance-single - Mad Matt----------------
#NOTES:
     dance-single:
     Mad Matt:
     Challenge:
     18:
     1.000,1.000,0.074,0.294,1.000,727.000,5.000,20.000,0.000,0.000:



0000
0000
0000
0000
,
0000
0000
0000
0000
,
0000
0000
0000
0000
,
0000
0000
0000
0000
,
0101
0000
0100
0001
0020
0000
0130
1000
,
0020
0000
0130
0001
2000
0000
3010
0100
,
0002
0000
1003
0100
0020
0000
0130
1000
,
0001
0100
0001
0100
0001
0000
1000
0000
0100
0000
0010
0000
0001
0000
0100
0000
,
0020
0000
1030
0100
0020
0000
0031
1000
,
0200
0000
1300
0001
0020
0000
0130
1000
,
0200
0000
0310
0001
0200
0000
0301
1000
,
0020
0000
2030
0000
3020
0000
0230
0300
,
0101
0000
0001
1000
0020
0000
0130
0001
,
0020
0000
0130
1000
0020
0000
0130
0001
,
2000
0000
0000
0000
3100
0000
0010
0000
0002
0000
0000
0000
0013
0001
1000
0001
,
0100
0110
1010
1001
,
0001
0010
0100
1000
0010
0100
0001
0010
0100
1000
0001
1000
0010
0100
0010
1000
,
0001
1000
0100
0010
0100
1000
0001
1000
0010
0100
0010
1000
0001
1000
0100
0010
,
0001
1000
0001
0100
0010
1000
0001
1000
0100
0010
0001
1000
0001
0100
0010
1000
,
0001
1000
0100
0010
0100
1000
0001
1000
0010
0100
0001
1000
0001
0010
0100
1000
,
0010
0100
0001
0010
0100
1000
0010
0100
0001
0010
0100
1000
0001
1000
0010
0100
,
0010
1000
0001
1000
0100
0010
0100
1000
0001
1000
0010
0100
0010
1000
0001
1000
,
0100
0010
0001
1000
0001
0100
0010
0100
0001
1000
0001
0010
0100
0010
0001
1000
,
0001
0100
0010
1000
0001
1000
0100
0010
0100
1000
0001
1000
0010
0100
0001
1000
,
0001
0010
0100
1000
0010
0100
0001
0010
0100
1000
0001
1000
0010
0100
0001
1000
,
0100
1000
0010
0100
0001
1000
0001
0010
0001
0100
0010
1000
0100
0010
0100
1000
,
0001
0100
0010
0100
0001
1000
0001
0010
0100
1000
0100
0010
0001
1000
0001
0100
,
0010
1000
0010
0100
0001
1000
0100
1000
0010
0100
0010
1000
0001
0010
0001
1000
,
0010
0100
0001
0010
0100
1000
0010
0100
0001
0010
0100
1000
0001
0010
0001
0100
,
0001
1000
0100
1000
0010
0100
0010
1000
0001
0100
0001
0010
0001
1000
0010
1000
,
0100
0010
0100
1000
0001
0100
0010
0100
0001
1000
0001
0010
0100
0010
0001
1000
,
0001
0100
0001
0010
0100
1000
0010
1000
0001
0010
0100
1000
0010
0100
0001
1000
,
0040
0000
0000
0000
,
0430
0000
0000
0000
,
0000
0000
0300
0001
0000
0000
0001
0000
0000
0001
0000
0000
,
1000
0010
1000
0100
1000
0001
1000
0010
,
0100
0001
0100
0010
1000
0001
1000
0100
,
0010
0001
0100
0001
1000
0001
0010
0001
,
1000
0010
0100
0010
1000
0001
0010
0001
,
1000
0100
1000
0010
1000
0001
1000
0010
,
0100
0001
1000
0001
0010
0001
0100
0001
,
1000
0100
0010
0001
0100
0001
1000
0100
,
0010
0100
1000
0010
0100
0001
1000
0001
,
0100
0010
1000
0100
1000
0001
1000
0010
,
0100
0000
0000
0001
0000
0000
0100
0000
0000
0010
0000
0000
1000
0000
0000
0001
0000
0000
1000
0000
0100
0000
0010
0000
,
0001
1000
0010
1000
0001
1000
0100
1000
,
0001
0100
0010
0100
0001
1000
0100
1000
,
0001
0010
0001
0100
0001
1000
0001
0100
,
0010
1000
0001
1000
0100
1000
0010
1000
,
0001
0100
0010
1000
0100
0010
0001
0010
0100
1000
0010
0100
,
0001
1000
0100
0010
0001
0010
0100
1000
0100
0010
0001
1000
,
0001
0010
0001
0100
0001
1000
0100
1000
0001
0010
0001
0100
0001
1000
0100
1000
,
0001
0010
0001
0100
0001
1000
0100
1000
0001
0010
0001
0100
0001
1000
0100
1000
,
0001
0100
0001
1000
0010
1000
0100
1000
0001
0100
0001
1000
0010
1000
0100
1000
,
0001
0100
0001
1000
0010
1000
0100
1000
0001
0100
0001
1000
0010
1000
0100
1000
,
0001
0010
0001
1000
0100
1000
0010
1000
0001
0010
0001
1000
0100
1000
0010
1000
,
0001
0010
0001
1000
0100
1000
0010
1000
0001
0010
0001
1000
0100
1000
0010
1000
,
0001
0100
0001
0010
0001
1000
0010
1000
0001
0100
0001
0010
0001
1000
0010
1000
,
0001
0100
0001
0010
0001
1000
0010
1000
0001
0100
0001
0010
0001
1000
0010
1000
,
0001
0010
0001
0100
0001
1000
0100
0010
0100
1000
0001
0100
0001
0010
0001
1000
,
0010
0100
0010
1000
0001
0010
0001
0100
0001
1000
0100
0010
0100
1000
0001
0010
,
0001
1000
0010
1000
0100
1000
0001
0100
0010
0100
0001
1000
0100
1000
0010
1000
,
0001
0010
0100
0010
0001
1000
0010
1000
0100
1000
0001
0100
0010
0100
0001
1000
,
0001
0010
0100
0010
0001
0100
0001
1000
0010
0100
0010
1000
0100
1000
0001
0010
,
0100
0010
0001
0100
0001
1000
0010
0100
0010
1000
0100
1000
0001
0010
0100
0010
,
0001
1000
0010
0100
0010
1000
0100
1000
0001
0010
0001
0100
0010
0100
0001
1000
,
0100
1000
0010
0100
0001
1000
0100
0010
0100
1000
0010
0100
0001
1000
0100
1000
,
0001
0000
0000
0000
;

//---------------dance-single - dbk2----------------
#NOTES:
     dance-single:
     dbk2:
     Beginner:
     13:
     1.000,1.000,0.074,1.000,1.000,598.000,5.000,69.000,0.000,0.000:





0000
0000
0000
0000
,
0000
0000
0000
0000
,
0000
0000
0000
0000
,
0000
0000
0000
0000
,
1100
0000
0100
1000
0020
0000
0130
0001
,
0020
0000
0130
1000
0002
0000
0013
0100
,
2000
0000
3010
0100
0002
0000
0103
0001
,
0100
0001
0100
0000
0001
0000
1000
0000
0100
1000
0100
0000
1000
0000
0100
0000
,
2000
0000
3001
0010
0200
0000
1300
0010
,
0200
0000
0310
1000
0200
0000
0310
0001
,
2000
0000
3001
0010
0002
0000
1003
0100
,
2000
0000
3002
0000
0023
0000
0230
0300
,
1100
0000
0100
1000
0020
0000
0130
0001
,
2000
0000
3001
0100
0020
0000
1030
0100
,
0020
0000
0000
0000
0000
0000
0031
0000
0000
0100
0000
0000
0020
0000
0000
0000
0000
0000
1030
0000
0100
0000
0010
0000
,
0001
0011
0110
1100
,
1000
0000
0000
0100
0000
0000
1000
0000
0000
0000
0000
0000
0001
0000
0000
0100
0000
0000
0001
0000
0000
0000
0000
0000
1000
0000
0000
0100
0000
0000
1000
0000
0000
0000
0000
0000
0001
0000
0000
0000
0010
0000
0000
0000
0100
0000
0000
0000
,
1000
0001
0100
0010
0100
0001
1000
0100
0010
0100
1000
0010
,
0100
0010
1000
0001
0100
0010
0100
0001
0010
0100
0010
0001
,
1000
0010
0100
0010
1000
0100
0010
0001
1000
0010
0100
0001
,
1000
0000
0000
0100
0000
0000
1000
0000
0000
0000
0000
0000
0001
0000
0000
0100
0000
0000
0001
0000
0000
0000
0000
0000
1000
0000
0000
0100
0000
0000
1000
0000
0000
0000
0000
0000
0001
0000
0000
0000
0010
0000
0000
0000
0100
0000
0000
0000
,
1000
0010
0100
0001
0010
0100
1000
0001
0100
0010
1000
0100
,
0010
0001
0100
0010
0100
0001
0010
0001
1000
0100
1000
0001
,
0100
0010
1000
0100
0010
0001
0010
0100
1000
0001
0100
0001
,
1000
0000
0000
0001
0000
0000
1000
0000
0000
0000
0000
0000
0001
0000
0000
0010
0000
0000
0001
0000
0000
0000
0000
0000
1000
0000
0000
0100
0000
0000
1000
0000
0000
0000
0000
0000
0001
0000
0000
0000
0010
0000
0000
0000
0100
0000
0000
0000
,
1000
0010
0100
0001
0010
0100
1000
0100
0010
0001
1000
0100
,
0010
0100
1000
0001
0100
0010
0100
0001
0010
0100
1000
0100
,
1000
0001
0010
0001
1000
0010
1000
0010
0100
0001
0010
0100
,
1000
0000
0000
0010
0000
0000
1000
0000
0000
0000
0000
0000
0001
0000
0000
0100
0000
0000
0001
0000
0000
0000
0000
0000
1000
0000
0000
0010
0000
0000
1000
0000
0000
0000
0000
0000
0001
0000
0000
0000
0010
0000
0000
0000
0100
0000
0000
0000
,
1000
0010
0100
0010
1000
0100
1000
0001
0010
0001
0010
0100
,
1000
0100
0010
0001
0100
0010
0100
0001
0010
0001
1000
0010
,
1000
0100
0010
0001
0010
0100
1000
0001
0100
0001
0010
0100
,
0000
0000
0000
0000
,
0000
0000
0000
0000
,
0000
1000
1000
1000
,
0001
2000
3100
2000
3001
2000
3010
2000
,
3001
2000
3100
2000
3001
2000
3001
0020
,
0031
0200
0310
0200
0301
0200
0310
0200
,
1300
0000
0200
0000
0310
0000
0200
0000
0301
0000
0200
0000
0310
1000
0010
0000
,
1000
0002
0103
0002
1003
0002
0013
0002
,
0103
0002
1003
0002
0013
0002
1003
0200
,
0310
0200
1300
0200
0310
0200
1300
0200
,
1300
0001
1000
0000
0001
0000
1000
0000
0001
1000
0001
0000
1000
0000
0002
0000
,
0103
0002
1003
0002
0103
0002
0013
0002
,
1003
0000
0000
0002
0000
0000
0103
0000
0000
0010
0000
0000
1000
0000
0000
0001
0000
0000
0010
0000
0001
0000
0100
0000
,
0010
0200
0301
0200
0310
0200
1300
0200
,
0310
0200
0301
0200
0310
0200
0310
2000
,
3100
2000
3001
2000
3010
2000
3100
2000
,
3001
2000
3100
2000
3010
2000
3001
2000
,
3001
0100
0010
1000
0100
0010
0001
0010
0100
1000
0010
0100
,
0001
1000
0100
0010
0001
0010
0100
1000
0100
0010
0001
1000
,
0001
0100
0001
0000
1000
0100
1000
0000
0001
0100
0001
0000
1000
0100
1000
0000
,
0001
0100
0001
0000
1000
0100
1000
0000
0001
0100
0001
0000
1000
0100
1000
0000
,
0001
0010
0001
0000
1000
0010
1000
0000
0001
0010
0001
0000
1000
0010
1000
0000
,
0001
0010
0001
0000
1000
0010
1000
0000
0001
0010
0001
0000
1000
0010
1000
0000
,
0001
0010
0100
0000
1000
0100
0010
0000
0001
0010
0100
0000
1000
0100
0010
0000
,
0001
0010
0100
0000
1000
0100
0010
0000
0001
0010
0100
0000
1000
0100
0010
0000
,
0001
1000
0100
0000
1000
0001
0010
0000
0001
1000
0100
0000
1000
0001
0010
0000
,
0001
1000
0010
0000
1000
0001
0100
0000
0001
1000
0010
0000
1000
0001
0100
0000
,
0001
0100
0001
0000
1000
0100
1000
0000
0001
0100
0001
0000
1000
0100
1000
0000
,
0001
0010
0001
0000
1000
0010
1000
0000
0001
0010
0001
0000
1000
0100
1000
0000
,
0001
0010
0100
0000
1000
0010
0100
0000
0001
0100
0010
0000
1000
0100
0010
0000
,
0001
1000
0100
0000
1000
0010
0100
0000
0001
1000
0010
0000
1000
0100
0010
0000
,
0100
1000
0010
0000
0100
0001
1000
0000
0100
1000
0100
0000
1000
0001
1000
0000
,
0001
0010
0100
0000
1000
0001
1000
0000
0010
0100
0001
0000
0010
0100
1000
0000
,
0001
0010
0100
1000
0010
0100
0001
0010
0100
1000
0010
0100
,
0001
0000
0010
0000
0100
0000
1000
0000
0010
0000
0100
0000
0001
0000
0000
1000
0000
0000
0001
0000
0000
0100
0000
0000
;

//---------------dance-single - Mad Matt----------------
#NOTES:
     dance-single:
     Mad Matt:
     Medium:
     16:
     1.000,1.000,0.044,0.324,1.000,671.000,3.000,22.000,0.000,0.000:

0000
0000
0000
0000
,
0000
0000
0000
0000
,
0000
0000
0000
0000
,
0000
0000
0000
0000
,
2000
0000
3001
1000
0200
0000
0310
0001
,
2000
0000
3001
0100
0020
0000
1030
0001
,
0020
0000
0130
1000
0002
0000
0013
0100
,
1000
0001
1000
0001
1000
0000
0100
0000
0010
0000
0100
0000
1000
0000
0010
0000
,
0200
0000
0301
1000
0200
0000
0310
0001
,
2000
0000
3001
0100
0020
0000
0130
0001
,
2000
0000
3001
0010
0002
0000
0013
0100
,
0020
0000
0032
0000
0203
0000
0320
0030
,
0200
0000
0301
1000
0200
0000
0310
0001
,
2000
0000
3001
0100
0020
0000
1030
0001
,
0200
0000
0000
0000
0310
0000
1000
0000
0002
0000
0000
0000
0013
0100
1000
0001
,
1000
1100
0110
0011
,
0001
0010
0100
1000
0001
0010
0100
1000
0001
0010
0100
1000
0001
1000
0010
0100
,
0001
1000
0010
0100
0010
1000
0001
0100
0010
1000
0001
1000
0010
0100
0010
1000
,
0001
1000
0100
0010
0001
1000
0100
0010
0100
1000
0001
0010
0100
0010
0001
1000
,
0001
0100
0010
0100
0001
1000
0010
0100
0001
1000
0010
0100
0001
0100
0010
1000
,
0001
1000
0100
0010
0001
1000
0100
0010
0001
1000
0100
0010
0001
1000
0001
0100
,
0010
1000
0001
0100
0010
1000
0001
0100
0001
1000
0010
0100
0010
1000
0001
1000
,
0100
0010
0001
1000
0100
1000
0001
0010
0100
0010
0001
1000
0100
0010
0100
1000
,
0001
1000
0010
0100
0010
1000
0001
1000
0010
0100
0001
1000
0010
0100
0001
1000
,
0001
0010
0100
1000
0001
0010
0100
1000
0001
0010
0100
1000
0001
1000
0010
0100
,
0001
1000
0010
1000
0001
0100
0001
1000
0010
0100
0010
1000
0001
0100
0001
1000
,
0001
0010
0100
1000
0001
1000
0100
0010
0001
1000
0100
0010
0100
1000
0001
0010
,
0001
1000
0001
0100
0010
1000
0001
0100
0001
1000
0010
0100
0010
1000
0001
1000
,
0100
0010
0001
1000
0100
0010
0001
1000
0100
0010
0001
1000
0001
0100
0010
1000
,
0001
0100
0001
1000
0010
0100
0001
0100
0010
1000
0001
0100
0010
1000
0001
1000
,
0100
0010
0001
1000
0001
0010
0100
1000
0001
0010
0100
0010
0001
1000
0010
0100
,
0001
1000
0001
0010
0100
0010
0001
1000
0001
0100
0010
1000
0010
0100
0001
1000
,
0004
0000
0000
0000
,
0403
0000
0000
0000
,
0000
0000
0300
0001
0000
0000
0001
0000
0000
0001
0000
0000
,
1000
0010
1000
0100
1000
0001
1000
0010
,
0100
0001
0100
0010
1000
0001
1000
0100
,
0010
0001
0100
0001
1000
0001
0010
0001
,
1000
0010
0100
0010
1000
0001
0010
0001
,
1000
0100
1000
0010
1000
0001
1000
0010
,
0100
0001
1000
0001
0010
0001
0100
0001
,
1000
0100
0010
0001
0100
0001
1000
0100
,
0010
0100
1000
0010
0100
0001
1000
0001
,
0100
0010
1000
0100
1000
0001
1000
0010
,
0100
0000
0000
0001
0000
0000
0100
0000
0000
0010
0000
0000
1000
0000
0000
0001
0000
0000
1000
0000
0100
0000
0010
0000
,
0001
1000
0010
1000
0001
1000
0100
1000
,
0001
0100
0010
0100
0001
1000
0100
1000
,
0001
0010
0001
0100
0001
1000
0001
0100
,
0010
1000
0001
1000
0100
1000
0010
1000
,
0001
0100
0010
1000
0100
0010
0001
0010
0100
1000
0010
0100
,
0001
1000
0100
0010
0001
0010
0100
1000
0100
0010
0100
1000
,
0001
0100
0001
0000
0100
0010
0100
0000
0010
1000
0010
0000
1000
0001
1000
0000
,
0001
0010
0001
0000
0010
0100
0010
0000
0100
1000
0100
0000
1000
0001
1000
0000
,
0001
0100
0001
0000
1000
0100
1000
0000
0001
0010
0001
0000
1000
0010
1000
0000
,
0001
0100
0001
0000
1000
0100
1000
0000
0001
0010
0001
0000
1000
0010
1000
0000
,
0001
0010
0001
0000
1000
0010
1000
0000
0001
0100
0001
0000
1000
0100
1000
0000
,
0001
0010
0001
0000
1000
0010
1000
0000
0001
0100
0001
0000
1000
0100
1000
0000
,
0001
0010
0001
0000
1000
0010
1000
0000
0100
0010
0100
0000
1000
0010
1000
0000
,
0001
0010
0001
0000
0100
0010
0100
0000
0001
0010
0001
0000
1000
0010
1000
0000
,
0001
0010
0100
0000
1000
0001
0010
0000
0100
1000
0001
0000
1000
0010
0100
0000
,
0001
1000
0100
0000
0010
0001
1000
0000
0010
0100
0001
0000
1000
0010
0100
0000
,
0001
1000
0100
0000
0010
0100
1000
0000
0001
0100
0010
0000
0100
0001
1000
0000
,
0100
0010
0001
0000
1000
0010
0100
0000
0001
1000
0100
0000
0010
0001
1000
0000
,
0001
0010
0100
0000
1000
0010
0100
0000
0001
1000
0100
0000
0010
0001
1000
0000
,
0010
0100
0001
0000
1000
0100
0010
0000
0001
1000
0010
0000
0100
0001
0010
0000
,
0100
1000
0001
1000
0010
0100
0001
1000
0010
0100
0010
1000
0001
1000
0100
1000
,
0001
0010
0001
1000
0100
0010
0001
1000
0001
0100
0010
1000
0001
1000
0100
0010
,
0001
0000
0000
0000
;

//---------------dance-single - Aoreo----------------
#NOTES:
     dance-single:
     Aoreo:
     Easy:
     14:
     1.000,1.000,0.044,0.324,1.000,621.000,3.000,22.000,0.000,0.000:







0000
0000
0000
0000
,
0000
0000
0000
0000
,
0000
0000
0000
0000
,
0000
0000
0000
0000
,
2000
0000
3001
1000
0200
0000
0310
0001
,
2000
0000
3001
0100
0020
0000
1030
0001
,
0020
0000
0130
1000
0002
0000
0013
0100
,
1000
0001
1000
0001
1000
0000
0100
0000
0010
0000
0100
0000
1000
0000
0010
0000
,
0200
0000
0301
1000
0200
0000
0310
0001
,
2000
0000
3001
0100
0020
0000
0130
0001
,
2000
0000
3001
0010
0002
0000
0013
0100
,
0020
0000
0032
0000
0203
0000
0320
0030
,
0200
0000
0301
1000
0200
0000
0310
0001
,
2000
0000
3001
0100
0020
0000
1030
0001
,
0200
0000
0000
0000
0310
0000
1000
0000
0002
0000
0000
0000
0013
0100
1000
0001
,
1000
1100
0110
0011
,
0001
0000
0000
1000
0000
0000
0100
0000
0000
1000
0000
0000
0001
0000
0000
0100
0000
0000
0001
0000
0000
1000
0000
0000
0010
0000
0000
0100
0000
0000
0001
0000
0000
1000
0000
0000
0001
0000
0000
0000
0100
0000
0000
0000
0010
0000
0000
0000
,
0100
0001
1000
0100
0010
0001
1000
0100
1000
0001
0100
0010
,
0100
0001
1000
0001
0010
0100
1000
0001
0100
0010
1000
0001
,
0100
0010
0100
0001
1000
0100
0010
0100
1000
0001
0100
0010
,
1000
0000
0000
0100
0000
0000
1000
0000
0000
0001
0000
0000
0010
0000
0000
0100
0000
0000
1000
0000
0000
0001
0000
0000
0100
0000
0000
0010
0000
0000
0100
0000
0000
0001
0000
0000
1000
0000
0000
0000
0010
0000
0000
0000
0100
0000
0000
0000
,
0010
1000
0001
1000
0100
1000
0010
0100
0001
0010
0001
1000
,
0100
0010
0100
1000
0001
0100
0010
1000
0010
0100
0001
1000
,
0100
0010
0001
1000
0001
0100
0010
0100
0001
1000
0100
0010
,
0001
0000
0000
0100
0000
0000
0001
0000
0000
1000
0000
0000
0001
0000
0000
1000
0000
0000
0100
0000
0000
0010
0000
0000
0100
0000
0000
1000
0000
0000
0001
0000
0000
0100
0000
0000
0001
0000
0000
0000
0100
0000
0000
0000
0010
0000
0000
0000
,
0100
0001
1000
0100
0010
0001
1000
0001
0100
0010
1000
0010
,
0100
0001
1000
0100
1000
0010
0100
0001
0010
0001
1000
0100
,
0010
0001
1000
0010
0100
0010
1000
0001
0100
0010
0100
0001
,
1000
0000
0000
0100
0000
0000
1000
0000
0000
0001
0000
0000
0100
0000
0000
0010
0000
0000
1000
0000
0000
0001
0000
0000
0010
0000
0000
0100
0000
0000
1000
0000
0000
0001
0000
0000
1000
0000
0000
0000
0100
0000
0000
0000
1000
0000
0000
0000
,
0001
0100
0010
0100
0001
1000
0001
0010
0100
1000
0010
0100
,
0001
1000
0100
0010
0100
1000
0001
0100
0010
0100
0001
1000
,
0100
0010
0001
1000
0010
0100
0010
1000
0001
0010
0100
1000
,
0004
0000
0000
0000
,
0403
0000
0000
0000
,
0000
0000
0300
0001
0000
0000
0001
0000
0000
0001
0000
0000
,
1000
0010
1000
0100
1000
0001
1000
0010
,
0100
0001
0100
0010
1000
0001
1000
0100
,
0010
0001
0100
0001
1000
0001
0010
0001
,
1000
0010
0100
0010
1000
0001
0010
0001
,
1000
0100
1000
0010
1000
0001
1000
0010
,
0100
0001
1000
0001
0010
0001
0100
0001
,
1000
0100
0010
0001
0100
0001
1000
0100
,
1000
0001
1000
0000
0010
0000
0100
0000
0001
1000
0001
0000
1000
0000
0001
0000
,
0100
0010
1000
0100
1000
0001
1000
0010
,
0100
0000
0000
0001
0000
0000
0100
0000
0000
0010
0000
0000
1000
0000
0000
0001
0000
0000
1000
0000
0100
0000
0010
0000
,
0001
1000
0010
1000
0001
1000
0100
1000
,
0001
0100
0010
0100
0001
1000
0100
1000
,
0001
0010
0001
0100
0001
1000
0001
0100
,
0010
1000
0001
1000
0100
1000
0010
1000
,
0001
0100
0010
1000
0100
0010
0001
0010
0100
1000
0010
0100
,
0001
1000
0100
0010
0001
0010
0100
1000
0100
0010
0100
1000
,
0001
0100
0001
0000
0100
0010
0100
0000
0010
1000
0010
0000
1000
0001
1000
0000
,
0001
0010
0001
0000
0010
0100
0010
0000
0100
1000
0100
0000
1000
0001
1000
0000
,
0001
0100
0001
0000
1000
0100
1000
0000
0001
0010
0001
0000
1000
0010
1000
0000
,
0001
0100
0001
0000
1000
0100
1000
0000
0001
0010
0001
0000
1000
0010
1000
0000
,
0001
0010
0001
0000
1000
0010
1000
0000
0001
0100
0001
0000
1000
0100
1000
0000
,
0001
0010
0001
0000
1000
0010
1000
0000
0001
0100
0001
0000
1000
0100
1000
0000
,
0001
0010
0001
0000
1000
0010
1000
0000
0100
0010
0100
0000
1000
0010
1000
0000
,
0001
0010
0001
0000
0100
0010
0100
0000
0001
0010
0001
0000
1000
0010
1000
0000
,
0001
0010
0100
0000
1000
0001
0010
0000
0100
1000
0001
0000
1000
0010
0100
0000
,
0001
1000
0100
0000
0010
0001
1000
0000
0010
0100
0001
0000
1000
0010
0100
0000
,
0001
1000
0100
0000
0010
0100
1000
0000
0001
0100
0010
0000
0100
0001
1000
0000
,
0100
0010
0001
0000
1000
0010
0100
0000
0001
1000
0100
0000
0010
0001
1000
0000
,
0001
0010
0100
0000
1000
0010
0100
0000
0001
1000
0100
0000
0010
0001
1000
0000
,
0010
0100
0001
0000
1000
0100
0010
0000
0001
1000
0010
0000
0100
0001
0010
0000
,
0100
1000
0001
1000
0010
0100
0001
1000
0010
0100
0010
1000
0001
1000
0100
1000
,
0001
0010
0001
1000
0100
0010
0001
1000
0001
0100
0010
1000
0001
1000
0100
0010
,
0001
0000
0000
0000
;
