#TITLE:Turn Away;
#SUBTITLE:;
#ARTIST:Martin Willstedt;
#TITLETRANSLIT:;
#SUBTITLETRANSLIT:;
#ARTISTTRANSLIT:;
#CREDIT:Shortysnmn2010;
#BANNER:Turn Away-bn.png;
#BACKGROUND:Turn Away-bg.png;
#LYRICSPATH:;
#CDTITLE:;
#MUSIC:Turn Away.mp3;
#OFFSET:-0.040;
#SAMPLESTART:70.430;
#SAMPLELENGTH:12.020;
#SELECTABLE:YES;
#BPMS:0.000=150.000;
#STOPS:;
#BGCHANGES:;
// cache tags:
#FIRSTBEAT:16.000;
#LASTBEAT:274.250;
#SONGFILENAME:Songs/stepmix .10/Turn Away/Turn Away.sm;
#HASMUSIC:1;
#HASBANNER:1;
#MUSICLENGTH:111.209;
// end cache tags

//---------------dance-single - ----------------
#NOTES:
     dance-single:
     :
     Medium:
     6:
     0.347,0.370,0.126,0.153,0.000,239.000,14.000,17.000,0.000,0.000:
0000
0000
0000
0000
,
0000
0000
0000
0000
,
0000
0000
0000
0000
,
0000
0000
0000
0000
,
0000
1000
0000
0010
,
0000
0100
0000
0010
,
0000
1001
0000
0010
,
0000
0100
0000
1000
,
0101
0000
0000
0000
,
0001
0000
1000
0000
0100
1000
0000
1000
,
0100
0010
0001
0100
,
0020
0000
0030
0000
0010
0000
1000
0001
,
0100
1001
0010
0001
,
1000
0000
0100
0000
1000
0001
0000
0001
,
0100
0010
1001
0100
,
0001
1000
0000
1000
0000
1000
0001
0000
,
0001
0100
0000
0000
0001
1000
0001
0000
,
0010
0100
1100
1000
,
0001
0100
0010
0000
1000
0000
0100
0000
,
0020
0000
0030
0001
0000
0001
0010
0000
,
0002
0000
0003
0100
0001
0000
1000
0000
,
0101
0000
0001
0000
1000
0000
0010
1000
,
0200
0000
0300
1000
0000
0001
0010
0000
,
0001
0100
1001
0010
,
1000
0100
1001
0010
,
0002
0000
1000
0103
,
0002
0000
0100
1003
,
1001
0000
1000
0000
0001
0010
0000
0001
,
0000
1000
0001
0000
0100
0000
0001
0000
,
1000
0000
0100
0000
0010
0100
0000
0100
,
0000
0100
1000
0000
0010
0000
1001
0000
,
0010
0000
0001
0000
0100
0001
0000
0100
,
0000
0001
0100
0000
0010
0000
1000
0000
,
0100
0000
1000
0000
0001
0010
0000
0010
,
0000
0001
0010
0000
0100
0000
1000
0000
,
0002
0100
0103
0001
,
1000
0000
0100
0010
0100
0000
0000
0000
,
2000
0010
3010
1000
,
0001
0000
0100
0010
1000
0000
0000
0000
,
0200
1000
0310
0100
,
0010
0000
0001
0100
0001
0000
0000
0000
,
0002
0100
1003
0001
,
1000
0000
0100
0010
0001
0000
0000
0000
,
1100
0000
0000
0000
,
0001
0010
1001
0100
,
1000
0000
0001
0100
0001
0000
1000
0000
,
0002
0003
1000
0001
,
0010
0000
0100
1000
0100
0000
0010
0000
,
0001
0100
1001
0010
,
1000
0000
0001
1000
0100
0000
0010
0000
,
0200
0300
1000
0010
,
0100
0000
0001
1000
,
0001
0000
0010
0100
,
1000
0010
0100
0010
,
1000
0000
0001
0010
,
0100
0010
0001
0100
,
0020
0030
0010
0100
,
0002
0003
0001
1000
,
0002
0003
0001
0010
,
0001
1000
1000
0001
,
0100
0000
0010
0000
1000
0000
0000
0010
,
1000
0000
0001
0000
0010
0000
0000
0010
,
0100
0000
1000
0000
0010
0000
0000
0010
,
0100
0000
0001
0000
0100
0000
0000
0001
,
1000
0001
0000
0010
,
0000
0001
0000
0100
,
0000
0010
0000
1000
,
0000
0100
0000
0010
,
2002
0000
3003
0000
;

//---------------dance-single - ----------------
#NOTES:
     dance-single:
     :
     Easy:
     4:
     0.276,0.306,0.126,0.117,0.000,188.000,14.000,13.000,0.000,0.000:
0000
0000
0000
0000
,
0000
0000
0000
0000
,
0000
0000
0000
0000
,
0000
0000
0000
0000
,
1000
0000
0000
1000
,
0001
0000
0000
0001
,
1000
0000
0000
1000
,
0010
0000
0000
0010
,
1001
0000
0000
0000
,
0100
0000
0100
0001
,
1000
0100
1000
0000
,
0001
0000
0010
0001
,
0010
0000
0001
0100
,
0001
0000
1000
0100
,
0010
0000
0100
1000
,
0200
0300
0100
1000
,
0002
0003
0001
1000
,
0001
0000
1000
0100
,
1100
0000
1000
0000
,
0001
0000
0010
0100
,
0110
0000
0010
0010
,
0001
0100
0010
1000
,
0002
0003
1000
0100
,
0010
0001
0100
0001
,
2000
3000
0001
0100
,
0001
0000
1000
1000
,
0001
0000
0010
0010
,
0001
1000
0002
0003
,
0100
0001
1001
0000
,
0100
1000
0200
0300
,
1000
0001
0011
0000
,
0001
0100
0020
0030
,
1000
0001
0101
0000
,
0100
0010
2000
3000
,
0100
1000
1010
0000
,
0100
0001
1000
0001
,
0100
0010
1000
0000
,
0010
1000
0010
0100
,
0001
0010
0100
0000
,
1000
0100
0100
1000
,
0100
0010
0200
0300
,
0010
0001
0001
0010
,
0100
0010
0002
0003
,
1001
0000
0000
0000
,
0100
0000
0100
0010
,
0100
0000
0001
0010
,
0100
1000
0001
0100
,
0010
0000
1001
0000
,
0010
0100
0100
0010
,
0200
0300
0100
1000
,
1100
0000
1000
0001
,
0010
0000
0001
0001
,
0100
0000
0001
0100
,
0010
0000
0010
1000
,
0100
0100
0010
0001
,
1001
0000
0100
0100
,
0001
0010
0100
1000
,
0002
0000
0010
0013
,
0001
0000
1000
0100
,
2000
0000
0010
3010
,
1000
0000
0001
0010
,
0100
0000
1001
0000
,
0100
0000
0010
1000
,
0100
0000
0011
0000
,
0100
1000
0000
0001
,
0000
1001
0000
1000
,
0000
0100
0000
0010
,
0000
0001
0000
0100
,
0001
0000
0000
0000
;

//---------------dance-single - ----------------
#NOTES:
     dance-single:
     :
     Beginner:
     1:
     0.123,0.153,0.045,0.000,0.000,91.000,5.000,0.000,0.000,0.000:
0000
0000
0000
0000
,
0000
0000
0000
0000
,
0000
0000
0000
0000
,
0000
0000
0000
0000
,
0001
0000
0000
0000
,
1000
0000
0000
0000
,
0010
0000
0000
0000
,
1000
0000
0000
0000
,
1001
0000
0000
0000
,
0001
0000
0000
0001
,
0001
0000
0000
0100
,
0100
0000
0000
0000
,
0010
0000
0000
0010
,
0100
0000
0000
0100
,
0100
0000
0000
0001
,
1000
0000
0000
0100
,
0100
0000
0000
0000
,
0100
0000
1000
0000
,
0100
0000
0000
0000
,
0010
0000
0010
0000
,
0010
0000
0000
0000
,
0001
0000
0000
0001
,
1000
0000
0000
1000
,
0001
0000
0000
0000
,
0100
0000
0000
0000
,
0110
0000
0000
0000
,
0100
0000
0000
0000
,
1001
0000
0000
0000
,
0010
0000
0000
0000
,
0100
0000
0000
0000
,
1001
0000
0000
0000
,
0100
0000
0000
0000
,
0010
0000
0000
0000
,
1000
0000
1000
0000
,
1000
0000
0000
0000
,
0001
0000
0000
0001
,
0001
0000
0001
0000
,
1000
0000
0000
1000
,
1000
0000
1000
0000
,
0010
0000
0000
0010
,
0100
0000
0000
0000
,
0100
0000
0000
0100
,
0001
0000
0000
0000
,
1000
0000
0000
0000
,
0100
0000
0000
0100
,
1000
0000
1000
0000
,
0100
0000
0000
0000
,
0010
0000
0000
0010
,
0001
0000
0001
0000
,
0010
0000
0000
0000
,
0001
0000
0000
0000
,
1000
0000
0000
0000
,
0010
0000
0000
0000
,
0100
0000
0000
0000
,
0001
0000
0000
0000
,
1000
0000
1000
0000
,
1000
0000
0000
0000
,
0100
0000
0000
0000
,
0010
0000
0000
0000
,
0001
0000
0001
0000
,
0001
0000
0000
0000
,
0100
0000
0000
0000
,
0010
0000
0000
0000
,
0100
0000
0000
0000
,
0010
0100
0000
0100
,
0000
0100
0000
0000
,
0000
0010
0000
0010
,
0000
0010
0000
0000
,
1001
0000
0000
0000
;

//---------------dance-double - ----------------
#NOTES:
     dance-double:
     :
     Medium:
     5:
     0.342,0.336,0.108,0.117,0.000,241.000,12.000,13.000,0.000,0.000:
00000000
00000000
00000000
00000000
,
00000000
00000000
00000000
00000000
,
00000000
00000000
00000000
00000000
,
00000000
00000000
00000000
00000000
,
10000000
00010000
01000000
00001000
,
00010000
00000000
00011000
00000000
,
00010000
00000010
00001000
00000001
,
00000100
00000000
00000010
00010000
,
00011000
00000000
00000000
00000000
,
00010000
00000000
00001000
00000000
01000000
00010000
00000000
00010000
,
20000000
01000000
31000000
10000000
,
00010000
00000000
00000000
01000000
00000000
01000000
00001000
00000000
,
00010000
00000000
00000000
00000000
00000100
00001000
00000100
00000000
,
00000010
00000000
00000001
00000000
00000100
00000010
00000000
00000010
,
00020000
00000000
00031000
01001000
,
00001000
01000000
00000000
00010000
00000000
10000000
00100000
00000000
,
00010000
00001000
00010000
00000100
,
00001000
00000000
00000001
00000000
00000100
00000001
00000000
00001000
,
00000001
00000010
00001000
00010000
,
01000000
00000000
00000000
01000000
00000000
10000000
00100000
00000000
,
01000000
00000000
00000000
00000000
00001000
00010000
00001000
00000000
,
01000000
00000000
01010000
00000000
00010000
00100000
00000000
00100000
,
00010000
00000000
00000000
01000000
00000000
01000000
00001000
00000000
,
00010000
00001000
00000000
00010000
00000000
00000100
00001000
00000000
,
00000100
00001000
00000010
00010000
,
00002000
00000000
01003000
01001000
,
01000000
00010000
01010000
00000000
,
00010000
00000000
10000000
00000000
01000000
00100000
00000000
01000000
,
00000000
00100000
00010000
00000000
01000000
00000000
00001000
00000000
,
00010000
00000000
00000100
00000000
00001000
00000010
00000000
00000100
,
00000000
00000001
00000100
00000000
00000010
00000000
00010000
00000000
,
00001000
00100000
00001000
00011000
,
00010000
00000200
00001000
00000310
,
00000001
00000100
00000010
00010000
,
00001000
02000000
00010000
03100000
,
01000000
10010000
00100000
00001000
,
00010000
00000100
00000100
00000000
,
00001000
00000101
00000010
00010000
,
00001000
00100000
00100000
00000000
,
01000000
20000000
30000000
10000000
,
00010000
00000000
01000000
00000000
00001000
00010000
00000100
00000000
,
00000010
00000002
00000003
00000001
,
00000100
00000000
00000010
00000000
00010000
00000000
00001000
01000000
,
00100000
00000000
00000000
00000000
,
00001000
00000000
00010000
00000000
00000100
00001000
00000000
00000100
,
00000010
00000001
00000100
00000010
,
00020000
00000000
00031000
00010000
,
00001000
01000000
00000000
01000000
00010000
00000000
10000000
00000000
,
01100000
00010000
10000000
01000000
,
00200000
00000000
00010000
00301000
,
00001000
00010000
00000000
00000100
00000000
00001000
00000100
00000000
,
00010000
00000010
00000100
00000001
,
00000010
00000000
00000100
00000000
00010000
00001000
00000000
00010000
,
00001000
01000000
00010000
01000000
,
10000000
00000000
00000000
01000000
00000000
01000000
00010000
00000000
,
00100000
00000000
00000000
00000000
01000000
10000000
00010000
00000000
,
01000000
00002000
00010000
00103000
,
00001000
00020000
00001000
00030100
,
00010000
00001000
00000000
00001000
00000000
01000000
00010000
00000000
,
10000000
01000000
00100000
00001000
,
00020000
00000100
00000000
00001000
,
00000000
00030010
00000000
00010100
,
00002000
00100000
00000000
00010000
,
00000000
01003000
00000000
01010000
,
00001000
00010000
00000000
00000100
,
00000000
00010000
00000000
00001000
,
00000000
01000000
00000000
10000000
,
00000000
01000000
00000000
00001000
,
00010000
00000000
00000000
00000000
;

//---------------dance-double - ----------------
#NOTES:
     dance-double:
     :
     Easy:
     3:
     0.194,0.214,0.099,0.045,0.000,135.000,11.000,5.000,0.000,0.000:
00000000
00000000
00000000
00000000
,
00000000
00000000
00000000
00000000
,
00000000
00000000
00000000
00000000
,
00000000
00000000
00000000
00000000
,
00000000
10000000
00000000
00100000
,
00000000
10000000
00000000
00010000
,
00000000
01000000
00000000
00001000
,
00000000
00010000
00000000
00000010
,
00010000
00000000
00000000
00000000
,
00000100
00000000
00010000
00000000
,
00000100
00000000
00001000
00000010
,
00001000
00000000
00000001
00000000
,
00000010
00000000
00001000
00001000
,
00010000
00000000
00000000
00000000
,
00100000
00000000
10000000
01000000
,
20000000
00000000
30000000
00000000
,
00002000
00000000
00003000
00000000
,
00010000
00000100
00001000
00000000
,
00001001
00000000
00000000
00000000
,
00000010
00000100
00010000
00000000
,
00011000
00000000
00001000
00001000
,
01000000
00000000
00010000
00000000
,
20000000
00000000
30000000
00100000
,
01000000
00000000
01000000
00000000
,
00001000
00000000
00001000
00010000
,
00001000
00000000
00000000
00000000
,
00010000
00000000
00000000
00000000
,
00000100
00001000
00000100
00000000
,
00010000
00000000
00001000
00000000
,
01000000
00010000
01000000
00000000
,
00100000
00000000
01000000
00000000
,
00001000
00010000
00000100
00000000
,
00001000
00000000
00000100
00000000
,
00000010
00000100
00001000
00000000
,
00000010
00000000
00010000
00000000
,
00001000
00001000
00000000
00000000
,
01000000
01000000
00000000
00000000
,
00100000
10000000
00000000
00000000
,
01000000
00100000
00000000
00000000
,
00001000
00010000
00000000
00000000
,
00000010
00000100
00000000
00000000
,
00000001
00000001
00000010
00000000
,
00000001
00000000
00000000
00000000
,
00010100
00000000
00000000
00000000
,
00001000
00000000
00100000
00000000
,
00010000
00000000
00100000
00000000
,
00002000
00000000
00003000
00010000
,
00001000
00000000
00011000
00000000
,
00010000
00000000
00000100
00000000
,
00001000
00000000
00000010
00000000
,
00000200
00000000
00000300
00000010
,
00001000
00000000
00000100
00000100
,
00010000
00000000
00001000
00000000
,
01001000
00000000
01000000
00010000
,
01000000
00000000
00100000
00000000
,
10000000
00000000
00010000
00100000
,
00001000
00000000
00010000
00000000
,
00010100
00000000
00000100
00001000
,
00000100
00000000
00000000
00000010
,
00001001
00000000
00000000
00000100
,
00011000
00000000
00000000
00000000
,
01010000
00000000
00000000
00000000
,
10100000
00000000
00000000
00000000
,
01001000
00000000
00001000
00010000
,
00001000
00010000
00000000
00000010
,
00000000
00001000
00000000
00000100
,
00000000
00010000
00000000
00001000
,
00000000
00100000
00000000
01000000
,
10000000
00000000
00000000
00000000
;

//---------------dance-single - ----------------
#NOTES:
     dance-single:
     :
     Hard:
     8:
     0.527,0.493,0.279,0.180,0.072,359.000,31.000,20.000,0.000,0.000:
0000
0000
0000
0000
,
0000
0000
0000
0000
,
0000
0000
0000
0000
,
0000
0000
0000
0000
,
1000
0000
0001
0000
0100
0000
0000
0000
0010
0000
0000
0100
0000
0000
0010
0000
,
0000
0000
1000
0000
1000
0000
0000
0000
0001
0000
0000
0010
0000
0000
0100
0000
,
0000
0000
1000
0000
0001
0000
0000
0000
0100
0000
0000
0001
0000
0000
1000
0000
,
0000
0000
0010
0000
1000
0000
0000
0000
0001
0000
0000
0010
0000
0000
0100
0000
,
1001
0000
0000
0000
,
0100
1000
0100
0010
0100
1000
0000
1000
,
0020
0000
0030
0100
0001
1000
0010
1000
,
0002
0000
0000
0010
0000
0013
0001
1000
,
0100
1000
0000
0010
1000
0001
1000
0001
,
0100
0001
0000
0010
0000
0001
0100
0010
,
1000
0000
1000
0100
0000
0100
0010
0001
,
0010
0100
0000
0110
0000
0010
0100
0000
,
1000
0001
0000
0001
1000
0010
1000
0001
,
1000
0000
0101
0000
0001
1000
0000
0010
,
0100
0001
0010
0000
0100
1000
0001
1000
,
0010
0000
1001
0000
0010
1000
0100
0000
,
0010
0001
0000
1000
0001
0010
0100
1000
,
0010
0100
0000
0101
0000
1001
0000
1000
,
0010
1000
0100
1000
0000
0001
0010
0001
,
2000
0100
0000
0100
0000
3100
1000
0000
,
0002
0010
0000
0013
0001
1000
0010
0100
,
0010
0010
0010
1001
,
0100
0100
0010
0101
,
1000
0001
0100
0000
0001
0010
0000
1100
,
0000
0010
0001
0100
0010
0100
0000
0001
,
1000
0100
0001
0000
0100
1000
0000
0011
,
0000
0000
0100
0000
1000
0000
0010
0000
0100
0000
0010
0100
0000
0000
0001
0000
,
1000
0100
2000
0000
0001
3001
0000
0101
,
0000
0001
0010
0001
0100
0010
0000
0010
,
1000
0100
0020
0000
0100
0130
0000
0011
,
0000
0000
0001
0000
0100
0000
0010
0000
1000
0000
0001
0100
0000
0000
0001
0000
,
1000
0100
1100
0000
1001
0000
0100
0001
,
0000
1000
0010
0001
0010
0200
0000
0301
,
0100
0010
1010
0000
1100
0000
0010
0001
,
0000
0000
0001
0000
0100
0000
1000
0000
0100
0000
0010
0100
0000
0000
0010
0000
,
1000
0001
0011
0000
2001
0000
3100
1000
,
0000
0001
0010
0100
1000
0020
0000
0130
,
0010
1000
1100
0000
0012
0000
0103
0001
,
0000
0000
1000
0000
0100
0000
0010
0000
0001
0000
0100
0001
0000
0000
0100
0000
,
0002
0000
0000
0003
,
1000
0000
1010
0000
1100
0000
0010
0001
,
0010
0000
0100
1000
0010
0100
0010
0100
,
0002
0000
0010
0013
0000
0001
0010
0001
,
1000
1100
1002
0103
,
0001
0100
0000
1001
0000
1000
0000
0100
,
1000
0000
0001
0010
0001
0100
0001
1000
,
0200
1000
0000
1000
0000
1300
0100
0000
,
0020
0001
0000
0031
0010
0000
0001
0100
,
0010
1010
2100
3010
,
0100
0000
0000
0001
0100
0000
0001
0010
,
0100
0000
0000
1000
0000
1000
0010
1000
,
0100
0010
0000
0010
0001
0000
1000
0100
,
0020
0001
0000
0130
0000
0110
0000
0100
,
1000
0000
0010
1000
0000
0001
1000
0100
,
0001
0100
0000
1000
0000
0001
0200
0000
,
0301
0100
0000
0001
0010
1000
0010
0001
,
1000
0000
0000
0000
0001
0000
0000
0000
0100
0000
0000
0010
0000
0000
1000
0000
,
0001
0000
0000
0000
0010
0000
0000
0000
0100
0000
0000
1000
0000
0000
0010
0000
,
0100
0000
0000
0000
0001
0000
0000
0000
0010
0000
0000
0010
0000
0000
0001
0000
,
0100
0000
0000
0000
0010
0000
0000
0000
1000
0000
0000
1000
0000
0000
0100
0000
,
0010
0000
0000
0000
1001
0000
0000
0000
0100
0000
0000
0010
0000
0000
0100
0000
,
0001
0000
0000
0000
1100
0000
0000
0000
0010
0000
0000
0001
0000
0000
0010
0000
,
0001
0000
0000
0000
0101
0000
0000
0000
0010
0000
0000
1000
0000
0000
0100
0000
,
0010
0000
0001
0000
0010
0000
0001
0000
0100
0000
0000
0100
0000
0000
0002
0000
,
2000
0000
3003
0000
;

//---------------dance-single - ----------------
#NOTES:
     dance-single:
     :
     Challenge:
     9:
     0.611,0.555,0.306,0.396,0.103,398.000,34.000,44.000,11.000,0.000:
0000
0000
0000
0000
,
0000
0000
0000
0000
,
0000
0000
0000
0000
,
0000
0000
0000
0000
,
1000
0000
0001
0000
0010
0000
0001
0000
1000
0000
0100
0010
0000
0000
0011
0000
,
0000
0000
0100
0000
1000
0000
0010
0000
0100
0000
0001
1000
0000
0000
0011
0000
,
0000
0000
0100
0000
1000
0000
0010
0000
0100
0000
1000
0100
0000
0000
0110
0000
,
0000
0000
0001
0000
0010
0000
0100
0000
1000
0000
0001
0100
0000
0000
1010
0000
,
2002
0000
3003
0000
,
0100
0001
0100
0001
1000
0002
0000
0013
,
0011
0000
0100
2000
0010
3010
1000
0100
,
0010
0000
1001
1100
0000
0010
0001
0010
,
0001
0200
0000
0010
0310
0100
0010
1000
,
0100
1000
0100
0120
0000
0001
0000
0130
,
0110
0000
0100
1000
0010
1000
0100
1000
,
0002
0100
0000
1000
0000
0013
0011
0000
,
0200
2000
0300
3M00
0100
1000
0010
0001
,
0010
1010
0000
1001
0001
0010
0100
0010
,
1000
0000
0010
0001
1000
0001
0100
1000
,
0100
0000
0001
0010
0000
0001
1000
0010
,
1000
0100
0000
0200
1000
1300
0200
0010
,
0310
0100
0000
1100
0000
1001
0000
0100
,
0001
0000
2000
0100
0000
3010
1000
0100
,
0020
0001
0030
0011
0000
0001
0100
0000
,
0002
2000
0003
300M
0100
1000
0000
1000
,
00M1
M001
0M01
1100
,
00M1
0000
0000
0000
M001
0000
0000
0000
0M01
0000
0000
0110
0000
0000
0100
0000
,
1000
0001
0010
0000
0002
0200
0003
0001
,
0000
0301
0100
0010
1000
0001
0000
0001
,
1000
0010
0100
0000
0020
2000
0030
0010
,
0000
0000
3010
0000
1000
0000
0001
0000
0010
0000
0100
1000
0000
0001
1000
0000
,
0010
0100
0101
0000
0002
2000
0003
0001
,
0000
3100
1000
0010
0100
0001
0000
0100
,
0010
0100
0101
0000
2000
0200
3000
1000
,
0000
0000
0301
0000
0100
0000
1000
0000
0010
0000
0001
0010
0000
0010
0100
0000
,
0001
0010
0210
0000
1300
0100
0001
0100
,
0000
0100
1000
0010
0100
0002
0000
0013
,
0001
0100
0120
0000
1030
0010
0001
0010
,
0000
0000
0100
0000
0001
0000
0010
0000
0100
0000
1000
0010
0000
0100
0001
0000
,
1000
0200
0001
0000
1300
0100
0000
1001
,
0000
0010
0001
0100
0010
2000
0000
3100
,
1000
0010
0210
0000
0301
0100
0010
0001
,
0000
0000
0010
0000
1000
0000
0100
0000
0010
0000
0001
1000
0000
0100
0001
0000
,
0200
0000
0000
0300
,
1000
0010
0100
0010
0001
0010
0000
1000
,
0002
0000
0013
0001
1000
0100
1000
0100
,
2000
0000
3010
1000
0000
0001
0010
0001
,
0100
1000
0000
0100
0001
0010
0100
0010
,
0001
0100
0000
1001
0000
0011
0000
0100
,
1000
0000
0002
0100
0000
1003
0001
0100
,
0001
1000
0000
1100
0000
1000
0001
0000
,
0100
0001
0000
0001
0010
0100
0100
1000
,
0100
0010
0100
1000
0100
0010
0000
0010
,
0001
0100
0010
0200
0001
0301
0100
0010
,
2000
0000
3001
0000
0010
0001
1001
1000
,
0100
1000
0000
1000
0010
1000
0001
0010
,
0100
1000
0001
1000
0100
0001
0000
0100
,
1000
0001
0100
0020
0000
1030
0010
0000
,
0100
0001
0000
1100
0000
0100
0010
0000
,
0002
0000
0200
0000
0000
0300
0000
0M00
0013
0000
0100
0000
1000
0000
0010
0000
,
1000
0000
0000
0000
0101
0000
0000
0000
1000
0000
0001
0010
0000
0000
0100
0000
,
1000
0000
0000
0000
0110
0000
0000
0000
1000
0000
0100
0001
0000
0000
0100
0000
,
1000
0000
0000
0000
1001
0000
0000
0000
0010
0000
1000
0010
0000
0000
1000
0000
,
0002
0000
0100
0000
0103
0000
0001
0000
0010
0000
0000
1001
0000
0000
0100
0000
,
0010
0000
1000
0000
0200
0000
0000
0000
0010
0000
0000
0010
0000
0000
1300
0000
,
0000
0000
0100
0000
0020
0000
0000
0000
0001
0000
0000
0001
0000
0000
0130
0000
,
0000
0000
1000
0000
0002
0000
0000
0000
0100
0000
0000
0100
0000
0000
1003
0000
,
0000
0000
0002
0000
0010
0000
0013
0000
0001
0000
0000
1100
0000
0000
0010
0000
,
0002
0000
1000
0000
0000
0000
1003
0000
0000
M00M
0000
0000
0000
0000
0000
0000
;

//---------------dance-double - ----------------
#NOTES:
     dance-double:
     :
     Hard:
     7:
     0.500,0.489,0.135,0.180,0.063,354.000,15.000,20.000,0.000,0.000:
00000000
00000000
00000000
00000000
,
00000000
00000000
00000000
00000000
,
00000000
00000000
00000000
00000000
,
00000000
00000000
00000000
00000000
,
10000000
00000000
00010000
00000000
01000000
00000000
00100000
00000000
00010000
00000000
00000000
00001000
00000000
00000000
00010000
00000000
,
00000000
00000000
00000100
00000000
00001000
00000000
00000001
00000000
00000010
00000000
00000000
00001000
00000000
00000000
00010000
00000000
,
00000000
00000000
00001000
00000000
01000000
00000000
00010000
00000000
00100000
00000000
00000000
10000000
00000000
00000000
00100000
00000000
,
00000000
00000000
00001000
00000000
00010000
00000000
00001000
00000000
00000100
00000000
00000000
00000001
00000000
00000000
00000010
00000000
,
00000100
00000000
00000000
00000000
,
00010000
00001000
00010000
00000000
01000000
10000000
00000000
00100000
,
00010000
00000000
00100000
01000000
00010000
00100000
00001000
00100000
,
00010000
00000000
00101000
00000000
00010000
00000100
00001000
00000000
,
00000020
00000100
00000000
00001030
00000010
00000100
00000001
00000010
,
00000001
00001000
00000000
00001200
00000000
00010000
00000000
00001300
,
00000100
00010000
00001000
00010000
00000000
01000000
00010000
01000000
,
00100000
00010000
00000000
11000000
00000000
00100000
00002000
00000000
,
00000000
00023000
00000000
00000000
00030100
00001000
00000000
00000001
,
00000100
00000001
00000000
00001000
00000010
00010000
00001000
00010000
,
00000100
00000000
00010000
00001000
00010000
00100000
10000000
01000000
,
20000000
00000000
30100000
10000000
00000000
10000000
00100000
00010000
,
00001000
00010000
00000000
01000000
00010000
00000000
00011000
00000000
,
00001000
00000100
00000000
00000001
00000000
00000010
00000000
00000100
,
00001000
00000000
00000002
00000010
00000000
00000103
00000001
00000010
,
00000100
00010000
00000000
00011000
00000000
00010000
00000010
00000000
,
00001000
00000100
00000000
00000000
00000100
00010000
00001000
01000000
,
00010000
00100000
01000000
10010000
,
01000000
00000000
00000000
00000000
00001000
00000000
00000000
00000000
00010000
00000000
00000000
00000100
00000000
00000000
00001000
00000000
,
00000100
00000010
00000001
00000000
00000100
00001000
00000000
00010000
,
00000000
00001000
00000100
00000000
00000001
00000010
00000000
00001000
,
00010000
00001000
00000100
00000000
00001000
00010000
00000000
00100000
,
00000000
10000000
01000000
00100000
01000000
00100000
00000000
00010000
,
00100000
00001000
00010000
00000000
01000000
00010000
00000000
00001000
,
00000000
01000000
00010000
10000000
00100000
10000000
00000000
01000000
,
00100000
00001000
00010000
00000000
00000100
00001000
00000000
00000001
,
00000000
00000010
00000100
00010000
00001000
01000000
00000000
00100000
,
10000000
01000000
00100000
00000000
00010000
02000000
00000000
03002000
,
00000000
01003000
00001000
00000000
00010000
00000100
00000000
00001000
,
00000001
00000010
00001000
00000000
00010000
00000200
00000000
00002300
,
00000000
00003100
00001000
00000000
00000010
00000100
00000000
00000001
,
00001000
00000100
00010000
00000000
00001000
02000000
00000000
03020000
,
00000000
10030000
00010000
00000000
00100000
10000000
00000000
00100000
,
01000000
10000000
00100000
00000000
01000000
00002000
00000000
00203000
,
00000000
00000000
00310000
00000000
00100000
00000000
00000000
00000000
00001000
00000000
00000000
00010000
00000000
00000000
00001000
00000000
,
00011000
00000000
00000000
00000000
,
00000100
00001000
00000100
00000010
00000001
00000100
00000000
00000100
,
00000010
00010000
00001000
00000000
01000000
00010000
10000000
00010000
,
00100000
00000000
10010000
00000000
01000000
00002000
00010000
00000000
,
00103000
00001000
00010000
00000100
00001000
00000000
00001001
00000000
,
00000001
00000100
00000001
00000010
00000100
00010000
00000000
00010000
,
00001000
01000000
00001000
00010000
00000000
00010000
00001000
01000000
,
00010000
10000000
00000000
00100000
00000000
00010000
00001000
00000000
,
00001000
00000010
00000000
00000000
00000001
00000100
00000010
00001000
,
00000100
00000000
00010000
00001000
00010000
00000100
00001000
00000000
,
00000102
00000000
00000000
00001003
00000001
00000010
00000100
00000000
,
00020100
00000000
00000000
00031000
00000000
00010000
01000000
00010000
,
00001000
01000000
00000000
01000000
00010000
00000000
11000000
00000000
,
00100000
00001000
00010000
00001000
00000000
01001000
00000000
00001000
,
00100000
00000000
00010000
01000000
00000000
01000000
00001000
00010000
,
00000100
00001000
00000000
00000100
00000000
00010000
00001000
00000000
,
01000000
00010000
00000000
00000000
10000000
01000000
00100000
00001000
,
00010000
00000000
00000000
00000000
00001000
00000000
00000000
00000000
01000000
00000000
00000000
00010000
00000000
00000000
01000000
00000000
,
00000000
00000000
00001000
00000000
00010000
00000000
00000000
00000000
00000100
00000000
00000000
00001000
00000000
00000000
00000100
00000000
,
00000000
00000000
00010000
00000000
00001000
00000000
00000000
00000000
00100000
00000000
00000000
00010000
00000000
00000000
00100000
00000000
,
00000000
00000000
00001000
00000000
00010000
00000000
00000000
00000000
00000010
00000000
00000000
00001000
00000000
00000000
00000010
00000000
,
00000100
00000000
00000000
00000000
00002000
00000000
00000000
00000000
00010000
00000000
00000000
00010000
00000000
00000000
00013000
00000000
,
00000000
00000000
00000000
00000000
02001000
00000000
00000000
00000000
00010000
00000000
00000000
00010000
00000000
00000000
03010000
00000000
,
00000000
00000000
00000000
00000000
20100000
00000000
00000000
00000000
00010000
00000000
00000000
01000000
00000000
00000000
31000000
00000000
,
00000000
00000000
00100000
00000000
00001000
00000000
00010000
00000000
00001000
00000000
00000000
00010000
00000000
00000000
00000100
00000000
,
00001000
00000000
00000000
00000000
;

//---------------dance-double - ----------------
#NOTES:
     dance-double:
     :
     Challenge:
     8:
     0.555,0.520,0.144,0.261,0.130,387.000,16.000,29.000,6.000,0.000:
00000000
00000000
00000000
00000000
,
00000000
00000000
00000000
00000000
,
00000000
00000000
00000000
00000000
,
00000000
00000000
00000000
00000000
,
00001000
00000000
00010000
00000000
00001000
00000000
01000000
00000000
00010000
00000000
10000000
01000000
00000000
00000000
00100000
00000000
,
00000000
00000000
00010000
00000000
01000000
00000000
00100000
00000000
00010000
00000000
00001000
00010000
00000000
00000000
00000100
00000000
,
00000000
00000000
00001000
00000000
00000100
00000000
00000010
00000000
00000100
00000000
00010000
00001000
00000000
00000000
00010000
00000000
,
00000000
00000000
00001000
00000000
01000000
00000000
00010000
00000000
10000000
00000000
00100000
01000000
00000000
00000000
00010000
00000000
,
00200000
00000000
00000000
00300000
,
01000000
10000000
00010000
01000000
00100000
00010000
00000000
00010000
,
00001000
00000000
00000100
00000000
00000010
00000000
00001000
00000000
00000100
00000000
00000010
00000000
00000100
00000000
00000000
00000100
,
00010000
00000000
00002000
00000000
01000000
00003000
00000000
0000M000
01000000
00000000
00020000
00000000
10000000
00030000
00000000
000M0000
,
01000000
00100000
00000000
00100000
10000000
00010000
10000000
00010000
,
01000000
00001000
00020000
00000100
00000000
00000010
00000000
00031000
,
00011000
00000000
00010000
00000100
00000000
00001000
00000010
00000001
,
00000010
00010000
00000000
00001000
00000000
00100000
01000000
00000000
,
00100000
00000000
00002000
00M00000
00000000
00000000
00000000
00000000
01003000
00000000
00010000
00000000
00100000
00000000
00001000
00000000
,
00010000
00000100
00001000
00000100
00000010
00000001
00000000
00000001
,
00000100
00001000
00010000
00001000
00000010
00001000
00010000
01000000
,
00020000
00000000
00031000
00010000
00000000
00010000
00100000
00010000
,
00001000
00010000
00000000
00010000
00000200
00001000
00001300
00000100
,
00000010
00000100
00000000
00010100
00000000
00011000
00000000
00001000
,
01000000
00100000
01000000
00010000
00000000
00010000
10000000
00100000
,
00020000
00001000
00000000
01000000
00000000
00031000
00011000
00000000
,
00010000
00000000
00000200
000M0000
00000000
00000000
00000000
00000000
00001300
00000000
00000100
00000000
00000000
00000000
00000100
00000000
,
00000010
00000001
00000100
00000000
00000010
00010000
00001000
00000000
,
00100000
00000000
00010000
00000000
01000000
00000000
00000000
00000000
00100000
00000000
00000000
10010000
00000000
00000000
01000000
00000000
,
00010000
10000000
00200000
00000000
00010000
00320000
00000000
00001000
,
00000000
00030100
00010000
00000000
00001000
00010000
00000000
00010000
,
00000100
00001000
00000200
00000000
00000010
00000320
00000000
00001000
,
00000000
00000000
00000031
00000000
00000010
00000000
00000000
00000000
00000100
00000000
00010000
00001000
00000000
00001000
00010000
00000000
,
01000000
10000000
02000000
00000000
03100000
01000000
10000000
01000000
,
00000000
01000000
00100000
00000000
00100000
00001000
00000000
00001000
,
00000100
00000010
00000100
00000000
00000100
00000001
00000000
00001001
,
00000000
00000000
00000001
00000000
00000100
00000000
00000000
00000000
00000010
00000000
00010000
00001000
00000000
00001000
00010000
00000000
,
00100000
10000000
00200000
00000000
01300000
00100000
00000000
10100000
,
00000000
10000000
01000000
00100000
00010000
00100000
00000000
00100000
,
01000000
00010000
00002000
00000000
00013000
00001000
00000000
00000100
,
00000000
00000000
00000010
00000000
00001000
00000000
00000000
00000000
00000100
00000000
00010000
00001000
00000000
00001000
00010000
00000000
,
00000010
00010000
00001000
00000000
01000000
00010000
00000000
10100000
,
00000000
10000000
01000000
00000000
01000000
00010000
00000000
00010000
,
00001000
00000010
00000001
00000000
00000100
00000010
00000000
00010010
,
00000000
00000000
00010000
00000000
00001000
00000000
00000000
00000000
01000000
00000000
00001000
00010000
00000000
00010000
00001000
00000000
,
00000100
00000000
00000000
00000000
,
00000001
00000000
00000001
00000010
00000100
00010000
00001000
01000000
,
00010000
00000000
10010000
00000000
10000000
01000000
10000000
00010000
,
20000000
00000000
01000000
31000000
00000000
10000000
00100000
00010000
,
00001000
00010000
00000000
00010000
01000000
00010000
00001000
00010000
,
00000100
00001000
00000000
00000011
00000000
00000100
00000000
00001000
,
00000010
00000100
00001000
00010000
00000000
01000000
10000000
00100000
,
10000000
00010000
00000000
01001000
00000000
00010000
00000100
00000000
,
00001000
00000000
00000002
0000M000
00000000
00000000
00000000
00000000
00000013
00000000
00000001
00000000
00000010
00000000
00001000
00000000
,
00010000
00000000
00010000
01000000
00010000
00000000
00012000
00000000
,
00003100
00000000
00000100
00001000
00000100
00000000
00002100
00000000
,
00013000
00000000
00010000
01000000
00000000
01000000
10000000
00100000
,
01000000
00010000
00000000
00010000
00200000
00001000
00301000
00100000
,
00010000
00000000
01000000
10000000
01000000
00000000
00001000
00000000
,
00010000
00000000
00000010
00001000
00000010
00000000
00000001
00000000
,
00000010
00000100
00000000
00001001
00000000
00000100
00010000
00000000
,
00001000
00000000
02000000
0000M000
00000000
00000000
00000000
00000000
03010000
00000000
01000000
00000000
00100000
00000000
10000000
00000000
,
01000000
00000000
00010000
00000000
01000000
00000000
00100000
00000000
00001000
00000000
00010000
00001000
00000000
00000000
00020000
00000000
,
00000000
00000000
00030100
00000000
00001000
00000000
00000001
00000000
00000010
00000000
00001000
00010000
00000000
00000000
00002000
00000000
,
00000000
00000000
00103000
00000000
00010000
00000000
01000000
00000000
00100000
00000000
10000000
01000000
00000000
00000000
00200000
00000000
,
00000000
00000000
00310000
00000000
01000000
00000000
00001000
00000000
00010000
00000000
00000100
00001000
00000000
00001000
00000100
00000000
,
00000010
00000000
00000002
00000000
00000010
00000000
00000000
00000000
00000100
00000000
00000000
00000100
00000000
00000000
00001003
00000000
,
00000000
00000000
00002000
00000000
00000001
00000000
00000000
00000000
00000010
00000000
00000000
00000010
00000000
00000000
00003100
00000000
,
00000000
00000000
00000200
00000000
00010000
00000000
00000000
00000000
00001000
00000000
00000000
00001000
00000000
00000000
00010300
00000000
,
00000000
00000000
00020000
00000000
00001000
00000000
00000000
00000000
01000000
00000000
00000000
01000000
00000000
00000000
00031000
00000000
,
00011000
00000000
00000000
00000000
;
