#TITLE:Toilet Story 5;
#SUBTITLE:EXoduz Violation II;
#ARTIST:Ghidorah;
#TITLETRANSLIT:;
#SUBTITLETRANSLIT:;
#ARTISTTRANSLIT:;
#CREDIT:;
#BANNER:../Banner.png;
#BACKGROUND:../Background.png;
#LYRICSPATH:;
#CDTITLE:;
#MUSIC:Ghidorah - Toilet story 5.ogg;
#OFFSET:1.662;
#SAMPLESTART:100.133;
#SAMPLELENGTH:12.000;
#SELECTABLE:YES;
#DISPLAYBPM:141.000;
#BPMS:0.000=141.000;
#STOPS:;
#BGCHANGES:;
// cache tags:
#FIRSTBEAT:4.000;
#LASTBEAT:279.000;
#SONGFILENAME:Songs/EXoduz Violation II/Toilet story 5 - [Ov3rHell3XoduZ]/Ghidorah - Toilet story 5.sm;
#HASMUSIC:1;
#HASBANNER:1;
#MUSICLENGTH:118.080;
// end cache tags

//---------------dance-single - ----------------
#NOTES:
     dance-single:
     :
     Beginner:
     14:
     1.000,1.000,0.339,0.889,1.000,790.000,40.000,105.000,0.000,0.000:

0000
0000
0000
0000
,
1000
0000
0000
0100
0000
0000
0010
0000
0001
0000
0000
0100
0000
0000
0010
0000
,
1000
0000
0000
0001
0000
0000
0010
0000
0100
0000
0000
1000
0000
0000
0001
0000
,
0100
0000
0000
0010
0000
0000
1000
0000
0100
0000
0000
0010
0000
0000
0001
0000
,
1000
0000
0000
0100
0000
0000
1000
0000
0010
0000
0000
0100
0000
0000
0001
0000
,
0110
0000
0000
0100
0000
0000
1100
0000
1001
0000
0000
0001
0000
0000
0110
0000
,
1010
0000
0000
0100
0000
0000
0110
0000
0022
0000
0000
0000
0000
0000
0033
0000
,
1001
0000
0000
0001
0000
0000
0110
0000
0101
0000
0000
0001
0000
0000
0011
0000
,
0110
0000
0000
0100
0000
0000
1100
0000
1010
0000
0000
0100
0000
0000
0101
0000
,
1001
0000
0000
1000
0000
0000
1100
0000
0110
0000
0000
0010
0000
0000
0011
0000
,
0101
0000
0000
0100
0000
0000
1010
0000
1100
0000
0000
0100
0000
0000
0110
0000
,
0011
0000
0000
0001
0000
0000
0101
0000
1010
0000
0000
1000
0000
0000
1100
0000
,
0110
0000
0000
0010
0000
0000
0011
0000
0101
0000
0000
0100
0000
0010
1000
0001
,
0020
0000
0000
0230
0000
0000
1300
0001
0200
0000
0000
0320
0000
0000
1030
0001
,
0200
0000
0000
0320
0000
0000
1030
0100
0020
0000
0000
0032
0000
0000
1003
0010
,
2000
0000
0000
3002
0000
0000
0103
0010
2000
0000
0000
3200
0000
0000
0310
0001
,
0020
0000
0000
0230
0000
0000
1300
0001
0100
0010
0000
1000
0100
0000
0011
0000
,
0201
0000
0000
0320
0000
0000
1030
0001
0200
0000
0000
0320
0000
0000
1030
0100
,
0020
0000
0000
0032
0000
0000
1003
0010
2000
0000
0000
3002
0000
0000
0103
0010
,
2000
0000
0000
3002
0000
0000
0013
0100
2000
0000
0000
3002
0000
0000
0103
0010
,
2000
0000
0000
3002
0000
0000
0013
0001
2000
0000
0000
3200
0000
0000
0310
0001
,
1000
0000
0001
0200
0000
0000
0310
0000
1000
0000
0100
0000
1000
0000
0010
0000
,
0100
0000
0001
0010
0100
0000
1000
0000
1010
0000
0000
0000
0000
0000
0000
0000
,
0101
0000
0001
0010
0100
0000
1000
0001
1000
0000
0001
0000
0100
0000
0010
0000
,
1000
0100
0010
0001
1000
0010
0100
0001
0020
0000
0000
0000
0000
0000
0030
0000
,
1100
0000
0001
0020
0000
0230
0000
0000
1300
0000
0001
0000
0100
0000
0010
0000
,
1000
0000
0100
0000
0000
0000
0010
0001
0010
0000
0000
0000
0100
1000
0001
0000
,
0100
0000
0010
1000
0000
0001
0000
0010
0100
0000
1000
0000
0001
0000
0100
0000
,
0010
1000
0100
1000
0001
0000
1000
0100
0010
0000
0000
0000
0000
0000
0000
0000
,
0001
0000
1000
0000
0010
0000
0100
0001
1000
0000
0100
0000
0010
0000
0001
0000
1000
0000
0010
0000
1000
0000
0001
0010
0001
0000
1000
0000
0010
0000
1000
0000
,
0001
0000
0010
0000
0001
0000
1000
0010
0100
0000
0001
0000
0010
0000
0001
0000
1000
0000
0100
0000
0010
0000
0001
1000
0001
0000
0100
0000
0010
0000
1000
0000
,
0001
0000
0010
0000
0001
0000
1000
0010
0100
0000
0001
0000
1000
0000
0001
0000
0010
0000
0001
0000
1000
0000
0010
0100
0001
0000
0100
0000
0001
0000
0010
0000
,
0001
0000
0000
0000
0000
0000
0000
0000
0000
0000
0000
0000
1000
0000
0000
0000
0000
0000
0000
0000
0000
0000
0000
0000
0100
0000
0000
0000
0000
0000
0000
0000
0000
0000
0000
0000
0010
0000
0000
0000
0000
0000
0001
0000
0000
0000
0000
0000
1000
0000
0000
0000
0000
0000
0000
0000
0000
0000
0000
0000
0010
0000
0000
0000
0000
0000
0000
0000
0000
0000
0000
0000
0100
0000
0000
0000
0000
0000
0000
0000
0000
0000
0000
0000
0001
0000
0000
0000
0000
0000
0000
0000
0000
0000
0000
0000
0010
0000
0000
0000
0000
0000
0000
0000
0100
0000
0000
0000
0000
0000
0000
0000
1000
0000
0000
0000
0000
0000
0000
0000
0001
0000
0000
0000
0000
0000
0000
0000
0100
0000
0000
0000
0000
0000
0000
0000
0001
0000
0000
0000
0000
0000
0000
0000
0100
0000
0000
0000
0000
0000
0000
0000
0010
0000
0000
0000
0000
0000
0000
0000
1000
0000
0000
0000
0000
0000
0000
0000
0001
0000
0000
0000
0000
0000
0000
0000
0010
0000
0000
0000
0000
0000
0000
0000
0001
0000
0000
0000
0000
0000
0000
0000
,
2000
3000
0002
0203
0300
0020
2030
3000
0002
0003
0020
0230
0300
2000
3002
0003
,
0100
0010
1000
0100
1000
0100
0010
0001
0010
0001
1000
0010
1000
0001
0100
0010
1000
0001
1000
0001
0100
0001
1000
0001
,
2000
3000
0200
0320
0030
0200
0320
0030
0002
0003
0200
0320
0030
0200
0320
0030
,
1000
0000
0100
0000
1000
0000
0100
0000
1000
0000
0010
0000
1000
0000
0010
0000
0100
0000
0001
0000
0010
0000
0001
0000
1000
0000
0010
0000
1000
0000
0100
0000
0010
0000
0001
0000
1000
0000
0000
0001
0000
0000
0000
0000
0000
1000
0000
0000
,
0010
0000
0000
0000
,
0000
0000
0100
0001
0010
0000
0100
0000
2000
0000
0000
0000
3002
0000
0000
0000
,
0103
0000
0010
0000
0000
0000
1010
0000
0000
0000
0000
0000
0000
0000
0000
1000
,
0002
0003
2000
3000
0200
0300
0020
0030
0002
0003
0000
0000
0200
0300
0000
0000
,
0020
0030
2000
3000
0000
0000
0002
0003
0020
0030
0000
0000
0000
0000
0000
0000
,
0000
1000
0001
0100
0020
0030
2020
3030
,
2200
0000
3300
0000
0000
0000
0000
0000
0100
0000
0010
0001
0100
0000
0010
0000
,
0000
1000
0001
0010
0200
0300
2200
3300
,
1002
0000
0000
0000
0000
0000
0000
0000
1003
0000
1000
0100
0010
0000
0000
0000
,
0001
0000
1000
0000
0100
0000
1000
0010
1000
0000
0001
0000
0100
0000
0001
0000
0010
0000
0001
0000
1000
0000
0010
0100
0001
0000
1000
0000
0100
0000
1000
0000
,
0001
0000
0010
0000
0001
0000
1000
0100
1000
0000
0001
0000
0100
0000
0001
0000
1000
0000
0010
0000
1000
0000
0100
0010
0001
0000
1000
0000
0100
0000
1000
0000
,
0001
0000
0000
0000
0000
0000
0000
0000
0000
0000
0000
0000
0100
0000
0000
0000
0000
0000
0000
0000
0000
0000
0000
0000
0001
0000
0000
0000
0000
0000
0000
0000
0000
0000
0000
0000
1000
0000
0000
0000
0000
0000
0010
0000
0000
0000
0000
0000
0100
0000
0000
0000
0000
0000
0000
0000
0000
0000
0000
0000
0001
0000
0000
0000
0000
0000
0000
0000
0000
0000
0000
0000
0010
0000
0000
0000
0000
0000
0000
0000
0000
0000
0000
0000
0001
0000
0000
0000
0000
0000
0000
0000
0000
0000
0000
0000
1000
0000
0000
0000
0000
0000
0000
0000
0100
0000
0000
0000
0000
0000
0000
0000
1000
0000
0000
0000
0000
0000
0000
0000
0010
0000
0000
0000
0000
0000
0000
0000
0000
0000
0000
0000
0100
0000
0000
0000
0000
0000
0001
0000
0000
0000
0000
0000
1000
0000
0000
0000
0000
0000
0000
0000
0000
0000
0000
0000
0100
0000
0000
0000
0000
0000
0000
0000
0000
0000
0000
0000
1000
0000
0000
0000
0000
0000
0000
0000
0000
0000
0000
0000
0001
0000
0000
0000
0000
0000
0000
0000
0000
0000
0000
0000
,
0100
0000
0000
0000
0000
0000
0000
0000
0000
0000
0000
0000
0001
0000
0000
0000
0000
0000
0000
0000
0000
0000
0000
0000
0010
0000
0000
0000
0000
0000
0000
0000
0000
0000
0000
0000
0001
0000
0000
0000
0000
0000
1000
0000
0000
0000
0000
0000
0010
0000
0000
0000
0000
0000
0000
0000
0000
0000
0000
0000
0100
0000
0000
0000
0000
0000
0000
0000
0000
0000
0000
0000
0001
0000
0000
0000
0000
0000
0000
0000
0000
0000
0000
0000
0010
0000
0000
0000
0000
0000
0000
0000
0000
0000
0000
0000
0001
0000
0000
0000
0000
0000
0000
0000
1000
0000
0000
0000
0000
0000
0000
0000
0100
0000
0000
0000
0000
0000
0000
0000
1000
0000
0000
0000
0000
0000
0000
0000
0001
0000
0000
0000
0000
0000
0000
0000
0100
0000
0000
0000
0000
0000
0000
0000
0001
0000
0000
0000
0000
0000
0000
0000
0010
0000
0000
0000
0000
0000
0000
0000
0001
0000
0000
0000
0000
0000
0000
0000
0010
0000
0000
0000
0000
0000
0000
0000
0001
0000
0000
0000
0000
0000
0000
0000
1000
0000
0000
0000
0000
0000
0000
0000
,
0020
0030
0200
0302
0003
2000
3200
0300
0020
0030
0002
0203
0300
0020
2030
3000
,
0001
0100
0001
0100
0010
1000
0010
1000
0100
1000
0001
0100
0010
1000
0001
0010
0001
1000
0010
1000
0100
1000
0100
0010
,
0002
0003
2000
3200
0300
0020
0032
0003
2000
3000
0020
0230
0300
0002
0023
0030
,
0100
0000
1000
0000
0100
0000
1000
0000
0010
0000
0100
0000
0001
0000
0010
0000
0001
0000
1000
0000
0001
0000
0100
0000
0010
0000
1000
0000
0001
0000
0010
0000
0001
0000
1000
0000
0010
0000
0000
0100
0000
0000
0000
0000
0000
0001
0000
0000
,
0010
0100
1000
0001
0100
0001
1000
0010
1000
0100
1000
0010
0100
0001
0010
0001
,
1000
0000
0000
0010
0000
0000
0100
0000
0000
0001
0000
0000
1000
0000
0000
0100
0000
0000
1000
0000
0000
0001
0000
0000
0100
0000
0010
0000
1000
0000
0001
0000
0010
0000
0001
0000
1000
0000
0010
0000
1000
0000
0001
0000
1000
0000
0001
0000
,
1000
0100
0010
0001
1000
0010
1000
0100
1000
0001
0100
0010
1000
0001
0010
0001
,
1000
0000
0000
0010
0000
0000
0100
0000
0000
0010
0000
0000
1000
0000
0000
0100
0000
0000
0010
0000
0000
0001
0000
0000
1000
0000
0100
0000
1000
0000
0001
0000
0100
0000
0001
0000
0100
0000
0010
0000
1000
0000
0010
0000
0100
0000
0001
0000
,
0010
0100
1000
0001
0100
0010
1000
0100
1000
0010
0100
0001
1000
0001
0010
0001
,
1000
0010
0100
0010
1000
0100
0010
0001
1000
0100
1000
0010
1000
0100
1000
0010
,
1000
0001
0100
0010
1000
0001
0100
0010
1000
0100
1000
0010
0100
0001
1000
0001
,
0010
0001
1000
0010
0100
0010
1000
0001
0020
0230
2300
3002
0003
0000
0000
0000
,
1000
0100
1000
0010
0100
0001
1000
0001
0010
0001
1000
0010
1000
0100
1000
0010
,
0100
0000
0000
0010
0000
0000
1000
0000
0000
0001
0000
0000
0100
0000
0000
0010
0000
0000
1000
0000
0000
0001
0000
0000
0010
0000
0100
0000
0010
0000
0100
0000
1000
0000
0001
0000
0100
0000
0001
0000
0100
0000
0010
0000
1000
0000
0001
0000
,
0010
0100
1000
0001
0100
0001
1000
0010
1000
0100
0010
0100
1000
0001
0010
0100
,
1000
0000
0000
0010
0000
0000
0100
0000
0000
0001
0000
0000
1000
0000
0000
0001
0000
0000
0010
0000
0000
0001
0000
0000
1000
0000
0100
0000
1000
0000
0100
0000
0010
0000
0001
0000
0010
0000
0001
0000
1000
0000
0010
0000
0100
0000
0001
0000
,
1000
0100
1000
0001
0100
0001
1000
0010
0100
0010
1000
0001
0100
0010
1000
0001
,
0010
0001
1000
0100
0010
0100
1000
0001
0100
0010
0100
0001
0010
0100
1000
0001
,
0010
0100
0010
0001
1000
0010
0100
0010
1000
0001
0100
0001
1000
0100
0010
0100
,
1000
0010
0100
0001
1000
0001
0010
0001
2000
3200
0320
0032
0003
0000
0000
0000
;

//---------------dance-single - ----------------
#NOTES:
     dance-single:
     :
     Easy:
     15:
     1.000,1.000,0.339,0.872,1.000,798.000,40.000,103.000,0.000,0.000:

0000
0000
0000
0000
,
1000
0000
0000
0100
0000
0000
0010
0000
0001
0000
0000
0100
0000
0000
0010
0000
,
1000
0000
0000
0001
0000
0000
0010
0000
0100
0000
0000
1000
0000
0000
0001
0000
,
0100
0000
0000
0010
0000
0000
1000
0000
0100
0000
0000
0010
0000
0000
0001
0000
,
1000
0000
0000
0100
0000
0000
1000
0000
0010
0000
0000
0100
0000
0000
0001
0000
,
0110
0000
0000
0100
0000
0000
1100
0000
1001
0000
0000
0001
0000
0000
0110
0000
,
1010
0000
0000
0100
0000
0000
0110
0000
0022
0000
0000
0000
0000
0000
0033
0000
,
1001
0000
0000
0001
0000
0000
0110
0000
0101
0000
0000
0001
0000
0000
0011
0000
,
0110
0000
0000
0100
0000
0000
1100
0000
1010
0000
0000
0100
0000
0000
0101
0000
,
1001
0000
0000
1000
0000
0000
1100
0000
0110
0000
0000
0010
0000
0000
0011
0000
,
0101
0000
0000
0100
0000
0000
1010
0000
1100
0000
0000
0100
0000
0000
0110
0000
,
0011
0000
0000
0001
0000
0000
0101
0000
1010
0000
0000
1000
0000
0000
1100
0000
,
0110
0000
0000
0010
0000
0000
0011
0000
0101
0000
0000
0100
0000
0010
1000
0001
,
0020
0000
0000
0230
0000
0000
1300
0001
0200
0000
0000
0320
0000
0000
1030
0001
,
0200
0000
0000
0320
0000
0000
1030
0100
0020
0000
0000
0032
0000
0000
1003
0010
,
2000
0000
0000
3002
0000
0000
0103
0010
2000
0000
0000
3200
0000
0000
0310
0001
,
0020
0000
0000
0230
0000
0000
1300
0001
0100
0010
0000
1000
0100
0000
0011
0000
,
0201
0000
0000
0320
0000
0000
1030
0001
0200
0000
0000
0320
0000
0000
1030
0100
,
0020
0000
0000
0032
0000
0000
1003
0010
2000
0000
0000
3002
0000
0000
0103
0010
,
2000
0000
0000
3002
0000
0000
0013
0100
2000
0000
0000
3002
0000
0000
0103
0010
,
2000
0000
0000
3002
0000
0000
0013
0001
2000
0000
0000
3200
0000
0000
0310
0001
,
1000
0000
0001
0200
0000
0000
0310
0000
1000
0000
0100
0000
1000
0000
0010
0000
,
0100
0000
0001
0010
0100
0000
1000
0000
1010
0000
0000
0000
0000
0000
0000
0000
,
0101
0000
0001
0010
0100
0000
1000
0001
1000
0000
0001
0000
0100
0000
0010
0000
,
1000
0100
0010
0001
1000
0010
0100
0001
0020
0000
0000
0000
0000
0000
0030
0000
,
1100
0000
0001
0020
0000
0230
0000
0000
1300
0000
0001
0000
0100
0000
0010
0000
,
1000
0000
0100
0000
0000
0000
0010
0001
0010
0000
0000
0000
0100
1000
0001
0000
,
0100
0000
0010
1000
0000
0001
0000
0010
0100
0000
1000
0000
0001
0000
0100
0000
,
0010
1000
0100
1000
0001
0000
1000
0100
0010
0000
0000
0000
0000
0000
0000
0000
,
0001
0000
1000
0000
0010
0000
0100
0001
1000
0000
0100
0000
0010
0000
0001
0000
1000
0000
0010
0000
1000
0000
0001
0010
0001
0000
1000
0000
0010
0000
1000
0000
,
0001
0000
0010
0000
0001
0000
1000
0010
0100
0000
0001
0000
0010
0000
0001
0000
1000
0000
0100
0000
0010
0000
0001
1000
0001
0000
0100
0000
0010
0000
1000
0000
,
0001
0000
0010
0000
0001
0000
1000
0010
0100
0000
0001
0000
1000
0000
0001
0000
0010
0000
0001
0000
1000
0000
0010
0100
0001
0000
0100
0000
0001
0000
0010
0000
,
0001
0000
1000
0000
0100
0000
0010
0001
1000
0000
0010
0000
0100
0000
0001
0000
0010
0100
1000
0001
0100
0010
1000
0001
0010
0001
1000
0010
0100
0001
0010
0100
,
2000
3000
0002
0203
0300
0020
2030
3000
0002
0003
0020
0230
0300
2000
3002
0003
,
1000
0100
0010
0001
1000
0010
0100
0001
1000
0010
0100
0001
0010
0001
1000
0100
0010
0001
1000
0010
0100
0001
0010
0100
,
1000
0000
0200
0320
0030
0200
0320
0030
0002
0003
0200
0320
0030
0200
0320
0030
,
1000
0000
0100
0000
0010
0000
0001
0000
1000
0000
0010
0000
0100
0000
0001
0000
1000
0000
0010
0000
0100
0000
0001
0000
0010
0000
0001
0000
1000
0000
0100
0000
0010
0000
0100
0000
1000
0000
0000
0001
0000
0000
0000
0000
0000
1000
0000
0000
,
0010
0000
0000
0000
,
0000
0000
0100
0001
0010
0000
0100
0000
2000
0000
0000
0000
3002
0000
0000
0000
,
0103
0000
0010
0000
0000
0000
1010
0000
0000
0000
0000
0000
0000
0000
0000
1000
,
0002
0003
2000
3000
0200
0300
0020
0030
0002
0003
0000
0000
0200
0300
0000
0000
,
0020
0030
2000
3000
0000
0000
0002
0003
0020
0030
0000
0000
0000
0000
0000
0000
,
0000
1000
0001
0100
0020
0030
2020
3030
,
2200
0000
3300
0000
0000
0000
0000
0000
0100
0000
0010
0001
0100
0000
0010
0000
,
0000
1000
0001
0010
0200
0300
2200
3300
,
1002
0000
0000
0000
0000
0000
0000
0000
1003
0000
1000
0100
0010
0000
0000
0000
,
0001
0000
1000
0000
0100
0000
1000
0010
1000
0000
0001
0000
0100
0000
0001
0000
0010
0000
0001
0000
1000
0000
0010
0100
0001
0000
1000
0000
0100
0000
1000
0000
,
0001
0000
0010
0000
0001
0000
1000
0100
1000
0000
0001
0000
0100
0000
0001
0000
1000
0000
0010
0000
1000
0000
0100
0010
0001
0000
1000
0000
0100
0000
1000
0000
,
0001
0000
0000
0000
0000
0000
0000
0000
0000
0000
0000
0000
0100
0000
0000
0000
0000
0000
0000
0000
0000
0000
0000
0000
0001
0000
0000
0000
0000
0000
0000
0000
0000
0000
0000
0000
1000
0000
0000
0000
0000
0000
0010
0000
0000
0000
0000
0000
0100
0000
0000
0000
0000
0000
0000
0000
0000
0000
0000
0000
0001
0000
0000
0000
0000
0000
0000
0000
0000
0000
0000
0000
0010
0000
0000
0000
0000
0000
0000
0000
0000
0000
0000
0000
0001
0000
0000
0000
0000
0000
0000
0000
0000
0000
0000
0000
1000
0000
0000
0000
0000
0000
0000
0000
0100
0000
0000
0000
0000
0000
0000
0000
1000
0000
0000
0000
0000
0000
0000
0000
0010
0000
0000
0000
0000
0000
0000
0000
0000
0000
0000
0000
0100
0000
0000
0000
0000
0000
0001
0000
0000
0000
0000
0000
1000
0000
0000
0000
0000
0000
0000
0000
0000
0000
0000
0000
0100
0000
0000
0000
0000
0000
0000
0000
0000
0000
0000
0000
1000
0000
0000
0000
0000
0000
0000
0000
0000
0000
0000
0000
0001
0000
0000
0000
0000
0000
0000
0000
0000
0000
0000
0000
,
0100
0000
0000
0000
0000
0000
0000
0000
0000
0000
0000
0000
0001
0000
0000
0000
0000
0000
0000
0000
0000
0000
0000
0000
0010
0000
0000
0000
0000
0000
0000
0000
0000
0000
0000
0000
0001
0000
0000
0000
0000
0000
1000
0000
0000
0000
0000
0000
0010
0000
0000
0000
0000
0000
0000
0000
0000
0000
0000
0000
0100
0000
0000
0000
0000
0000
0000
0000
0000
0000
0000
0000
0001
0000
0000
0000
0000
0000
0000
0000
0000
0000
0000
0000
0010
0000
0000
0000
0000
0000
0000
0000
0000
0000
0000
0000
0001
0000
0000
0000
0000
0000
0000
0000
1000
0000
0000
0000
0000
0000
0000
0000
0100
0000
0000
0000
0000
0000
0000
0000
0010
0000
0000
0000
0000
0000
0000
0000
0100
0000
0000
0000
0000
0000
0000
0000
1000
0000
0000
0000
0000
0000
0000
0000
0001
0000
0000
0000
0000
0000
0000
0000
0100
0000
0000
0000
0000
0000
0000
0000
0010
0000
0000
0000
0000
0000
0000
0000
1000
0000
0000
0000
0000
0000
0000
0000
0001
0000
0000
0000
0000
0000
0000
0000
0100
0000
0000
0000
0000
0000
0000
0000
,
0020
0030
0200
0302
0003
2000
3200
0300
0020
0030
0002
0203
0300
0020
2030
3000
,
0001
0100
0010
1000
0001
0100
0010
1000
0001
0010
0001
1000
0100
0010
0100
1000
0010
0100
0001
1000
0100
0010
0100
1000
,
0001
0000
2000
3200
0300
0020
0032
0003
2000
3000
0020
0230
0300
0002
0023
0030
,
0100
0000
1000
0000
0001
0000
0100
0000
0010
0000
1000
0000
0010
0000
0100
0000
0001
0000
1000
0000
0100
0000
0010
0000
0001
0000
0010
0000
0100
0000
1000
0000
0001
0000
0100
0000
0010
0000
0000
0100
0000
0000
0000
0000
0000
0001
0000
0000
,
0010
0100
1000
0001
0100
0001
1000
0010
1000
0100
1000
0010
0100
0001
0010
0001
,
1000
0000
0000
0010
0000
0000
0100
0000
0000
0001
0000
0000
1000
0000
0000
0100
0000
0000
1000
0000
0000
0001
0000
0000
1000
0000
0100
0000
0010
0000
0100
0000
1000
0000
0001
0000
0010
0000
0100
0000
0010
0000
0001
0000
1000
0000
0100
0000
,
1000
0100
0010
0001
1000
0010
1000
0100
1000
0001
0100
0010
1000
0001
0010
0001
,
1000
0000
0000
0010
0000
0000
0100
0000
0000
0010
0000
0000
1000
0000
0000
0100
0000
0000
0010
0000
0000
0001
0000
0000
1000
0000
0010
0000
0100
0000
0001
0000
1000
0000
0010
0000
0100
0000
0001
0000
1000
0000
0100
0000
1000
0000
0001
0000
,
0010
0100
1000
0001
0100
0010
1000
0100
1000
0010
0100
0001
1000
0001
0010
0001
,
1000
0010
0100
0010
1000
0100
0010
0001
1000
0100
1000
0010
1000
0100
1000
0010
,
1000
0001
0100
0010
1000
0001
0100
0010
1000
0100
1000
0010
0100
0001
1000
0001
,
0010
0001
1000
0010
0100
0010
1000
0001
0020
0230
2300
3002
0003
0000
0000
0000
,
1000
0100
1000
0010
0100
0001
1000
0001
0010
0001
1000
0010
1000
0100
1000
0010
,
0100
0000
0010
0000
1000
0000
0001
0000
0100
0000
0010
0000
1000
0000
0001
0000
0010
0100
1000
0001
0100
0010
1000
0001
0010
0001
1000
0100
0010
0100
1000
0001
,
0010
0100
1000
0001
0100
0001
1000
0010
1000
0100
0010
0100
1000
0001
0010
0100
,
1000
0000
0000
0010
0000
0000
0100
0000
0000
0001
0000
0000
1000
0000
0000
0001
0000
0000
0010
0000
0000
0001
0000
0000
1000
0000
0100
0000
1000
0000
0010
0000
0100
0000
0001
0000
1000
0000
0010
0000
0100
0000
0001
0000
0010
0000
0100
0000
,
1000
0100
1000
0001
0100
0001
1000
0010
0100
0010
1000
0001
0100
0010
1000
0001
,
0010
0001
1000
0100
0010
0100
1000
0001
0100
0010
0100
0001
0010
0100
1000
0001
,
0010
0100
0010
0001
1000
0010
0100
0010
1000
0001
0100
0001
1000
0100
0010
0100
,
1000
0010
0100
0001
1000
0001
0010
0001
2000
3200
0320
0032
0003
0000
0000
0000
;

//---------------dance-single - ----------------
#NOTES:
     dance-single:
     :
     Medium:
     16:
     1.000,1.000,0.330,0.872,1.000,871.000,39.000,103.000,0.000,0.000:

0000
0000
0000
0000
,
1000
0000
0000
0100
0000
0000
0010
0000
0001
0000
0000
0100
0000
0000
0010
0000
,
1000
0000
0000
0001
0000
0000
0010
0000
0100
0000
0000
1000
0000
0000
0001
0000
,
0100
0000
0000
0010
0000
0000
1000
0000
0100
0000
0000
0010
0000
0000
0001
0000
,
1000
0000
0000
0100
0000
0000
1000
0000
0010
0000
0000
0100
0000
0000
0001
0000
,
0110
0000
0000
0100
0000
0000
1100
0000
1001
0000
0000
0001
0000
0000
0110
0000
,
1010
0000
0000
0100
0000
0000
0110
0000
0022
0000
0000
0000
0000
0000
0033
0000
,
1001
0000
0000
0001
0000
0000
0110
0000
0101
0000
0000
0001
0000
0000
0011
0000
,
0110
0000
0000
0100
0000
0000
1100
0000
1010
0000
0000
0100
0000
0000
0101
0000
,
1001
0000
0000
1000
0000
0000
1100
0000
0110
0000
0000
0010
0000
0000
0011
0000
,
0101
0000
0000
0100
0000
0000
1010
0000
1100
0000
0000
0100
0000
0000
0110
0000
,
0011
0000
0000
0001
0000
0000
0101
0000
1010
0000
0000
1000
0000
0000
1100
0000
,
0110
0000
0000
0010
0000
0000
0011
0000
0101
0000
0000
0100
0000
0010
1000
0001
,
0020
0130
1000
0002
0103
0010
1000
0001
0200
0310
1000
0200
0310
0001
1000
0001
,
0200
0310
1000
0002
0013
0100
1000
0100
0020
0031
1000
0002
0103
0010
1000
0001
,
0020
0130
1000
0002
0103
0010
1000
0100
0020
0031
1000
0200
1300
0010
0100
0001
,
0020
0130
1000
0002
0103
0010
1000
0001
0100
0010
1000
0100
0010
0000
0011
0000
,
0002
0103
0010
2000
3100
0010
0001
1000
0200
1300
0010
0200
0301
0010
0100
1000
,
0002
1003
0100
2000
3010
0100
0001
0010
0200
1300
0010
2000
3100
0010
0001
0100
,
0020
1030
0100
2000
3010
0100
0001
1000
0200
0310
0001
2000
3010
0100
0001
1000
,
0200
0310
0001
2000
3010
0100
0001
1000
0200
0310
0100
2000
3010
0100
0001
0010
,
0001
0000
0001
0200
0000
0000
0310
0000
1000
0000
0100
0000
1000
0000
0010
0000
,
0100
0000
0001
0010
0100
0000
1000
0000
1010
0000
0000
0000
0000
0000
0000
0000
,
0101
0000
0001
0010
0100
0000
1000
0001
1000
0000
0001
0000
0100
0000
0010
0000
,
1000
0100
0010
0001
1000
0010
0100
0001
0020
0000
0000
0000
0000
0000
0030
0000
,
1100
0000
0001
0020
0000
0230
0000
0000
1300
0000
0001
0000
0100
0000
0010
0000
,
1000
0000
0100
0000
0000
0000
0010
0001
0010
0000
0000
0000
0100
1000
0001
0000
,
0100
0000
0010
1000
0000
0001
0000
0010
0100
0000
1000
0000
0001
0000
0100
0000
,
0010
1000
0100
1000
0001
0000
1000
0100
0010
0000
0000
0000
0000
0000
0000
0000
,
0001
0000
1000
0000
0010
0000
0100
0001
1000
0000
0100
0000
0010
0000
0001
0000
1000
0000
0010
0000
1000
0000
0001
0010
0001
0000
1000
0000
0010
0000
1000
0000
,
0001
0000
0010
0000
0001
0000
1000
0010
0100
0000
0001
0000
0010
0000
0001
0000
1000
0000
0100
0000
0010
0000
0001
1000
0001
0000
0100
0000
0010
0000
1000
0000
,
0001
0000
0010
0000
0001
0000
1000
0010
0100
0000
0001
0000
1000
0000
0001
0000
0010
0000
0001
0000
1000
0000
0010
0100
0001
0000
0100
0000
0001
0000
0010
0000
,
0001
0000
1000
0000
0100
0000
0010
0001
1000
0000
0010
0000
0100
0000
0001
0000
0010
0100
1000
0001
0100
0010
1000
0001
0010
0001
1000
0010
0100
0001
0010
0100
,
2000
3000
0002
0203
0300
0020
2030
3000
0002
0003
0020
0230
0300
2000
3002
0003
,
1000
0000
0000
0000
0000
0000
0100
0000
0000
0000
0000
0000
0010
0000
0000
0000
0000
0000
0001
0000
0000
0000
0000
0000
1000
0000
0000
0000
0000
0000
0010
0000
0000
0000
0000
0000
0100
0000
0000
0000
0000
0000
0010
0000
0000
0000
0000
0000
1000
0000
0000
0000
0000
0000
0100
0000
0000
0000
0000
0000
0010
0000
0000
0000
0000
0000
0001
0000
0000
0000
0000
0000
1000
0000
0000
0000
0000
0000
0100
0000
0000
0000
0000
0000
1000
0000
0000
0000
0000
0000
0010
0000
0000
0000
0000
0000
0100
0000
0000
0000
0000
0000
0000
0000
0001
0000
0000
0000
0000
0000
0000
0000
1000
0000
0000
0000
0000
0000
0000
0000
0100
0000
0000
0000
0000
0000
0000
0000
0010
0000
0000
0000
0000
0000
0000
0000
0001
0000
0000
0000
0000
0000
0000
0000
1000
0000
0000
0000
0000
0000
0000
0000
0010
0000
0000
0000
0000
0000
0000
0000
0100
0000
0000
0000
0000
0000
0000
0000
0001
0000
0000
0000
0000
0000
0000
0000
0010
0000
0000
0000
0000
0000
0000
0000
0100
0000
0000
0000
0000
0000
0000
0000
,
1000
0000
0200
0320
0030
0200
0320
0030
0002
0003
0200
0320
0030
0200
0320
0030
,
1000
0100
1000
0001
0100
0001
0010
0001
1000
0010
0100
0010
1000
0100
0010
0100
1000
0001
0010
0100
1000
0001
1000
0100
1000
0000
0001
0000
0000
0000
1000
0000
,
0010
0000
0000
0000
,
0000
0000
0100
0001
0010
0000
0100
0000
2000
0000
0000
0000
3002
0000
0000
0000
,
0103
0000
0010
0000
0000
0000
1010
0000
0000
0000
0000
0000
0000
0000
0000
1000
,
0002
0003
2000
3000
0200
0300
0020
0030
0002
0003
0000
0000
0200
0300
0000
0000
,
0020
0030
2000
3000
0000
0000
0002
0003
0020
0030
0000
0000
0000
0000
0000
0000
,
0000
1000
0001
0100
0020
0030
2020
3030
,
2200
0000
3300
0000
0000
0000
0000
0000
0100
0000
0010
0001
0100
0000
0010
0000
,
0000
1000
0001
0010
0200
0300
2200
3300
,
1002
0000
0000
0000
0000
0000
0000
0000
1003
0000
1000
0100
0010
0000
0000
0000
,
0001
0000
1000
0000
0100
0000
1000
0010
1000
0000
0001
0000
0100
0000
0001
0000
0010
0000
0001
0000
1000
0000
0010
0100
0001
0000
1000
0000
0100
0000
1000
0000
,
0001
0000
0010
0000
0001
0000
1000
0100
1000
0000
0001
0000
0100
0000
0001
0000
1000
0000
0010
0000
1000
0000
0100
0010
0001
0000
1000
0000
0100
0000
1000
0000
,
0001
0000
0100
0000
0001
0000
1000
0010
0100
0000
0001
0000
0010
0000
0001
0000
1000
0100
1000
0001
1000
0100
0010
0001
1000
0000
0100
0000
1000
0000
0001
0000
,
0100
0000
0000
0000
0000
0000
0000
0000
0000
0000
0000
0000
0001
0000
0000
0000
0000
0000
0000
0000
0000
0000
0000
0000
0010
0000
0000
0000
0000
0000
0000
0000
0000
0000
0000
0000
0001
0000
0000
0000
0000
0000
1000
0000
0000
0000
0000
0000
0010
0000
0000
0000
0000
0000
0000
0000
0000
0000
0000
0000
0100
0000
0000
0000
0000
0000
0000
0000
0000
0000
0000
0000
0001
0000
0000
0000
0000
0000
0000
0000
0000
0000
0000
0000
0010
0000
0000
0000
0000
0000
0000
0000
0000
0000
0000
0000
0001
0000
0000
0000
0000
0000
0000
0000
1000
0000
0000
0000
0000
0000
0000
0000
0100
0000
0000
0000
0000
0000
0000
0000
0010
0000
0000
0000
0000
0000
0000
0000
0100
0000
0000
0000
0000
0000
0000
0000
1000
0000
0000
0000
0000
0000
0000
0000
0001
0000
0000
0000
0000
0000
0000
0000
0100
0000
0000
0000
0000
0000
0000
0000
0010
0000
0000
0000
0000
0000
0000
0000
1000
0000
0000
0000
0000
0000
0000
0000
0001
0000
0000
0000
0000
0000
0000
0000
0100
0000
0000
0000
0000
0000
0000
0000
,
0020
0030
0200
0302
0003
2000
3200
0300
0020
0030
0002
0203
0300
0020
2030
3000
,
0001
0100
0010
1000
0001
0100
0010
1000
0001
0010
0001
1000
0100
0010
0100
1000
0010
0100
0001
1000
0100
0010
0100
1000
,
0001
0000
2000
3200
0300
0020
0032
0003
2000
3000
0020
0230
0300
0002
0023
0030
,
0100
0000
1000
0000
0001
0000
0100
0000
0010
0000
1000
0000
0010
0000
0100
0000
0001
0000
1000
0000
0100
0000
0010
0000
0001
0000
0010
0000
0100
0000
1000
0000
0001
0000
0100
0000
0010
0000
0000
0100
0000
0000
0000
0000
0000
0001
0000
0000
,
0010
0100
1000
0001
0100
0001
1000
0010
1000
0100
1000
0010
0100
0001
0010
0001
,
1000
0000
0000
0010
0000
0000
0100
0000
0000
0001
0000
0000
1000
0000
0000
0100
0000
0000
1000
0000
0000
0001
0000
0000
1000
0000
0100
0000
0010
0000
0100
0000
1000
0000
0001
0000
0010
0000
0100
0000
0010
0000
0001
0000
1000
0000
0100
0000
,
1000
0100
0010
0001
1000
0010
1000
0100
1000
0001
0100
0010
1000
0001
0010
0001
,
1000
0000
0000
0010
0000
0000
0100
0000
0000
0010
0000
0000
1000
0000
0000
0100
0000
0000
0010
0000
0000
0001
0000
0000
1000
0000
0010
0000
0100
0000
0001
0000
1000
0000
0010
0000
0100
0000
0001
0000
1000
0000
0100
0000
1000
0000
0001
0000
,
0010
0100
1000
0001
0100
0010
1000
0100
1000
0010
0100
0001
1000
0001
0010
0001
,
1000
0010
0100
0010
1000
0100
0010
0001
1000
0100
1000
0010
1000
0100
1000
0010
,
1000
0001
0100
0010
1000
0001
0100
0010
1000
0100
1000
0010
0100
0001
1000
0001
,
0010
0001
1000
0010
0100
0010
1000
0001
0020
0230
2300
3002
0003
0000
0000
0000
,
1000
0100
1000
0010
0100
0001
1000
0001
0010
0001
1000
0010
1000
0100
1000
0010
,
0100
0000
0010
0000
1000
0000
0001
0000
0100
0000
0010
0000
1000
0000
0001
0000
0010
0100
1000
0001
0100
0010
1000
0001
0010
0001
1000
0100
0010
0100
1000
0001
,
0010
0100
1000
0001
0100
0001
1000
0010
1000
0100
0010
0100
1000
0001
0010
0100
,
1000
0000
0000
0010
0000
0000
0100
0000
0000
0001
0000
0000
1000
0000
0000
0001
0000
0000
0010
0000
0000
0001
0000
0000
1000
0000
0100
0000
1000
0000
0010
0000
0100
0000
0001
0000
1000
0000
0010
0000
0100
0000
0001
0000
0010
0000
0100
0000
,
1000
0100
1000
0001
0100
0001
1000
0010
0100
0010
1000
0001
0100
0010
1000
0001
,
0010
0001
1000
0100
0010
0100
1000
0001
0100
0010
0100
0001
0010
0100
1000
0001
,
0010
0100
0010
0001
1000
0010
0100
0010
1000
0001
0100
0001
1000
0100
0010
0100
,
1000
0010
0100
0001
1000
0001
0010
0001
2000
3200
0320
0032
0003
0000
0000
0000
;

//---------------dance-single - ----------------
#NOTES:
     dance-single:
     :
     Hard:
     17:
     1.000,1.000,0.330,0.872,1.000,903.000,39.000,103.000,0.000,0.000:

0000
0000
0000
0000
,
1000
0000
0000
0100
0000
0000
0010
0000
0001
0000
0000
0100
0000
0000
0010
0000
,
1000
0000
0000
0001
0000
0000
0010
0000
0100
0000
0000
1000
0000
0000
0001
0000
,
0100
0000
0000
0010
0000
0000
1000
0000
0100
0000
0000
0010
0000
0000
0001
0000
,
1000
0000
0000
0100
0000
0000
1000
0000
0010
0000
0000
0100
0000
0000
0001
0000
,
0110
0000
0000
0100
0000
0000
1100
0000
1001
0000
0000
0001
0000
0000
0110
0000
,
1010
0000
0000
0100
0000
0000
0110
0000
0022
0000
0000
0000
0000
0000
0033
0000
,
1001
0000
0000
0001
0000
0000
0110
0000
0101
0000
0000
0001
0000
0000
0011
0000
,
0110
0000
0000
0100
0000
0000
1100
0000
1010
0000
0000
0100
0000
0000
0101
0000
,
1001
0000
0000
1000
0000
0000
1100
0000
0110
0000
0000
0010
0000
0000
0011
0000
,
0101
0000
0000
0100
0000
0000
1010
0000
1100
0000
0000
0100
0000
0000
0110
0000
,
0011
0000
0000
0001
0000
0000
0101
0000
1010
0000
0000
1000
0000
0000
1100
0000
,
0110
0000
0000
0010
0000
0000
0011
0000
0101
0000
0000
0100
0000
0010
1000
0001
,
0020
0130
1000
0002
0103
0010
1000
0001
0200
0310
1000
0200
0310
0001
1000
0001
,
0200
0310
1000
0002
0013
0100
1000
0100
0020
0031
1000
0002
0103
0010
1000
0001
,
0020
0130
1000
0002
0103
0010
1000
0100
0020
0031
1000
0200
1300
0010
0100
0001
,
0020
0130
1000
0002
0103
0010
1000
0001
0100
0010
1000
0100
0010
0000
0011
0000
,
0002
0103
0010
2000
3100
0010
0001
1000
0200
1300
0010
0200
0301
0010
0100
1000
,
0002
1003
0100
2000
3010
0100
0001
0010
0200
1300
0010
2000
3100
0010
0001
0100
,
0020
1030
0100
2000
3010
0100
0001
1000
0200
0310
0001
2000
3010
0100
0001
1000
,
0200
0310
0001
2000
3010
0100
0001
1000
0200
0310
0100
2000
3010
0100
0001
0010
,
0001
0000
0001
0200
0000
0000
0310
0000
1000
0000
0100
0000
1000
0000
0010
0000
,
0100
0000
0001
0010
0100
0000
1000
0000
1010
0000
0000
0000
0000
0000
0000
0000
,
0101
0000
0001
0010
0100
0000
1000
0001
1000
0000
0001
0000
0100
0000
0010
0000
,
1000
0100
1000
0001
0100
0001
0100
0010
1000
0001
0010
0001
1000
0100
0010
0100
2000
0000
0000
0000
0000
0000
0000
0000
3000
0000
0000
0000
0000
0000
0000
0000
,
1100
0000
0001
0020
0000
0230
0000
0000
1300
0000
0001
0000
0100
0000
0010
0000
,
1000
0000
0100
0000
0000
0000
0010
0001
0010
0000
0000
0000
0100
1000
0001
0000
,
0100
0000
0010
1000
0000
0001
0000
0010
0100
0000
1000
0000
0001
0000
0100
0000
,
0010
1000
0100
1000
0001
0100
0001
0010
0001
0000
0000
0000
1000
0000
0100
0000
0010
0000
0000
0000
0000
0000
0000
0000
0000
0000
0000
0000
0000
0000
0000
0000
,
0001
0000
1000
0000
0010
0000
0100
0001
1000
0000
0100
0000
0010
0000
0001
0000
1000
0000
0010
0000
1000
0000
0001
0010
0001
0000
1000
0000
0010
0000
1000
0000
,
0001
0000
0010
0000
0001
0000
1000
0010
0100
0000
0001
0000
0010
0000
0001
0000
1000
0000
0100
0000
0010
0000
0001
1000
0001
0000
0100
0000
0010
0000
1000
0000
,
0001
0000
0010
0000
0001
0000
1000
0010
0100
0000
0001
0000
1000
0000
0001
0000
0010
0000
0001
0000
1000
0000
0010
0100
0001
0000
0100
0000
0001
0000
0010
0000
,
0001
0000
1000
0000
0100
0000
0010
0001
1000
0000
0010
0000
0100
0000
0001
0000
0010
0100
1000
0001
0100
0010
1000
0001
0010
0001
1000
0010
0100
0001
0010
0100
,
2000
3000
0002
0203
0300
0020
2030
3000
0002
0003
0020
0230
0300
2000
3002
0003
,
1000
0100
0010
0001
1000
0010
0100
0010
1000
0100
0010
0001
1000
0100
1000
0010
0100
0001
0010
0001
1000
0010
0100
0010
1000
0001
0100
0001
0010
0100
0010
0001
,
1000
0000
0200
0320
0030
0200
0320
0030
0002
0003
0200
0320
0030
0200
0320
0030
,
1000
0100
1000
0001
0100
0001
0010
0001
1000
0010
0100
0010
1000
0100
0010
0100
1000
0001
0010
0100
1000
0001
1000
0100
1000
0000
0001
0000
0000
0000
1000
0000
,
0010
0000
0000
0000
,
0000
0000
0100
0001
0010
0000
0100
0000
2000
0000
0000
0000
3002
0000
0000
0000
,
0103
0000
0010
0000
0000
0000
1010
0000
0000
0000
0000
0000
0000
0000
0000
1000
,
0002
0003
2000
3000
0200
0300
0020
0030
0002
0003
0000
0000
0200
0300
0000
0000
,
0020
0030
2000
3000
0000
0000
0002
0003
0020
0030
0000
0000
0000
0000
0000
0000
,
0000
1000
0001
0100
0020
0030
2020
3030
,
2200
0000
3300
0000
0000
0000
0000
0000
0100
0000
0010
0001
0100
0000
0010
0000
,
0000
1000
0001
0010
0200
0300
2200
3300
,
1002
0000
0000
0000
0000
0000
0000
0000
1003
0000
1000
0100
0010
0000
0000
0000
,
0001
0000
1000
0000
0100
0000
1000
0010
1000
0000
0001
0000
0100
0000
0001
0000
0010
0000
0001
0000
1000
0000
0010
0100
0001
0000
1000
0000
0100
0000
1000
0000
,
0001
0000
0010
0000
0001
0000
1000
0100
1000
0000
0001
0000
0100
0000
0001
0000
1000
0000
0010
0000
1000
0000
0100
0010
0001
0000
1000
0000
0100
0000
1000
0000
,
0001
0000
0100
0000
0001
0000
1000
0010
0100
0000
0001
0000
0010
0000
0001
0000
1000
0100
1000
0001
1000
0100
0010
0001
1000
0000
0100
0000
1000
0000
0001
0000
,
0100
0000
0000
0000
0000
0000
0000
0000
0000
0000
0000
0000
0001
0000
0000
0000
0000
0000
0000
0000
0000
0000
0000
0000
0010
0000
0000
0000
0000
0000
0000
0000
0000
0000
0000
0000
0001
0000
0000
0000
0000
0000
1000
0000
0000
0000
0000
0000
0010
0000
0000
0000
0000
0000
0000
0000
0000
0000
0000
0000
0100
0000
0000
0000
0000
0000
0000
0000
0000
0000
0000
0000
0001
0000
0000
0000
0000
0000
0000
0000
0000
0000
0000
0000
0010
0000
0000
0000
0000
0000
0000
0000
0000
0000
0000
0000
0001
0000
0000
0000
0000
0000
0000
0000
1000
0000
0000
0000
0000
0000
0000
0000
0100
0000
0000
0000
0000
0000
0000
0000
0010
0000
0000
0000
0000
0000
0000
0000
0100
0000
0000
0000
0000
0000
0000
0000
1000
0000
0000
0000
0000
0000
0000
0000
0001
0000
0000
0000
0000
0000
0000
0000
0100
0000
0000
0000
0000
0000
0000
0000
0010
0000
0000
0000
0000
0000
0000
0000
1000
0000
0000
0000
0000
0000
0000
0000
0001
0000
0000
0000
0000
0000
0000
0000
0100
0000
0000
0000
0000
0000
0000
0000
,
0020
0030
0200
0302
0003
2000
3200
0300
0020
0030
0002
0203
0300
0020
2030
3000
,
0001
0100
0001
0100
0010
1000
0010
1000
0100
1000
0001
0100
0001
0100
0010
1000
0001
0010
0001
1000
0010
0100
0010
1000
0100
0010
0001
1000
0100
0010
0001
1000
,
0100
0000
2000
3200
0300
0020
0032
0003
2000
3000
0020
0230
0300
0002
0023
0030
,
0100
0000
1000
0000
0001
0000
0100
0000
0010
0000
1000
0000
0010
0000
0100
0000
0001
0000
1000
0000
0100
0000
0010
0000
0001
0000
0010
0000
0100
0000
1000
0000
0001
0000
0100
0000
0010
0000
0000
0100
0000
0000
0000
0000
0000
0001
0000
0000
,
0010
0100
1000
0001
0100
0001
1000
0010
1000
0100
1000
0010
0100
0001
0010
0001
,
1000
0000
0010
0000
0100
0000
0001
0000
1000
0000
0100
0000
1000
0000
0001
0000
1000
0100
0010
0100
1000
0010
0100
0001
1000
0010
0100
0001
1000
0100
1000
0001
,
1000
0100
0010
0001
1000
0010
1000
0100
1000
0001
0100
0010
1000
0001
0010
0001
,
1000
0000
0010
0000
0100
0000
0010
0000
1000
0000
0100
0000
0010
0000
0001
0000
1000
0010
0100
0001
1000
0010
0100
0001
1000
0001
0010
0001
1000
0100
0010
0100
,
1000
0100
1000
0001
0100
0010
1000
0100
1000
0010
0100
0001
1000
0001
0010
0001
,
1000
0010
0100
0010
1000
0100
0010
0001
1000
0100
1000
0010
1000
0100
1000
0010
,
1000
0001
0100
0010
1000
0001
0100
0010
1000
0100
1000
0010
0100
0001
1000
0001
,
0010
0001
1000
0010
0100
0010
1000
0001
0020
0230
2300
3002
0003
0000
0000
0000
,
1000
0100
1000
0010
0100
0001
1000
0001
0010
0001
1000
0010
1000
0100
1000
0010
,
0100
0000
0010
0000
1000
0000
0001
0000
0100
0000
0010
0000
1000
0000
0001
0000
0010
0100
1000
0001
0100
0010
1000
0001
0010
0001
1000
0100
0010
0100
1000
0001
,
0010
0100
1000
0001
0100
0001
1000
0010
1000
0100
0010
0100
1000
0001
0010
0100
,
1000
0000
0000
0010
0000
0000
0100
0000
0000
0001
0000
0000
1000
0000
0000
0001
0000
0000
0010
0000
0000
0001
0000
0000
1000
0000
0100
0000
1000
0000
0010
0000
0100
0000
0001
0000
1000
0000
0010
0000
0100
0000
0001
0000
0010
0000
0100
0000
,
1000
0100
1000
0001
0100
0001
1000
0010
0100
0010
1000
0001
0100
0010
1000
0001
,
0010
0001
1000
0100
0010
0100
1000
0001
0100
0010
0100
0001
0010
0100
1000
0001
,
0010
0100
0010
0001
1000
0010
0100
0010
1000
0001
0100
0001
1000
0100
0010
0100
,
1000
0010
0100
0001
1000
0001
0010
0001
2000
3200
0320
0032
0003
0000
0000
0000
;

//---------------dance-single - ----------------
#NOTES:
     dance-single:
     :
     Challenge:
     19:
     1.000,1.000,0.330,0.550,1.000,978.000,39.000,65.000,0.000,0.000:

0000
0000
0000
0000
,
1000
0000
0000
0100
0000
0000
0010
0000
0001
0000
0000
0100
0000
0000
0010
0000
,
1000
0000
0000
0001
0000
0000
0010
0000
0100
0000
0000
1000
0000
0000
0001
0000
,
0100
0000
0000
0010
0000
0000
1000
0000
0100
0000
0000
0010
0000
0000
0001
0000
,
1000
0000
0000
0100
0000
0000
1000
0000
0010
0000
0000
0100
0000
0000
0001
0000
,
0110
0000
0000
0100
0000
0000
1100
0000
1001
0000
0000
0001
0000
0000
0110
0000
,
1010
0000
0000
0100
0000
0000
0110
0000
0022
0000
0000
0000
0000
0000
0033
0000
,
1001
0000
0000
0001
0000
0000
0110
0000
0101
0000
0000
0001
0000
0000
0011
0000
,
0110
0000
0000
0100
0000
0000
1100
0000
1010
0000
0000
0100
0000
0000
0101
0000
,
1001
0000
0000
1000
0000
0000
1100
0000
0110
0000
0000
0010
0000
0000
0011
0000
,
0101
0000
0000
0100
0000
0000
1010
0000
1100
0000
0000
0100
0000
0000
0110
0000
,
0011
0000
0000
0001
0000
0000
0101
0000
1010
0000
0000
1000
0000
0000
1100
0000
,
0110
0000
0000
0010
0000
0000
0011
0000
0101
0000
0000
0100
0000
0010
1000
0001
,
0020
0130
1000
0002
0103
0010
1000
0001
0200
0310
1000
0200
0310
0001
1000
0001
,
0200
0310
1000
0002
0013
0100
1000
0100
0020
0031
1000
0002
0103
0010
1000
0001
,
0020
0130
1000
0002
0103
0010
1000
0100
0020
0031
1000
0200
1300
0010
0100
0001
,
0020
0130
1000
0002
0103
0010
1000
0001
0100
0010
1000
0100
0010
0000
0011
0000
,
0002
0103
0010
2000
3100
0010
0001
1000
0200
1300
0010
0200
0301
0010
0100
1000
,
0002
1003
0100
2000
3010
0100
0001
0010
0200
1300
0010
2000
3100
0010
0001
0100
,
0020
1030
0100
2000
3010
0100
0001
1000
0200
0310
0001
2000
3010
0100
0001
1000
,
0200
0310
0001
2000
3010
0100
0001
1000
0200
0310
0100
2000
3010
0100
0001
0010
,
0001
0000
0001
0200
0000
0000
0310
0000
1000
0000
0100
0000
1000
0000
0010
0000
,
0100
0000
0001
0010
0100
0000
1000
0000
1010
0000
0000
0000
0000
0000
0000
0000
,
0101
0000
0001
0010
0100
0000
1000
0001
1000
0000
0001
0000
0100
0000
0010
0000
,
1000
0100
1000
0001
0100
0001
0100
0010
1000
0001
0010
0001
1000
0100
0010
0100
2000
0000
0000
0000
0000
0000
0000
0000
3000
0000
0000
0000
0000
0000
0000
0000
,
1100
0000
0001
0020
0000
0230
0000
0000
1300
0000
0001
0000
0100
0000
0010
0000
,
1000
0000
0100
0000
0000
0000
0010
0001
0010
0000
0000
0000
0100
1000
0001
0000
,
0100
0000
0010
1000
0000
0001
0000
0010
0100
0000
1000
0000
0001
0000
0100
0000
,
0010
1000
0100
1000
0001
0100
0001
0010
0100
0010
0001
1000
0010
1000
0100
1000
0001
0000
0000
0000
0000
0000
0000
0000
0000
0000
0000
0000
0000
0000
0000
0000
,
0001
0000
1000
0000
0100
0000
1000
0010
0100
0000
0001
0000
1000
0000
0001
0000
0010
0000
0001
0000
1000
0000
0100
0010
0001
0000
1000
0000
0100
0000
1000
0000
,
0001
0000
0010
0000
0001
0000
1000
0010
0100
0000
0001
0000
0010
0000
0001
0000
1000
0000
0100
0000
0010
0000
0001
1000
0001
0000
0100
0000
0010
0000
1000
0000
,
0001
0000
0010
0000
0001
0000
1000
0010
0100
0000
0001
0000
1000
0000
0001
0000
0010
0000
0001
0000
1000
0000
0010
0100
0001
0000
0100
0000
0001
0000
0010
0000
,
0001
0000
1000
0000
0100
0000
0010
0001
1000
0000
0010
0000
0100
0000
0001
0000
0010
0100
1000
0001
0100
0010
1000
0001
0010
0001
1000
0010
0100
0001
0010
0100
,
1000
0100
1000
0001
0100
0001
0010
0100
0010
0001
1000
0100
0010
0001
1000
0010
0100
0001
0010
0001
1000
0100
1000
0010
,
1000
0100
0010
0001
1000
0010
0100
0010
1000
0100
0010
0001
1000
0100
1000
0010
0100
0001
0010
0001
1000
0010
0100
0010
1000
0001
0100
0001
0010
0100
0010
0001
,
1000
0100
0010
0001
1000
0100
0010
0001
1000
0010
1000
0001
0100
0010
1000
0001
0010
0001
1000
0100
0010
0100
1000
0001
,
1000
0100
1000
0001
0100
0001
0010
0001
1000
0010
0100
0010
1000
0100
0010
0100
1000
0001
0010
0100
1000
0001
1000
0100
1000
0000
0001
0000
0000
0000
1000
0000
,
0010
0000
0000
0000
,
0000
0000
0100
0001
0010
0000
0100
0000
2000
0000
0000
0000
3002
0000
0000
0000
,
0103
0000
0010
0000
0000
0000
1010
0000
0000
0000
0000
0000
0000
0000
0000
1000
,
0002
0003
2000
3000
0200
0300
0020
0030
0002
0003
0000
0000
0200
0300
0000
0000
,
0020
0030
2000
3000
0000
0000
0002
0003
0020
0030
0000
0000
0000
0000
0000
0000
,
0000
1000
0001
0100
0020
0030
2020
3030
,
2200
0000
3300
0000
0000
0000
0000
0000
0100
0000
0010
0001
0100
0000
0010
0000
,
0000
1000
0001
0010
0200
0300
2200
3300
,
1002
0000
0000
0000
0000
0000
0000
0000
1003
0000
1000
0100
0010
0000
0000
0000
,
0001
0000
1000
0000
0100
0000
1000
0010
1000
0000
0001
0000
0100
0000
0001
0000
0010
0000
0001
0000
1000
0000
0010
0100
0001
0000
1000
0000
0100
0000
1000
0000
,
0001
0000
0010
0000
0001
0000
1000
0100
1000
0000
0001
0000
0100
0000
0001
0000
1000
0000
0010
0000
1000
0000
0100
0010
0001
0000
1000
0000
0100
0000
1000
0000
,
0001
0000
0100
0000
0001
0000
1000
0010
0100
0000
0001
0000
0010
0000
0001
0000
1000
0100
1000
0001
1000
0100
0010
0001
1000
0000
0100
0000
1000
0000
0001
0000
,
0100
0000
0001
0000
0010
0000
0001
1000
0010
0000
0100
0000
0001
0000
0010
0000
0100
1000
0001
0100
0001
1000
0010
0100
0010
1000
0100
0010
0001
1000
0100
0010
,
0001
1000
0100
1000
0010
0100
0001
1000
0100
0010
0001
1000
0010
0100
0001
1000
0100
1000
0001
0010
0100
1000
0001
0010
,
0001
0100
0010
1000
0001
0010
0001
1000
0100
0010
0001
1000
0010
0100
0010
1000
0001
0100
0010
1000
0001
0010
0001
1000
0010
0100
0010
1000
0100
0010
0001
1000
,
0001
0100
0001
1000
0010
0100
0001
1000
0100
1000
0001
0100
0010
1000
0001
0100
0010
1000
0001
0010
0001
1000
0100
0010
,
0001
1000
0100
1000
0010
0100
0001
1000
0100
0010
0001
1000
0010
0100
0001
0010
0001
1000
0100
0010
0100
1000
0001
0100
0001
0000
1000
0000
0000
0000
0001
0000
,
0010
0100
1000
0001
0100
0001
1000
0010
1000
0100
1000
0010
0100
0001
0010
0001
,
1000
0000
0010
0000
0100
0000
0001
0000
1000
0000
0100
0000
1000
0000
0001
0000
1000
0100
0010
0100
1000
0010
0100
0001
1000
0010
0100
0001
1000
0100
1000
0001
,
1000
0100
0010
0001
1000
0010
1000
0100
1000
0001
0100
0010
1000
0001
0010
0001
,
1000
0000
0010
0000
0100
0000
0010
0000
1000
0000
0100
0000
0010
0000
0001
0000
1000
0010
0100
0001
1000
0010
0100
0001
1000
0001
0010
0001
1000
0100
0010
0100
,
1000
0100
1000
0001
0100
0010
1000
0100
1000
0010
0100
0001
1000
0001
0010
0001
,
1000
0010
0100
0010
1000
0100
0010
0001
1000
0100
1000
0010
1000
0100
1000
0010
,
1000
0001
0100
0010
1000
0001
0100
0010
1000
0100
1000
0010
0100
0001
1000
0001
,
0010
0001
1000
0010
0100
0010
1000
0001
0020
0230
2300
3002
0003
0000
0000
0000
,
1000
0100
1000
0010
0100
0001
1000
0001
0010
0001
1000
0010
1000
0100
1000
0010
,
0100
0000
0010
0000
1000
0000
0001
0000
0100
0000
0010
0000
1000
0000
0001
0000
0010
0100
1000
0001
0100
0010
1000
0001
0010
0001
1000
0100
0010
0100
1000
0001
,
0010
0100
1000
0001
0100
0001
1000
0010
1000
0100
0010
0100
1000
0001
0010
0100
,
1000
0000
0010
0000
0100
0000
0001
0000
1000
0000
0001
0000
0010
0000
0001
0000
1000
0100
0010
0001
1000
0100
0010
0100
1000
0001
0010
0100
0010
0001
1000
0100
,
1000
0100
1000
0001
0100
0001
1000
0010
0100
0010
1000
0001
0100
0010
1000
0001
,
0010
0001
1000
0100
0010
0100
1000
0001
0100
0010
0100
0001
0010
0100
1000
0001
,
0010
0100
0010
0001
1000
0010
0100
0010
1000
0001
0100
0001
1000
0100
0010
0100
,
1000
0010
0100
0001
1000
0001
0010
0001
2000
3200
0320
0032
0003
0000
0000
0000
;
