#TITLE:Need The Speed;
#SUBTITLE:;
#ARTIST:m1dy;
#TITLETRANSLIT:;
#SUBTITLETRANSLIT:;
#ARTISTTRANSLIT:;
#CREDIT:;
#BANNER:m1dy - Need The Speed Banner.png;
#BACKGROUND:m1dy - Need The Speed BG.png;
#LYRICSPATH:Need The Speed.lrc;
#CDTITLE:TigerYoshiki.png;
#MUSIC:m1dy - Need The Speed.mp3;
#OFFSET:-1.497;
#SAMPLESTART:56.869;
#SAMPLELENGTH:16.000;
#SELECTABLE:YES;
#BPMS:0.000=111.000,8.000=222.000,12.000=444.000,20.000=888.000,36.000=444.000,92.000=222.000,93.000=888.000,97.000=222.000,98.000=888.000,102.000=444.000,150.000=888.000,166.000=222.000,168.000=444.000,236.000=888.000,252.000=222.000,256.000=444.000,258.000=222.000,259.000=111.000,259.500=222.000,260.500=444.000,262.500=111.000,263.000=444.000,267.000=222.000,270.000=444.000,272.000=888.000,288.000=444.000,290.000=111.000,291.000=888.000,293.000=222.000,295.000=444.000,296.000=444.000,300.000=111.000,301.000=222.000,303.000=444.000,307.000=888.000,315.000=444.000,363.000=111.000,364.000=222.000,366.000=444.000,370.000=888.000,378.000=222.000,384.000=444.000,390.000=444.000,392.000=888.000,398.000=888.000,408.000=444.000,409.000=222.000,409.500=444.000,410.500=222.000,411.000=444.000,412.000=222.000,412.500=444.000,413.500=222.000,414.000=444.000,415.000=222.000,415.500=444.000,416.500=222.000,417.000=444.000,418.000=221.980,418.500=444.000,419.500=222.000,420.000=444.000,437.000=222.000,437.500=444.000,438.500=222.000,439.000=444.000,440.000=222.000,440.500=444.000,441.500=222.000,442.000=444.000,443.000=222.000,443.500=444.000,444.500=222.000,445.000=444.000,446.000=222.000,446.500=444.000,447.500=222.000,448.000=444.000,464.000=888.000,466.000=444.000,467.000=888.000,469.000=444.000,470.000=888.000,472.000=444.000,473.000=888.000,475.000=444.000,476.000=888.000,478.000=444.000,479.000=888.000,481.000=444.000,482.000=888.000,484.000=444.000,485.000=888.000,487.000=444.000,488.000=888.000,522.000=444.000,523.000=888.000,525.000=444.000,526.000=888.000,528.000=444.000,529.000=888.000,531.000=444.000,532.000=888.000,534.000=444.000,535.000=888.000,537.000=444.000,538.000=888.000,540.000=444.000,541.000=888.000,543.000=444.000,552.000=888.000,553.000=444.000,554.000=222.000,555.000=111.000,555.500=444.000,556.000=444.000,620.000=888.000,622.000=222.000,622.500=444.000,623.500=111.000,624.000=888.000,628.000=444.000,631.000=111.000,631.500=222.000,632.000=444.000,635.000=222.000,636.000=444.000,637.000=222.000,637.500=444.000,638.500=111.000,639.000=444.000,668.000=222.000,670.000=888.000,673.000=444.000,674.000=222.000,675.000=111.000,675.500=444.000,676.000=222.000,677.000=444.000,679.000=888.000,686.000=1776.000,688.000=444.000,695.000=888.000,697.000=444.000,704.000=888.000,706.000=444.000,713.000=888.000,715.000=444.000,722.000=888.000,724.000=444.000,726.000=222.000,727.000=888.000,733.000=444.000,734.000=222.000,735.000=444.000,738.000=888.000,744.000=444.000,752.000=888.000,756.000=1776.000,764.000=888.000,772.000=444.000,804.000=888.000,806.000=444.000,807.000=222.000,808.000=444.000,812.000=888.000,814.000=444.000,815.000=222.000,816.000=444.000,817.000=222.000,818.000=888.000,820.000=222.000,824.000=444.000,832.000=888.000,833.000=444.000,839.500=222.000,840.000=444.000,892.000=888.000,900.000=1776.000,901.000=444.000,902.000=1776.000,903.000=444.000,904.000=1776.000,905.000=444.000,906.000=1776.000,907.000=444.000,908.000=1776.000,909.000=444.000,910.000=1776.000,911.000=444.000,912.000=222.000,920.000=444.000,936.000=888.000,968.000=444.000,968.500=888.000,969.500=444.000,970.000=888.000,971.000=444.000,971.500=888.000,972.500=444.000,973.000=888.000,974.000=444.000,978.000=1776.000,980.000=444.000,984.000=888.000,990.000=1776.000,992.000=222.000,996.000=444.000,1009.000=888.000,1011.000=444.000,1018.000=888.000,1020.000=444.000,1027.000=888.000,1029.000=444.000,1035.000=222.000,1036.000=888.000,1040.000=444.000,1045.000=888.000,1047.000=444.000,1054.000=888.000,1056.000=444.000,1063.000=888.000,1065.000=444.000,1067.000=888.000,1069.000=444.000,1073.000=888.000,1079.000=444.000,1111.500=888.000,1112.000=444.000,1112.500=888.000,1113.000=444.000,1113.500=888.000,1114.000=444.000,1114.500=888.000,1115.000=444.000,1115.500=888.000,1116.000=444.000,1116.500=888.000,1117.000=444.000,1117.500=888.000,1118.000=444.000,1118.500=888.000,1119.000=444.000,1119.500=888.000,1120.000=444.000,1120.500=888.000,1121.000=444.000,1121.500=888.000,1122.000=444.000,1122.500=888.000,1123.000=444.000,1123.500=888.000,1124.000=444.000,1124.500=888.000,1125.000=444.000,1125.500=888.000,1126.000=444.000,1126.500=888.000,1127.000=222.000,1129.000=444.000,1133.000=888.000,1145.000=1776.000,1179.000=888.000;
#STOPS:7.667=0.068
,383.438=1.622
,555.500=0.270
,675.500=0.152
,911.750=0.068
,1111.500=0.034
,1112.500=0.034
,1113.500=0.034
,1114.500=0.034
,1115.500=0.034
,1116.500=0.034
,1117.500=0.034
,1118.500=0.034
,1119.500=0.034
,1120.500=0.034
,1121.500=0.034
,1122.500=0.034
,1123.500=0.034
,1124.500=0.034
,1125.500=0.034
,1126.500=0.034
,1185.000=0.540
;
#BGCHANGES:;
// cache tags:
#FIRSTBEAT:8.000;
#LASTBEAT:1185.000;
#SONGFILENAME:Songs/new again/m1dy - Need The Speed/m1dy - Need The Speed.sm;
#HASMUSIC:1;
#HASBANNER:1;
#MUSICLENGTH:160.339;
// end cache tags

//---------------dance-single - ----------------
#NOTES:
     dance-single:
     :
     Challenge:
     14:
     1.000,1.000,1.000,1.000,0.315,1218.000,305.000,256.000,268.000,4.000:

0000
0000
0000
0000
,
0000
0000
0000
0000
,
1000
0001
1000
0001
1000
0001
1000
0001
1000
0001
1000
0001
1000
0001
1000
0001
,
0400
0040
0000
0000
0000
0000
0000
0000
,
0000
0000
0000
0000
0000
0000
0000
0300
,
1030
0M01
10M0
0M01
10M0
0000
0001
0000
,
1000
0001
1000
0001
,
1000
0001
1000
0001
,
1000
0001
1000
0001
,
0110
1100
0110
1010
,
0011
1001
1010
0101
,
0110
1010
0101
1001
,
1100
0110
0011
0110
,
1001
1100
0011
0110
,
0101
1100
1010
0110
,
0101
1001
0110
1010
,
0101
0000
1010
0000
1001
0000
0011
0110
,
1100
0110
1001
1010
,
0110
0101
1010
1001
,
0101
0011
0101
1001
,
0110
1001
1100
0011
,
1000
0100
1000
0000
0001
0000
0100
0000
0010
0000
1000
0000
0100
0000
1000
0000
,
0010
0100
0001
0010
0001
0010
1000
0001
,
4000
3002
M000
0000
,
0000
0403
032M
0M00
,
0000
0000
0000
0000
0000
0000
0000
0000
0000
0000
0000
0000
0000
0000
0000
0000
0000
0000
0000
0000
0000
0000
0000
0000
0000
0000
0000
0000
0000
0000
0000
0030
1100
0000
0000
0000
0000
0000
0000
0000
0000
0000
0000
0000
0000
0000
0000
0000
10M1
0000
0000
0000
0000
0000
0000
0000
0000
0000
0000
0000
0000
0000
0000
0000
,
0101
1001
0110
1010
,
0101
0110
0101
1001
,
1100
0110
0011
0110
,
1001
1010
0110
0101
,
1001
0110
1001
1100
,
1001
0011
0101
1001
,
1010
0110
1010
0101
,
1001
0000
1100
0110
0011
0000
0011
0000
,
0011
0011
011M
011M
,
0110
0110
11M0
11M0
,
1100
1100
1M01
1M01
,
1001
1001
4MM4
0000
,
0000
0000
0000
0000
0000
0000
0000
0003
0M40
0000
0000
0000
0000
0000
0000
0000
,
0000
0000
0000
0000
0000
0000
0000
0030
040M
0000
0000
0000
0000
0000
0000
0000
,
0000
0000
0000
0000
0000
0000
0000
0300
00M4
0000
0000
0000
0000
0000
0000
0000
,
0000
0000
0000
0000
0000
0000
0000
0003
3M10
0000
0010
0000
M010
0000
0010
0000
,
0010
0001
0010
0100
0010
0100
1000
0001
,
0100
0000
M100
000M
0100
0000
0100
0000
,
0100
0000
0000
0000
0100
0010
1000
0001
0010
0000
0000
0000
0M10
0000
M000
000M
,
0010
0010
0010
0010
,
0010
0000
0010
0000
0010
0000
0010
0001
,
1000
0000
10M0
000M
1000
0000
1000
0000
,
1000
0000
1000
0000
1000
0000
1000
0001
,
1000
0100
0010
0001
0100
0000
1000
0000
0100
0000
00M0
000M
0100
0000
M000
0000
,
0100
0000
0000
0000
0100
0000
0000
0000
0100
0000
1000
0000
0100
0010
0100
1000
,
0001
0000
0000
0000
0001
00M0
0M00
M000
0001
0000
0000
0000
0001
0000
0000
0000
,
0001
0000
0000
0000
0001
0000
0000
0000
0001
0000
0000
0000
0001
0010
0100
1000
,
0010
0000
0000
0000
001M
0000
0M00
M000
0010
0000
0000
0000
0010
0000
0000
0000
,
0010
0000
0010
0000
0010
0000
0020
1000
,
0030
0200
0000
0320
0000
0M32
0000
20M3
,
0000
302M
0000
M230
0000
03M2
0000
2M03
,
0010
300M
0010
M100
0010
0000
0010
0000
,
0010
1000
0100
0000
1000
0000
0000
0000
0040
M000
0M00
0000
000M
0000
0000
0000
,
0400
0000
0000
0000
,
0000
0000
0000
0000
,
0000
0000
0000
0000
,
0000
0000
0000
0000
0000
0000
0000
0000
0000
0000
0000
0000
0000
0000
0000
0330
,
2000
0000
0000
0000
0000
0000
3002
0000
0000
0000
0203
0000
0000
0000
M320
0000
0000
0000
000M
0000
0000
0000
0M00
0000
0000
0000
0000
0000
0000
0000
0000
0030
,
1001
0000
0000
0000
1001
0000
0000
0000
0110
0000
0110
0000
1100
1100
0011
0000
,
0011
0000
0101
0000
0000
0000
0101
0000
0000
0000
1010
1010
1001
0000
0000
0000
,
0110
0000
1001
0000
0110
0000
1100
1010
,
1001
0101
0011
0110
1001
0000
0110
0000
,
1000
0001
0100
0000
0010
0000
0001
0000
,
0010
1000
0100
0010
,
0100
1000
0100
0010
,
0001
1000
0001
1000
,
0101
0000
0000
0000
0101
0000
0000
0000
0110
0110
0110
0110
1001
0000
0000
0000
,
0000
0000
1100
1100
1100
1100
0011
0000
,
0011
0011
0011
0011
,
0200
0301
1000
0001
1000
0100
0010
0001
0010
0100
1000
0100
0010
0000
0100
0000
,
1000
0100
0010
0100
1000
0100
1000
0000
,
0001
0100
0010
0100
,
0001
0010
0100
4000
,
0100
0100
0010
0010
,
0001
0001
3010
0400
,
0001
0001
0010
0010
,
1000
1000
0310
4000
,
0010
0010
0100
0100
,
0001
0001
3100
0040
,
0001
0001
1000
1000
,
0100
0000
0100
0000
0031
1000
0400
0000
,
0010
0010
1000
1000
,
0001
0001
0310
0004
,
1000
1000
0010
0010
,
0100
0000
0000
0000
0100
0000
0000
0000
1003
0000
0000
0000
2000
3100
0010
0001
,
1000
0100
0010
0001
1000
0100
0010
0001
0100
0010
1000
0000
0001
0000
0100
0000
,
0010
1000
0001
0100
0010
0000
1000
0000
,
0001
0010
0100
1000
,
0001
1000
0440
0000
,
0000
0000
0000
0000
0000
0000
0000
0330
,
1000
0001
1000
0010
1000
0100
1000
0010
,
1000
0001
1000
0010
1000
0100
1000
0010
,
1000
0001
0010
0001
0100
0001
1000
0001
,
0100
0001
0010
0001
0100
0001
1000
0001
,
0100
0001
0010
0001
0100
0001
1000
0001
,
0100
0001
0010
0001
0100
0001
1000
0001
,
0200
0000
0000
0000
0000
0000
0320
0000
0000
0M00
0000
0000
2030
0000
0000
00M0
,
0000
0000
3002
0000
0000
M000
0000
0000
0023
0000
0000
0000
0000
0000
2030
0000
,
0000
00M0
0000
0000
3020
0000
0000
M000
0000
0000
0032
0000
0000
00M0
0000
0000
,
2203
0000
0000
000M
0000
0000
3300
0000
0220
0000
M000
0000
0000
0000
0330
0000
,
0022
0M00
0000
0033
0220
000M
0000
0330
,
2200
00M0
0000
3300
0220
M000
0000
0330
,
2002
0MM0
0000
3003
0220
M00M
0000
0330
,
2000
0000
0MM0
0000
0000
0000
3200
0000
0000
M000
0000
0000
0320
0000
0000
0M00
,
0000
0000
0032
0000
0000
00M0
0000
0000
0023
0000
0000
000M
0000
0000
0230
0000
,
0000
00M0
0000
0000
2300
0000
0000
0M00
0000
0000
3020
0000
0000
M000
0000
0000
,
2032
0000
0000
00M0
0000
0000
3003
0000
2200
0000
000M
0000
0000
0000
3300
0000
,
0202
M000
0000
0303
2200
000M
0000
3300
,
2020
0M00
0000
3030
0202
M0M0
0000
0303
,
2020
0M0M
0000
3030
0220
M000
0000
0330
,
M002
0MM0
0000
0000
0000
0000
2MM3
0000
,
0000
000M
0000
0000
32MM
0000
0000
M000
,
0000
0000
M32M
0000
0000
0M00
0000
0000
,
MM32
0000
0000
00M0
0000
0000
M2M3
0000
,
0000
000M
0000
0000
M32M
0000
0000
0M00
,
0000
0000
2M3M
0000
0000
00M0
0000
0000
,
322M
0000
0000
M000
0000
0000
0330
0000
,
22MM
00M0
0000
3300
,
M2M2
M000
0000
0303
,
2M2M
0M0M
0000
3030
,
M2M2
M0M0
0000
0303
,
2MM2
0M00
0000
3003
,
M2M2
M000
0000
0303
,
2M2M
0M0M
0000
3030
,
020M
M0M0
0000
M3M2
,
0000
0M00
0000
0000
2MM3
0000
0000
000M
,
0000
0000
3MM2
0000
0000
M000
0000
0000
,
M2M3
0000
0000
000M
0000
0000
M32M
0000
,
0000
0M00
0000
0000
M23M
0000
0000
00M0
,
0000
0000
M3M2
0000
0000
0M00
0003
0000
,
2200
000M
0000
0000
0000
0000
0000
0000
,
0000
0000
0300
0M00
,
3000
0000
000M
M000
00M0
0000
0M00
M000
,
1000
0010
0100
0001
,
1000
0000
0000
0000
0001
0100
0010
1000
0010
0000
0000
0000
0100
0000
0000
0000
,
0001
0010
0100
0010
,
0100
0000
0000
0000
1000
0100
0010
0001
1000
0000
0000
0000
0100
0000
0000
0000
,
0001
1000
0010
0001
,
0010
0000
0000
0000
0001
0100
0010
0100
0001
0000
0000
0000
0010
0000
0000
0000
,
0100
0010
0001
0010
0100
1000
0010
0100
,
0001
0000
0010
0000
0001
0000
1000
0000
0100
1000
0100
1000
0001
0100
0010
0100
,
0010
1000
0010
1000
,
0100
0000
0000
0000
0010
0001
1000
0010
0100
0000
0000
0000
1000
0000
0000
0000
,
0100
0001
0010
0001
,
1000
0000
0000
0000
0010
0100
0010
0100
0001
0000
0000
0000
1000
0000
0000
0000
,
0010
0001
0010
1000
,
0100
0000
0000
0000
0010
0100
1000
0001
0010
0000
0000
0000
0100
0000
0000
0000
,
1000
0100
1000
0001
0010
0001
1000
0100
,
1000
0010
0100
0001
0010
0100
1000
0010
,
0101
0000
0000
0000
0000
0000
0000
0000
0110
0000
1010
0000
0000
0000
1001
0110
,
0101
0000
0110
0000
,
0101
0000
0000
0000
1010
0000
0000
0000
1001
0000
0000
0000
0110
0011
1010
0000
,
1001
0000
1100
0000
0011
0000
0110
1100
,
1001
0000
0000
0000
0110
0000
0101
0000
0000
0000
1010
0110
0101
0000
0000
0000
,
1010
1010
M110
0110
,
0M11
0000
0011
0000
10M1
0000
1001
0011
,
2002
0000
0000
0000
0000
0000
0000
0000
0000
0000
0000
0000
0000
0000
0000
3003
2020
0000
0000
0000
0000
0000
0000
0000
0000
0000
0000
0000
0000
0000
0000
3030
0220
0000
0000
0000
0000
0000
0000
0000
0000
0000
0000
0000
0000
0000
0000
0330
0202
0000
0000
0000
0000
0000
0000
0000
0000
0000
0000
0000
0000
0000
0000
0303
,
1010
0110
0101
0011
,
2002
0000
0000
0000
0000
0000
0000
0000
0000
0000
0000
0000
0000
0000
0000
3003
0022
0000
0000
0000
0000
0000
0000
0000
0000
0000
0000
0000
0000
0000
0000
0033
0220
0000
0000
0000
0000
0000
0000
0000
0000
0000
0000
0000
0000
0000
0000
0330
2200
0000
0000
0000
0000
0000
0000
0000
0000
0000
0000
0000
0000
0000
0000
3300
,
0011
0110
1100
1001
,
02M0
M320
203M
3002
,
1003
0100
0010
0100
0010
0001
1000
0010
2020
0000
0000
0000
0000
0000
0000
0000
,
0000
0000
0000
0000
0000
0000
0000
3030
,
0100
0001
0010
0001
0100
0000
0010
0000
1000
0000
0100
0000
0010
0000
0000
0000
,
0001
1000
0001
0010
,
0100
0010
0001
1000
0010
0000
0100
0000
,
0001
1000
0100
0010
0100
0010
0001
0010
,
0100
1000
0010
0100
0001
0010
0100
0000
,
0010
0000
0000
0000
0000
0000
0000
0000
0020
0030
0000
0000
0001
0000
0000
0000
0010
0000
0000
0000
0001
0000
0000
0000
0010
0000
0000
0000
1000
0000
0000
0000
,
0010
0001
0010
0100
0010
0001
1000
0010
,
0100
0000
0000
0000
0000
0000
0000
0000
0001
0000
0000
0000
0000
0000
0000
0000
0002
0003
0000
0000
0100
0000
0000
0000
0010
0000
0000
0000
1000
0000
0000
0000
,
0100
1000
0001
0010
0001
0100
0010
1000
,
0100
0000
0000
0000
1000
0000
0000
0000
0001
0000
0000
0000
0000
0000
0000
0000
1000
0000
0000
0000
0000
0000
0000
0000
2000
3000
0000
0000
0001
0000
0000
0000
,
0100
1000
0001
0010
1000
0010
0100
0001
,
1000
0100
1000
0010
0100
0000
0010
0000
,
0020
0030
0000
0000
0100
0000
0000
0000
0001
0000
0000
0000
1000
0000
0000
0000
0100
0000
0010
0000
0100
0000
1000
0000
0001
0000
0000
0000
0000
0000
0000
0000
,
0100
0010
0100
1000
,
0100
0000
0000
0000
0000
0000
0000
0000
0000
0000
0000
0000
0000
0000
0000
0000
0010
0000
0000
0000
0000
0000
0000
0000
1000
0000
0000
0000
0000
0000
0000
0000
0020
0030
0000
0000
0010
0000
0000
0000
1000
0000
0000
0000
0100
0000
0000
0000
0010
0000
0000
0000
0000
0000
0000
0000
0001
0000
0000
0000
0000
0000
0000
0000
,
1000
0100
0010
0001
0010
0000
0100
0000
,
1000
0000
0010
0000
0100
0000
0010
0100
,
1000
0001
0010
0010
1000
1000
0100
0100
,
0010
0010
0001
0001
0010
0010
0010
0010
,
0200
0000
M000
0000
,
2300
0000
0000
0M00
,
0000
0000
0000
0000
,
3100
0010
0001
0000
1000
0000
0010
0000
,
0100
0001
0010
0100
,
1100
1100
1100
1100
,
M110
M110
0110
0110
,
0M11
0M11
0011
0011
,
10M1
10M1
1001
1001
,
101M
101M
1010
1010
,
M110
M110
0110
0110
,
01M1
01M1
0101
0101
,
1M01
0000
1M01
0000
1001
0000
1001
1100
,
0110
0000
1100
0000
1001
0000
0110
0101
,
0110
1010
0101
1001
,
0110
0000
0000
0000
1100
0000
0101
0110
,
1010
0000
1001
1100
0110
0000
0000
0000
,
2004
0MM0
0000
0000
3000
0000
0000
0000
,
2003
3200
0320
0032
2M03
3020
0230
0302
,
20M3
3200
03M2
0203
2300
3020
023M
0320
,
1030
0001
1000
0100
0010
0001
0010
0100
,
1000
0000
0100
0000
1000
0000
0100
0000
0010
0000
0001
0000
0010
0000
0001
1000
,
0040
0100
0100
0001
,
0001
1000
1000
0130
,
0004
00M0
1000
0000
1000
0000
0010
0000
,
0010
0100
0100
0013
,
0400
000M
0010
0000
0010
0000
1000
0000
,
1000
0001
0001
1300
,
0040
0M00
0001
0000
0001
0000
0100
0000
,
0100
0000
1000
0000
1000
0000
0130
1000
,
0400
00M0
0001
0000
0001
0000
1000
0000
,
1000
0010
0010
0301
,
4000
0M00
0010
0000
0010
0000
0001
0000
,
0001
0100
0100
3010
,
0020
1000
0100
1000
,
0130
0001
10M0
0100
,
0010
0001
0100
0010
,
4000
0M04
00M0
0000
,
0000
0000
0000
0000
,
0000
0000
0000
0000
0000
0000
0000
0000
0000
0000
0000
0000
0000
0000
0000
3000
,
0023
0100
2030
0001
3200
0010
2300
0100
,
3002
0100
0023
0100
2030
0001
3200
0010
,
0302
0010
2003
0100
,
3002
0100
2003
0100
,
3020
0001
0230
0001
,
0320
0000
0100
0000
2030
0000
0001
0010
,
3200
0000
M320
0000
,
0M32
0000
20M3
0000
,
320M
0000
M320
0000
,
0M32
0000
20M3
0000
,
302M
0000
M230
0000
,
03M2
0000
0203
0000
,
032M
0000
2M30
0000
,
30M2
0000
2003
0000
,
302M
0200
0300
0032
2000
3000
0203
2000
,
3000
0320
2000
3000
0130
0001
0100
1000
,
0100
0001
0100
0010
0100
0000
0010
0000
,
1001
0100
1000
0001
0010
0001
1000
0100
,
1000
0001
0010
0001
,
1000
0100
0010
0000
,
2000
0000
3040
0000
M000
0000
0000
M000
,
0031
1000
0001
0010
0100
1000
0001
0010
,
0001
1000
0100
0010
0001
0100
0010
1000
,
0001
0M00
00M1
M000
0001
0000
0001
0000
,
0001
0000
0001
0010
0001
0000
1000
0000
,
1000
00M0
000M
0000
1000
0000
0000
0000
1000
0000
0000
0000
1000
0000
0000
0000
,
1000
0000
1000
0000
1000
0010
0100
0000
,
0010
0000
M010
0M00
0010
0000
0010
0000
,
0010
0000
0010
0000
0010
0000
0010
1000
,
0100
0000
1000
0000
10M0
0M00
1000
0010
,
1000
0000
0100
0000
1000
0000
0001
0000
1000
0000
0010
0000
0100
0001
1000
0010
,
0100
0001
1000
0001
1000
0001
1000
0001
,
1000
0000
1000
000M
1000
0000
1000
0000
,
1000
0000
1000
0100
0010
0000
0001
0000
,
M001
0M00
00M0
0000
0001
0000
0000
0000
0001
0000
0000
0000
0001
0000
0000
0000
,
0001
0000
0001
0000
0001
0100
0010
0000
,
0100
0000
010M
00M0
0100
0000
0100
0000
,
0100
0000
0100
0000
0100
0000
0100
1000
,
0100
0000
0001
0000
0001
0000
0001
0010
,
0100
0000
1000
0010
0100
0001
0100
0010
,
0100
M200
M00M
00MM
,
00M0
0000
0000
0000
0000
0000
0000
0000
0000
0000
0000
0000
0000
0000
0000
0000
0000
0000
0000
0000
0000
0000
0000
0300
0220
0000
0000
0000
0000
0000
0000
0030
,
0020
0000
0000
0000
0000
0000
0000
0330
2020
0000
0000
0000
0000
0000
0000
3000
2000
0000
0000
0000
0000
0000
0000
3030
2M02
0000
0000
0000
0000
0000
0000
0003
,
0002
0000
0000
0000
0000
0000
0000
3003
0M22
0000
0000
0000
0000
0000
0000
0030
0020
0000
0000
0000
0000
0000
0000
0033
M220
0000
0000
0000
0000
0000
0000
0030
,
0020
0000
0000
0000
0000
0000
0000
0330
202M
0000
0000
0000
0000
0000
0000
0030
0020
0000
0000
0000
0000
0000
0000
3030
022M
0000
0000
0000
0000
0000
0000
0300
,
0200
0000
0000
0000
0000
0000
0000
0330
M202
0000
0000
0000
0000
0000
0000
0003
0002
0000
0000
0000
0000
0000
0000
0303
20M2
0000
0000
0000
0000
0000
0000
3000
,
2000
0000
0000
0000
0000
0000
0000
3003
2M20
0000
0000
0000
0000
0000
0000
0030
0020
0000
0000
0000
0000
0000
0000
3030
022M
0000
0000
0000
0000
0000
0000
0300
,
0200
0000
0000
0000
0000
0000
0000
0330
M202
0000
0000
0000
0000
0000
0000
0003
0002
0000
0000
0000
0000
0000
0000
0303
M022
0000
0000
0000
0000
0000
0000
0003
,
0002
0000
0000
0000
0000
0000
0000
0033
M202
0000
0000
0000
0000
0000
0000
0300
0200
0000
0000
0000
0000
0000
0000
0303
22M0
0000
0000
0000
0000
0000
0000
0300
,
0200
0000
0000
0000
0000
0000
0000
3300
02M2
0000
0000
0000
0000
0000
0000
0003
0002
0000
0000
0000
0000
0000
0000
0303
0040
0000
0000
0000
2000
0000
0000
0000
,
0000
3000
0200
0000
0000
0300
0002
0000
0000
0003
0200
0000
0000
0300
2000
0000
,
0000
3000
0200
0000
0000
0300
0002
0000
0000
0003
0230
0000
0004
0300
2000
0000
,
0000
3000
0200
0000
0000
0300
0020
0000
0000
0030
0200
0000
0000
0300
2000
0000
,
0000
3000
0020
0000
0000
0030
2000
0000
0000
3000
0200
0000
M0M0
0000
0000
0000
,
M0M0
0300
0000
0000
1003
0000
0010
0000
0100
0000
0001
0000
1000
0000
0010
0000
,
0100
0001
1000
0100
0010
0000
0001
0000
,
1000
0100
0010
0001
,
0010
0100
1000
0001
,
0010
2200
000M
00M0
,
0000
0000
0000
0022
,
0000
0000
0000
0000
,
0000
0000
0000
0000
,
0000
0000
0000
0000
,
0000
0000
0000
0000
,
0000
0330
0000
0MM0
,
0000
0000
0000
0000
,
0000
3MM3
0000
M00M
,
0000
0000
0000
0000
,
0000
M00M
0000
0000
;
