#TITLE:Oprah's Last Stand;
#SUBTITLE:EXoduz Violation II;
#ARTIST:dbk2;
#TITLETRANSLIT:;
#SUBTITLETRANSLIT:;
#ARTISTTRANSLIT:;
#CREDIT:;
#BANNER:../Banner.png;
#BACKGROUND:../Background.png;
#LYRICSPATH:;
#CDTITLE:;
#MUSIC:Oprah's Last Stand.ogg;
#OFFSET:1.450;
#SAMPLESTART:97.561;
#SAMPLELENGTH:11.660;
#SELECTABLE:YES;
#DISPLAYBPM:256.000;
#BPMS:0.000=160.000,36.000=240.000,324.000=241.000,328.000=242.000,332.000=243.000,336.000=244.000,340.000=245.000,344.000=246.000,348.000=247.000,352.000=248.000,356.000=249.000,360.000=250.000,364.000=251.000,368.000=253.000,376.000=254.000,384.000=256.000,588.000=64.000,641.000=148.000,641.500=158.000,642.000=152.000,681.000=148.000,681.500=158.000,682.000=152.000,777.000=148.000,777.500=158.000,778.000=152.000;
#STOPS:;
#BGCHANGES:;
// cache tags:
#FIRSTBEAT:4.000;
#LASTBEAT:596.000;
#SONGFILENAME:Songs/EXoduz Violation II/Oprah's Last Stand - [Ov3rHell3XoduZ]/sm.sm;
#HASMUSIC:1;
#HASBANNER:1;
#MUSICLENGTH:155.989;
// end cache tags

//---------------dance-single - ----------------
#NOTES:
     dance-single:
     :
     Beginner:
     15:
     1.000,1.000,0.038,1.000,1.000,1075.000,6.000,183.000,8.000,0.000:
0000
0000
0000
0000
,
1000
0000
0100
0000
0010
0000
0001
0000
2000
0000
0000
3020
0000
0000
0000
0000
,
0000
0130
0001
0010
0100
1000
0002
0000
,
0000
0000
0103
0000
0010
0000
1000
0000
0200
0000
0000
0320
0000
0000
0031
0000
,
2000
0000
0000
0000
,
0000
0000
3010
0000
0100
0000
0001
0000
0020
0000
0000
0230
0000
0000
0000
0000
,
0000
1300
0001
0100
0001
0010
0002
0000
,
0000
0000
1003
0000
0100
0000
0010
0000
0002
0000
0000
0203
0000
0000
0310
0000
,
2000
0000
0000
0000
,
3001
0100
0001
1000
0010
0100
0010
1000
0100
0010
0001
0010
,
0001
1000
0100
0010
0001
1000
0001
0100
0001
0100
0010
1000
,
0100
0010
0001
1000
0001
0100
0001
0010
0100
1000
0100
1000
,
0010
0100
0001
1000
0001
1000
0010
0100
0001
0010
0001
0010
,
0100
0000
0000
0000
1000
0000
0000
0000
0100
0000
0000
0000
0010
0000
0000
0000
0001
0000
0000
0000
1000
0000
0000
0000
0010
0000
0000
0100
0000
0000
0001
0000
0000
1000
0000
0000
0001
0000
0000
0010
0000
0000
0001
0000
0000
0010
0000
0000
,
0001
1000
0100
0010
0001
1000
0001
0100
0001
1000
0100
1000
0100
0010
0001
1000
,
0002
0000
0000
0203
,
0320
0000
0000
0000
,
2030
0000
3200
0000
,
0320
0032
0203
0320
,
2030
0000
0000
0000
,
3200
0000
0000
0000
,
0320
0000
0032
0000
,
2003
3200
0320
0230
,
0000
0000
0000
1300
0000
0010
0000
0100
0000
0002
0000
0000
0000
0000
0000
0000
0000
0000
0000
0000
0000
0000
0000
0000
,
0000
0000
0000
1003
0000
0010
0000
0100
0000
0002
0000
0000
0000
0000
0000
0000
0000
0000
0000
0000
0000
0000
0000
0000
,
0000
0000
0000
0013
0000
0100
0000
1000
0000
0002
0000
0000
0000
0000
0000
0000
0000
0000
0000
0000
0000
0000
0000
0000
,
0000
0000
0000
0103
0000
0010
0000
1000
0000
0200
0000
0000
0000
0000
0000
0000
0000
0000
0000
0000
0000
0000
0000
0000
,
0000
0000
0000
0310
0000
0001
0000
1000
0000
0200
0000
0000
0000
0000
0000
0000
0000
0000
0000
0000
0000
0000
0000
0000
,
0000
0000
0000
0310
0000
0001
0000
0100
0000
0020
0000
0000
0000
0000
0000
0000
0000
0000
0000
0000
0000
0000
0000
0000
,
0000
0000
0000
1030
0000
0100
0000
0010
0000
0002
0000
0000
0000
0000
0000
0000
0000
0000
0000
0000
0000
0003
0000
0000
,
4004
3003
0404
0303
0440
0330
4040
3030
,
0200
0301
0010
0100
1000
0001
0100
0001
,
2000
3100
0010
0001
2000
3020
0230
0302
,
2003
0000
3100
0000
1000
0000
0100
0000
0020
0000
0031
0000
1000
0001
0100
0010
,
2000
3100
2000
3010
0200
0310
0200
0301
,
0020
0130
1000
0100
1000
0001
0100
0001
,
2000
3100
0010
0001
1000
0001
0100
0001
,
0020
0130
1000
0001
2000
3100
0010
0001
,
0200
0320
2030
3020
0230
0320
2030
3020
,
0130
0001
0100
0001
0100
0010
0100
0010
,
1000
0010
1000
0010
0100
0010
0100
0010
,
1000
0100
1000
0010
0100
0001
0010
0001
1000
0100
0010
0001
,
1000
0100
1000
0010
0100
0001
0010
0001
0010
0100
1000
0001
0100
0001
1000
0010
,
0200
0301
0010
0001
0010
0100
1000
0001
,
2000
0000
0000
3010
0000
0000
0100
0000
0000
0001
0000
0000
1000
0000
0100
0000
0010
0000
0001
0000
1000
0000
0010
0000
,
0200
0000
0000
0000
,
0302
0000
0000
0000
,
0013
0100
1000
0001
0100
0001
1000
0100
,
1000
0000
0001
0000
0010
0000
0001
0000
1000
0001
0100
0010
1000
0100
0010
0001
,
1000
0100
1000
0010
0100
0001
0010
0001
0010
0100
1000
0001
,
0100
0001
1000
0100
0010
0100
1000
0100
1000
0010
0100
0010
,
0100
0001
0010
0100
1000
0001
0100
0001
1000
0100
1000
0100
,
0010
0001
1000
0010
1000
0010
0100
0001
0010
0100
1000
0100
,
1000
0010
0100
0001
0010
0001
0010
0100
1000
0001
0100
0001
,
1000
0100
1000
0100
0010
0001
1000
0010
0100
0010
0100
0001
,
0010
0100
0010
0100
1000
0010
0100
0001
1000
0100
1000
0100
,
0010
0001
1000
0010
1000
0010
0100
0001
0010
0100
1000
0001
,
2000
3100
0010
0001
0010
0001
1000
0010
1000
0010
0100
0001
,
0100
0001
0010
0100
1000
0001
1000
0100
1000
0100
0010
0001
,
1000
0010
1000
0010
0100
0001
0010
0100
1000
0100
1000
0001
,
0100
0010
1000
0100
1000
0100
0010
0001
0100
0001
0100
0010
,
1000
0100
1000
0100
0010
0001
1000
0100
1000
0010
0100
0010
,
0100
0001
0010
0100
1000
0001
0100
0010
1000
0100
0010
0001
,
2000
3100
0010
0001
1000
0001
1000
0010
1000
0010
0100
0001
,
0010
0000
0000
0000
0100
0000
0000
0000
1000
0000
0000
0000
0001
0000
0000
0000
0100
0000
0000
0000
0010
0000
0000
0000
1000
0000
0000
0100
0000
0000
1000
0000
0000
0100
0000
0000
0010
0000
0000
0001
0000
0000
1000
0000
0000
0010
0000
0000
,
0100
0010
0100
0010
0100
0010
0100
0010
,
1000
0010
1000
0010
1000
0010
1000
0001
,
0100
0001
0100
0001
0100
0001
0100
0001
,
0010
0100
0010
0100
0010
0100
0010
0100
,
1000
0010
1000
0010
1000
0010
1000
0010
,
0100
0001
0100
0001
0100
0001
0100
0001
,
0010
0100
0010
0100
0010
0100
0010
0100
,
1000
0001
1000
0001
1000
0001
1000
0001
,
0100
0010
0100
0010
0100
0010
0100
0010
,
1000
0100
1000
0100
1000
0100
1000
0100
,
0010
0001
0010
0001
0010
0001
0010
0001
,
0100
0010
0100
0010
0100
0010
0100
0010
,
1000
0100
1000
0100
1000
0100
1000
0100
,
0010
0001
0010
0001
0010
0001
0010
0001
,
1000
0010
1000
0010
1000
0010
1000
0010
,
0100
0001
0100
0001
0100
0001
0100
0001
,
0020
0000
0230
0000
2300
0000
3020
0000
0230
0000
0300
0002
0000
0003
0000
0000
,
0000
0020
0230
2300
3002
0203
0320
0030
,
0000
0000
2000
0000
3200
0000
0320
0000
0032
0000
0003
2000
0000
3000
0020
0000
,
0230
0000
0000
0000
,
0300
0000
0002
0000
0023
0000
0230
0000
2300
0000
3000
0020
0000
0030
0000
0000
,
0000
0200
0302
0023
0230
2300
3002
0003
,
0000
0000
0200
0000
0320
0000
2030
0000
3200
0000
0300
0020
0000
0030
0002
0000
,
0203
0000
0000
0000
,
0300
0000
0020
0000
2030
0000
3200
0000
0320
0000
0030
0002
0000
0003
0000
0000
,
0000
2000
3200
2300
3020
0230
0302
0003
,
0000
0000
0020
0000
0230
0000
2300
0000
3002
0000
0003
0200
0000
0300
0020
0000
,
2030
0000
0000
0000
,
3000
0000
0200
0000
0320
0000
0032
0000
0203
0000
0300
0020
0000
0030
0000
0000
,
0000
2000
3200
0320
0032
2003
3020
0030
,
0000
0000
0200
0000
0302
0000
0023
0000
0230
0000
0300
2000
0000
3000
0020
0000
,
0130
0001
1000
0100
0010
0001
1000
0010
0100
0001
0010
0100
1000
0001
0100
0010
,
2000
3100
0010
0001
1000
0010
2000
3100
,
0020
0031
0100
0001
0010
0100
1000
0001
,
0200
0310
1000
0100
0020
0031
1000
0001
,
2000
3010
0200
0301
0020
0130
2000
3001
,
0200
0310
1000
0010
1000
0100
0020
0031
,
0200
0310
1000
0010
1000
0100
0010
0001
,
0200
0310
1000
0010
0200
0301
0010
0100
,
2000
3001
0100
0001
0010
0100
1000
0010
0100
0001
1000
0100
,
0010
0001
0100
0001
1000
0010
1000
0010
,
0100
0001
0010
0100
0010
0100
1000
0001
,
0100
0010
1000
0100
1000
0010
0100
0001
0010
0100
1000
0001
,
0100
0010
1000
0100
1000
0010
0100
0001
0010
0001
1000
0100
0010
0001
1000
0010
,
0100
0001
1000
0100
1000
0010
0100
0001
,
0010
0000
0000
0100
0000
0000
1000
0000
0000
0001
0000
0000
0100
0000
0010
0000
1000
0000
0100
0000
0010
0000
0001
0000
,
2000
0000
0000
0000
,
3200
0000
0000
0000
,
0310
0001
1000
0100
0010
0001
1000
0100
,
0010
0000
0001
0000
1000
0000
0010
0000
0100
0001
0010
0100
1000
0001
0100
0001
,
4000
0000
0000
0000
,
3040
0000
0000
0000
,
0430
0000
0000
0000
,
0304
0000
0000
0000
,
0043
0000
0000
0000
,
0430
0000
0000
0000
,
4300
0000
0000
0000
,
3040
0000
0000
0000
,
0130
0001
1000
0100
1000
0010
0100
0001
0010
0100
1000
0001
,
0100
0001
1000
0100
0010
0001
1000
0010
0100
0001
0010
0001
,
1000
0100
0010
0001
1000
0010
0100
0001
0010
0001
1000
0100
,
0010
0001
1000
0010
0100
0001
0010
0100
1000
0001
0100
0010
,
4000
0000
0000
0000
,
3040
0000
0000
0000
,
0430
0000
0000
0000
,
0304
0000
0000
0000
,
0023
0130
1000
0001
0100
0001
0200
0320
,
2030
3100
0010
0001
1000
0010
0200
0302
,
0023
0130
1000
0100
1000
0010
0200
0302
,
0023
0130
1000
0001
0100
0001
1000
0100
,
0020
0031
0100
0001
0100
0010
2000
3200
,
0320
0031
0100
0001
0100
0010
2000
3200
,
0320
0031
0100
0001
0010
0100
2000
3002
,
0203
0310
1000
0100
1000
0010
0100
0001
,
0020
0130
1000
0001
0100
0001
2000
3200
,
2300
3001
0100
0001
0010
0001
1000
0100
,
0020
0031
0100
0001
0010
0100
2000
3002
,
0203
0000
0000
0310
0000
0000
1000
0000
0000
0100
0000
0000
0010
0000
0001
0000
1000
0000
0010
0000
0100
0000
0001
0000
,
0010
0100
1000
0001
0100
0001
1000
0100
0010
0001
1000
0010
,
0100
0001
0010
0001
1000
0100
0010
0001
1000
0010
0100
0001
,
0010
0100
1000
0100
1000
0010
0100
0001
0010
0001
0010
0100
1000
0001
0100
0001
,
1000
0001
1000
0010
0100
0001
0010
0001
0010
0100
1000
0001
0100
0001
0100
0010
,
1000
0000
0000
0000
0000
0000
0000
0000
0000
0000
0000
0000
0000
0000
0000
MMMM
,
0000
0000
0000
0000
,
MMMM
0000
0000
0000
;

//---------------dance-single - ----------------
#NOTES:
     dance-single:
     :
     Easy:
     15:
     1.000,1.000,0.083,1.000,1.000,1181.000,13.000,216.000,8.000,0.000:
0000
0000
0000
0000
,
1000
0000
0100
0000
0010
0000
0001
0000
2000
0000
3000
0220
0000
0000
0000
0000
,
0330
0100
0001
0010
0100
1000
2002
0000
,
3003
0000
0001
0000
0100
0000
0010
0000
2200
3300
0000
0220
0330
0000
0001
0000
,
2000
0000
0000
0000
,
3000
0000
0010
0000
0100
0000
0001
0000
0020
0000
0030
2200
0000
0000
0000
0000
,
3300
1000
0001
0100
0001
0010
0002
0000
,
0000
0000
1003
0000
0100
0000
0010
0000
0202
0000
0303
0220
0000
0330
1000
0000
,
0002
0000
0000
0000
,
1003
0100
0010
0001
1000
0010
0100
0001
0100
0010
1000
0100
,
0010
0001
1000
0010
0100
0001
0010
0001
1000
0100
0010
0001
,
1000
0100
1000
0010
0100
0001
0010
0100
1000
0001
0100
0010
,
1000
0100
1000
0010
0100
0001
0010
0100
1000
0001
0100
0010
,
1000
0000
0000
0000
0100
0000
0000
0000
0010
0000
0000
0000
0001
0000
0000
0000
1000
0000
0000
0000
0010
0000
0000
0000
0100
0000
0000
0001
0000
0000
0010
0000
0000
0100
0000
0000
1000
0000
0000
0001
0000
0000
0100
0000
0000
0001
0000
0000
,
1000
0100
0010
0001
1000
0010
0100
0001
0010
0100
1000
0001
0100
0010
1000
0100
,
0020
0031
0100
0001
0010
0100
2000
3001
,
0200
0310
1000
0100
0010
0001
0100
0001
,
0020
0130
1000
0001
0200
0310
1000
0100
,
0020
0031
0200
0310
2000
3100
0020
0031
,
2000
3010
0100
0001
0010
0001
1000
0100
,
0020
0031
1000
0100
1000
0010
0100
0001
,
0020
0130
1000
0001
0200
0301
0010
0100
,
2000
3010
0200
0301
0020
0130
2000
3001
,
0100
0000
0000
0020
0000
2030
0000
3200
0000
0320
0000
0031
0000
0100
0000
0001
0000
0010
0000
0100
0000
1000
0000
0001
,
0000
0100
0000
0020
0000
2030
0000
3200
0000
0320
0000
0031
0000
0100
0000
0001
0000
1000
0000
0100
0000
1000
0000
0010
,
0000
0100
0000
0002
0000
0023
0000
0230
0000
2300
0000
3001
0000
0100
0000
0001
0000
0010
0000
0100
0000
1000
0000
0010
,
0000
0100
0000
0002
0000
2003
0000
3200
0000
0320
0000
0031
0000
1000
0000
0100
0000
1000
0000
0010
0000
0100
0000
0001
,
0000
0010
0000
0200
0000
2300
0000
3002
0000
0203
0000
0310
0000
1000
0000
0100
0000
1000
0000
0010
0000
0100
0000
0001
,
0000
0010
0000
0200
0000
2300
0000
3002
0000
0203
0000
0310
0000
1000
0000
0100
0000
1000
0000
0001
0000
0100
0000
0010
,
0000
1000
0000
0200
0000
0320
0000
0032
0000
2003
0000
3010
0000
0100
0000
0001
0000
1000
0000
0100
0000
0010
0000
0000
,
0044
0033
0404
0303
0440
0330
4040
3030
,
0200
0301
0010
0100
1000
0001
0100
0001
,
2000
3100
0010
0001
2000
3020
0230
0302
,
2003
0000
3100
0000
1000
0000
0100
0000
0020
0000
0031
0000
1000
0001
0100
0010
,
2000
3100
2000
3010
0200
0310
0200
0301
,
0020
0130
1000
0100
1000
0001
0100
0001
,
2000
3100
0010
0001
1000
0001
0100
0001
,
0020
0130
1000
0001
2000
3100
0010
0001
,
0200
0320
2030
3020
0230
0320
2030
3020
,
0130
0001
0100
0001
0100
0010
0100
0010
,
1000
0010
1000
0010
0100
0010
0100
0010
,
1000
0100
1000
0010
0100
0001
0010
0001
1000
0100
0010
0001
,
1000
0100
1000
0010
0100
0001
0010
0001
0010
0100
1000
0001
0100
0001
1000
0010
,
0200
0301
0010
0001
0010
0100
1000
0001
,
2000
0000
0000
3010
0000
0000
0100
0000
0000
0001
0000
0000
1000
0000
0100
0000
0010
0000
0001
0000
1000
0000
0010
0000
,
0200
0000
0000
0000
,
0302
0000
0000
0000
,
0013
0100
1000
0001
0100
0001
1000
0100
,
1000
0000
0001
0000
0010
0000
0001
0000
1000
0001
0100
0010
1000
0100
0010
0001
,
1000
0100
1000
0010
0100
0001
0010
0100
1000
0001
0100
0010
,
1000
0100
1000
0010
0100
0001
0010
0100
0010
0001
1000
0100
,
1000
0001
1000
0010
0100
0001
0010
0001
1000
0001
0100
0010
,
1000
0100
1000
0010
0100
0001
0010
0001
1000
0001
0100
0010
,
1000
0100
1000
0010
0100
0001
0010
0100
0010
0001
1000
0100
,
0010
0001
1000
0001
0100
0010
1000
0100
1000
0001
1000
0010
,
0100
0001
1000
0100
1000
0010
0100
0001
0010
0100
0010
0001
,
1000
0100
0010
0001
1000
0010
0100
0001
0010
0001
1000
0100
,
0020
0031
0100
0010
1000
0100
1000
0010
0100
0001
0010
0100
,
2000
3010
0100
0010
1000
0100
0010
0001
1000
0010
0100
0001
,
0020
0130
1000
0001
0100
0001
1000
0100
0010
0100
1000
0010
,
0200
0301
0010
0100
1000
0001
0100
0001
1000
0100
0010
0001
1000
0010
0100
0001
,
0020
0130
1000
0001
0100
0001
1000
0100
0010
0001
1000
0010
,
0200
0301
0010
0001
1000
0100
0010
0001
1000
0010
0100
0001
,
2000
3100
0010
0001
0100
0001
1000
0100
1000
0010
0100
0001
,
0010
0000
0000
0000
0100
0000
0000
0000
1000
0000
0000
0000
0001
0000
0000
0000
0100
0000
0000
0000
0010
0000
0000
0000
1000
0000
0000
0100
0000
0000
0010
0000
0000
0001
0000
0000
1000
0000
0000
0010
0000
0000
1000
0000
0000
0001
0000
0000
,
0100
0010
0100
0010
0100
0010
0100
0010
,
1000
0010
1000
0010
1000
0010
1000
0001
,
0100
0001
0100
0001
0100
0001
0100
0001
,
0010
0100
0010
0100
0010
0100
0010
0100
,
1000
0010
1000
0010
1000
0010
1000
0010
,
0100
0001
0100
0001
0100
0001
0100
0001
,
0010
0100
0010
0100
0010
0100
0010
0100
,
1000
0001
1000
0001
1000
0001
1000
0001
,
0100
0010
0100
0010
0100
0010
0100
0010
,
1000
0100
1000
0100
1000
0100
1000
0100
,
0010
0001
0010
0001
0010
0001
0010
0001
,
0100
0010
0100
0010
0100
0010
0100
0010
,
1000
0100
1000
0100
1000
0100
1000
0100
,
0010
0001
0010
0001
0010
0001
0010
0001
,
1000
0010
1000
0010
1000
0010
1000
0010
,
0100
0001
0100
0001
0100
0001
0100
0001
,
0020
0000
0230
0000
2300
0000
3020
0000
0230
0000
0300
0002
0000
0003
0000
0000
,
0000
0020
0230
2300
3002
0203
0320
0030
,
0000
0000
2000
0000
3200
0000
0320
0000
0032
0000
0003
2000
0000
3000
0020
0000
,
0230
0000
0000
0000
,
0300
0000
0002
0000
0023
0000
0230
0000
2300
0000
3000
0020
0000
0030
0000
0000
,
0000
0200
0302
0023
0230
2300
3002
0003
,
0000
0000
0200
0000
0320
0000
2030
0000
3200
0000
0300
0020
0000
0030
0002
0000
,
0203
0000
0000
0000
,
0300
0000
0020
0000
2030
0000
3200
0000
0320
0000
0030
0002
0000
0003
0000
0000
,
0000
2000
3200
2300
3020
0230
0302
0003
,
0000
0000
0020
0000
0230
0000
2300
0000
3002
0000
0003
0200
0000
0300
0020
0000
,
2030
0000
0000
0000
,
3000
0000
0200
0000
0320
0000
0032
0000
0203
0000
0300
0020
0000
0030
0000
0000
,
0000
2000
3200
0320
0032
2003
3020
0030
,
0000
0000
0200
0000
0302
0000
0023
0000
0230
0000
0300
2000
0000
3000
0020
0000
,
0130
0001
1000
0100
0010
0001
1000
0010
0100
0001
0010
0100
1000
0001
0100
0010
,
2000
3100
0010
0001
1000
0010
2000
3100
,
0020
0031
0100
0001
0010
0100
1000
0001
,
0200
0310
1000
0100
0020
0031
1000
0001
,
2000
3010
0200
0301
0020
0130
2000
3001
,
0200
0310
1000
0010
1000
0100
0020
0031
,
0200
0310
1000
0010
1000
0100
0010
0001
,
0200
0310
1000
0010
0200
0301
0010
0100
,
2000
3001
0100
0001
0010
0100
1000
0010
0100
0001
1000
0100
,
0010
0001
0100
0001
1000
0010
1000
0010
,
0100
0001
0010
0100
0010
0100
1000
0001
,
0100
0010
1000
0100
1000
0010
0100
0001
0010
0100
1000
0001
,
0100
0010
1000
0100
1000
0010
0100
0001
0010
0001
1000
0100
0010
0001
1000
0010
,
0100
0001
1000
0100
1000
0010
0100
0001
,
0010
0000
0000
0100
0000
0000
1000
0000
0000
0001
0000
0000
0100
0000
0010
0000
1000
0000
0100
0000
0010
0000
0001
0000
,
2000
0000
0000
0000
,
3200
0000
0000
0000
,
0310
0001
1000
0100
0010
0001
1000
0100
,
0010
0000
0001
0000
1000
0000
0010
0000
0100
0001
0010
0100
1000
0001
0100
0001
,
4000
0000
0000
0000
,
3040
0000
0000
0000
,
0430
0000
0000
0000
,
0304
0000
0000
0000
,
0043
0000
0000
0000
,
0430
0000
0000
0000
,
4300
0000
0000
0000
,
3040
0000
0000
0000
,
0130
0001
1000
0100
1000
0010
0100
0001
0010
0100
1000
0001
,
0100
0001
1000
0100
0010
0001
1000
0010
0100
0001
0010
0001
,
1000
0100
0010
0001
1000
0010
0100
0001
0010
0001
1000
0100
,
0010
0001
1000
0010
0100
0001
0010
0100
1000
0001
0100
0010
,
4000
0000
0000
0000
,
3040
0000
0000
0000
,
0430
0000
0000
0000
,
0304
0000
0000
0000
,
0023
0130
1000
0001
1000
0010
0200
0320
,
2030
3100
0010
0001
1000
0010
0200
0302
,
0023
0130
1000
0001
1000
0010
0200
0302
,
0023
0130
1000
0001
0100
0001
1000
0100
,
0020
0031
1000
0001
0100
0010
2000
3200
,
0320
0031
0100
0010
1000
0001
2000
3200
,
0320
0031
0100
0001
0010
0100
2000
3002
,
0203
0310
1000
0100
1000
0010
0100
0001
,
0020
0130
1000
0001
0100
0001
2000
3200
,
2300
3001
0100
0001
0010
0001
1000
0100
,
0020
0031
0100
0001
0010
0100
2000
3002
,
0203
0000
0000
0310
0000
0000
1000
0000
0000
0100
0000
0000
0010
0000
0001
0000
1000
0000
0010
0000
0100
0000
0001
0000
,
0010
0100
1000
0001
0100
0001
1000
0100
0010
0001
1000
0010
,
0100
0001
0010
0001
1000
0100
0010
0001
1000
0010
0100
0001
,
0010
0100
1000
0100
1000
0010
0100
0001
0010
0001
0010
0100
1000
0001
0100
0001
,
1000
0001
1000
0010
0100
0001
0010
0001
0010
0100
1000
0001
0100
0001
0100
0010
,
1000
0000
0000
0000
0000
0000
0000
0000
0000
0000
0000
0000
0000
0000
0000
MMMM
,
0000
0000
0000
0000
,
MMMM
0000
0000
0000
;

//---------------dance-single - ----------------
#NOTES:
     dance-single:
     :
     Medium:
     17:
     1.000,1.000,0.122,1.000,1.000,1455.000,19.000,180.000,8.000,0.000:
0000
0000
0000
0000
,
1000
0000
0100
0000
0010
0000
0001
0000
2000
0000
3000
0220
0000
0000
0000
0000
,
0330
0100
0001
0010
0100
1000
2002
0000
,
3003
0000
0001
0000
0100
0000
0010
0000
2200
3300
0000
0220
0330
0000
0001
0000
,
2000
0000
0000
0000
,
3000
0000
0010
0000
0100
0000
0001
0000
0020
0000
0030
2200
0000
0000
0000
0000
,
3300
1000
0001
0100
0001
0010
0002
0000
,
0000
0000
1003
0000
0100
0000
0010
0000
0202
0000
0303
0220
0000
0330
1000
0000
,
0002
0000
0000
0000
,
1003
0100
0010
0001
1000
0010
0100
0001
0100
0010
1000
0100
,
0010
0001
1000
0010
0100
0001
0010
0001
1000
0100
0010
0001
,
1000
0100
1000
0010
0100
0001
0010
0100
1000
0001
0100
0010
,
1000
0100
1000
0010
0100
0001
0010
0100
1000
0001
0100
0010
,
1000
0000
0000
0000
0100
0000
0000
0000
0010
0000
0000
0000
0001
0000
0000
0000
1000
0000
0000
0000
0010
0000
0000
0000
0100
0000
0000
0001
0000
0000
0010
0000
0000
0100
0000
0000
1000
0000
0000
0001
0000
0000
0100
0000
0000
0001
0000
0000
,
1000
0100
0010
0001
1000
0010
0100
0001
0010
0100
1000
0001
0100
0010
1000
0100
,
0020
0031
0100
0001
0010
0100
1000
0001
0100
0001
1000
0100
1000
0010
0100
0001
,
0010
0100
0010
0001
1000
0010
1000
0001
1000
0100
1000
0010
0100
0001
0010
0001
,
1000
0001
0100
0001
0010
0100
1000
0010
0100
0001
1000
0100
1000
0001
1000
0010
,
1000
0100
0010
0001
1000
0010
0100
0001
0010
0001
1000
0001
0100
0010
1000
0100
,
1000
0001
0100
0010
1000
0100
0010
0001
1000
0010
1000
0100
0010
0001
1000
0001
,
0100
0001
0010
0100
1000
0001
0100
0001
1000
0100
1000
0010
0100
0001
0010
0100
,
1000
0001
0100
0001
1000
0100
0010
0100
1000
0010
1000
0001
1000
0100
0010
0001
,
1000
0010
0100
0001
0010
0001
1000
0001
0100
0001
0010
0100
1000
0001
0100
0010
,
1000
0000
0000
0020
0000
2030
0000
3200
0000
0320
0000
0031
0000
0100
0000
0001
0000
0010
0000
0100
0000
1000
0000
0001
,
0000
0100
0000
0020
0000
2030
0000
3200
0000
0320
0000
0031
0000
0100
0000
0001
0000
1000
0000
0100
0000
1000
0000
0010
,
0000
0100
0000
0002
0000
0023
0000
0230
0000
2300
0000
3001
0000
0100
0000
0001
0000
0010
0000
0100
0000
1000
0000
0010
,
0000
0100
0000
0002
0000
2003
0000
3200
0000
0320
0000
0031
0000
1000
0000
0100
0000
1000
0000
0010
0000
0100
0000
0001
,
0000
0010
0000
0200
0000
2300
0000
3002
0000
0203
0000
0310
0000
1000
0000
0100
0000
1000
0000
0010
0000
0100
0000
0001
,
0000
0010
0000
0200
0000
2300
0000
3002
0000
0203
0000
0310
0000
1000
0000
0100
0000
1000
0000
0001
0000
0100
0000
0010
,
0000
1000
0000
0200
0000
0320
0000
0032
0000
2003
0000
3010
0000
0100
0000
0001
0000
1000
0000
0100
0000
0010
0000
0000
,
0044
0033
0404
0303
0440
0330
4040
3030
,
0200
0301
0010
0100
1000
0001
0100
0001
,
2000
3100
0010
0001
2000
3020
0230
0302
,
2003
0000
3100
0000
1000
0000
0100
0000
0020
0000
0031
0000
1000
0001
0100
0010
,
2000
3100
2000
3010
0200
0310
0200
0301
,
0020
0130
1000
0100
1000
0001
0100
0001
,
2000
3100
0010
0001
1000
0001
0100
0001
,
0020
0130
1000
0001
2000
3100
0010
0001
,
0200
0320
2030
3020
0230
0320
2030
3020
,
0130
0001
0100
0001
0100
0010
0100
0010
,
1000
0010
1000
0010
0100
0010
0100
0010
,
1000
0100
1000
0010
0100
0001
0010
0001
1000
0100
0010
0001
,
1000
0100
1000
0010
0100
0001
0010
0001
0010
0100
1000
0001
0100
0001
1000
0010
,
0200
0301
0010
0001
0010
0100
1000
0001
,
2000
0000
0000
3010
0000
0000
0100
0000
0000
0001
0000
0000
1000
0000
0100
0000
0010
0000
0001
0000
1000
0000
0010
0000
,
0200
0000
0000
0000
,
0302
0000
0000
0000
,
0013
0100
1000
0001
0100
0001
1000
0100
,
1000
0000
0001
0000
0010
0000
0001
0000
1000
0001
0100
0010
1000
0100
0010
0001
,
1000
0100
1000
0010
0100
0001
0010
0100
1000
0001
0100
0010
,
1000
0100
1000
0010
0100
0001
0010
0100
0010
0001
1000
0100
,
1000
0001
1000
0010
0100
0001
0010
0001
1000
0001
0100
0010
,
1000
0100
1000
0010
0100
0001
0010
0001
1000
0001
0100
0010
,
1000
0100
0010
0001
1000
0010
1000
0001
0100
0001
0010
0100
1000
0010
0100
0001
,
1000
0100
1000
0010
0100
0001
0010
0100
1000
0001
0100
0001
1000
0100
0010
0001
,
0100
0010
1000
0100
1000
0010
0100
0001
0010
0001
1000
0100
1000
0001
1000
0010
,
0100
0001
0010
0001
1000
0001
0100
0001
0010
0100
1000
0001
0100
0010
1000
0100
,
0020
0031
0100
0010
1000
0100
1000
0010
0100
0001
0010
0100
,
2000
3010
0100
0010
1000
0100
0010
0001
1000
0010
0100
0001
,
0020
0130
1000
0001
0100
0001
1000
0100
0010
0100
1000
0010
,
0200
0301
0010
0100
1000
0001
0100
0001
1000
0100
0010
0001
1000
0010
0100
0001
,
0020
0130
1000
0001
0100
0001
1000
0100
0010
0001
1000
0010
,
0200
0301
0010
0001
1000
0100
0010
0001
1000
0010
0100
0001
,
2000
3100
0010
0001
0100
0001
1000
0100
1000
0010
0100
0001
,
0010
0000
0000
0000
0100
0000
0000
0000
1000
0000
0000
0000
0001
0000
0000
0000
0100
0000
0000
0000
0010
0000
0000
0000
1000
0000
0000
0100
0000
0000
0010
0000
0000
0001
0000
0000
1000
0000
0000
0010
0000
0000
1000
0000
0000
0001
0000
0000
,
0100
0010
0100
0010
0100
0010
0100
0010
,
1000
0010
1000
0010
1000
0010
1000
0001
,
0100
0001
0100
0001
0100
0001
0100
0001
,
0010
0100
0010
0100
0010
0100
0010
0100
,
1000
0010
1000
0010
1000
0010
1000
0010
,
0100
0001
0100
0001
0100
0001
0100
0001
,
0010
0100
0010
0100
0010
0100
0010
0100
,
1000
0001
1000
0001
1000
0001
1000
0001
,
0100
0010
0100
0010
0100
0010
0100
0010
,
1000
0100
1000
0100
1000
0100
1000
0100
,
0010
0001
0010
0001
0010
0001
0010
0001
,
0100
0010
0100
0010
0100
0010
0100
0010
,
1000
0100
1000
0100
1000
0100
1000
0100
,
0010
0001
0010
0001
0010
0001
0010
0001
,
1000
0010
1000
0010
1000
0010
1000
0010
,
0100
0001
0100
0001
0100
0001
0100
0001
,
0020
0000
0230
0000
2300
0000
3020
0000
0230
0000
0300
0022
0000
0033
0000
0000
,
0000
0020
0230
2300
3002
0203
0320
0030
,
0000
0000
2000
0000
3200
0000
0320
0000
0032
0000
0003
2020
0000
3030
0020
0000
,
0230
0000
0000
0000
,
0300
0000
0002
0000
0023
0000
0230
0000
2300
0000
3000
0220
0000
0330
0000
0000
,
0000
0200
0302
0023
0230
2300
3002
0003
,
0000
0000
0200
0000
0320
0000
2030
0000
3200
0000
0300
0022
0000
0033
0002
0000
,
0203
0000
0000
0000
,
0300
0000
0020
0000
2030
0000
3200
0000
0320
0000
0030
2002
0000
3003
0000
0000
,
0000
2000
3200
2300
3020
0230
0302
0003
,
0000
0000
0020
0000
0230
0000
2300
0000
3002
0000
0003
0220
0000
0330
0020
0000
,
2030
0000
0000
0000
,
3000
0000
0200
0000
0320
0000
0032
0000
0203
0000
0300
2020
0000
3030
0000
0000
,
0000
2000
3200
0320
0032
2003
3020
0030
,
0000
0000
0200
0000
0302
0000
0023
0000
0230
0000
0300
2200
0000
3300
0020
0000
,
0130
0001
1000
0100
0010
0001
1000
0010
0100
0001
0010
0100
1000
0001
0100
0010
,
2000
3100
0010
0001
1000
0010
2000
3100
,
0020
0031
0100
0001
0010
0100
1000
0001
,
0200
0310
1000
0100
0020
0031
1000
0001
,
2000
3010
0200
0301
0020
0130
2000
3001
,
0200
0310
1000
0010
1000
0100
0020
0031
,
0200
0310
1000
0010
1000
0100
0010
0001
,
0200
0310
1000
0010
0200
0301
0010
0100
,
2000
3001
0100
0001
0010
0100
1000
0010
0100
0001
1000
0100
,
0010
0001
0100
0001
1000
0010
1000
0010
,
0100
0001
0010
0100
0010
0100
1000
0001
,
0100
0010
1000
0100
1000
0010
0100
0001
0010
0100
1000
0001
,
0100
0010
1000
0100
1000
0010
0100
0001
0010
0001
1000
0100
0010
0001
1000
0010
,
0100
0001
1000
0100
1000
0010
0100
0001
,
0010
0000
0000
0100
0000
0000
1000
0000
0000
0001
0000
0000
0100
0000
0010
0000
1000
0000
0100
0000
0010
0000
0001
0000
,
2000
0000
0000
0000
,
3200
0000
0000
0000
,
0310
0001
1000
0100
0010
0001
1000
0100
,
0010
0000
0001
0000
1000
0000
0010
0000
0100
0001
0010
0100
1000
0001
0100
0001
,
1000
0100
1000
0010
0100
0001
0010
0100
1000
0001
0100
0001
,
1000
0100
0010
0001
1000
0010
0100
0001
0010
0001
1000
0100
,
0010
0001
1000
0010
0100
0010
1000
0100
0010
0001
1000
0010
,
0100
0001
0010
0001
1000
0100
0010
0001
1000
0010
0100
0001
,
0010
0100
1000
0001
0100
0001
1000
0100
0010
0001
1000
0010
,
0100
0001
0010
0001
1000
0100
0010
0001
1000
0010
0100
0001
,
0010
0100
1000
0001
0100
0001
1000
0100
0010
0001
1000
0010
,
0100
0001
0010
0001
1000
0100
0010
0001
1000
0010
0100
0001
,
1000
0010
1000
0100
1000
0010
0100
0001
0010
0100
1000
0001
,
0100
0001
1000
0100
0010
0001
1000
0010
0100
0001
0010
0001
,
1000
0100
0010
0001
1000
0010
0100
0001
0010
0001
1000
0100
,
0010
0001
1000
0010
0100
0001
0010
0100
1000
0001
0100
0010
,
1000
0100
1000
0010
0100
0001
0010
0100
0010
0001
1000
0100
,
1000
0010
0100
0001
0010
0100
1000
0001
0100
0001
1000
0010
,
0100
0001
0010
0100
1000
0001
0100
0010
1000
0100
1000
0010
,
0100
0001
0010
0100
1000
0001
0100
0010
1000
0100
0010
0001
,
1000
0100
1000
0010
0100
0001
0010
0001
1000
0100
0010
0001
,
1000
0100
1000
0010
0100
0001
0010
0001
1000
0100
0010
0001
,
1000
0010
0100
0010
1000
0100
0010
0001
1000
0010
0100
0001
,
0010
0001
1000
0100
0010
0001
1000
0010
0100
0010
1000
0100
,
1000
0001
0100
0010
1000
0100
0010
0001
1000
0010
1000
0001
,
0100
0010
1000
0100
0010
0001
1000
0010
0100
0001
0100
0010
,
1000
0100
1000
0010
0100
0001
0010
0100
1000
0001
0100
0001
,
1000
0100
0010
0001
1000
0010
0100
0010
1000
0100
0010
0001
,
1000
0100
1000
0001
0100
0010
1000
0100
1000
0010
0100
0001
,
0010
0001
1000
0100
0010
0001
1000
0010
0100
0010
1000
0100
,
1000
0010
0100
0001
0010
0001
1000
0100
0010
0001
1000
0010
,
0100
0010
1000
0100
0010
0001
0100
0001
0010
0100
1000
0001
,
0100
0010
1000
0100
1000
0010
0100
0001
0010
0100
1000
0001
,
0100
0010
1000
0100
1000
0010
0100
0001
0010
0100
0010
0001
1000
0100
1000
0010
,
0100
0001
0010
0001
1000
0100
0010
0001
1000
0010
0100
0010
1000
0100
1000
0010
,
0100
0001
0010
0100
1000
0001
0100
0001
1000
0100
0010
0001
1000
0010
0100
0010
,
1000
0000
0000
0000
0000
0000
0000
0000
0000
0000
0000
0000
0000
0000
0000
MMMM
,
0000
0000
0000
0000
,
MMMM
0000
0000
0000
;

//---------------dance-single - ----------------
#NOTES:
     dance-single:
     :
     Hard:
     18:
     1.000,1.000,0.122,0.974,1.000,1551.000,19.000,152.000,8.000,0.000:

0000
0000
0000
0000
,
1000
0000
0100
0000
0010
0000
0001
0000
2000
0000
3000
0220
0000
0000
0000
0000
,
0330
0100
0001
0010
0100
1000
2002
0000
,
3003
0000
0001
0000
0100
0000
0010
0000
2200
3300
0000
0220
0330
0000
0001
0000
,
2000
0000
0000
0000
,
3000
0000
0010
0000
0100
0000
0001
0000
0020
0000
0030
2200
0000
0000
0000
0000
,
3300
1000
0001
0100
0001
0010
0002
0000
,
0000
0000
1003
0000
0100
0000
0010
0000
0202
0000
0303
0220
0000
0330
1000
0000
,
0002
0000
0000
0000
,
1003
0100
1000
0010
0100
0001
0010
0001
1000
0100
0010
0001
1000
0010
0100
0001
,
0010
0100
1000
0001
0100
0001
1000
0100
1000
0010
0100
0001
0010
0100
1000
0001
,
0100
0010
1000
0100
1000
0010
0100
0001
0010
0100
1000
0001
0100
0001
1000
0100
,
1000
0010
0100
0001
0010
0001
1000
0100
0010
0001
1000
0010
0100
0010
1000
0100
,
1000
0001
0100
0010
1000
0100
1000
0010
0100
0001
0010
0100
1000
0001
0100
0010
,
2000
3100
0010
0001
1000
0010
0100
0001
0010
0100
1000
0001
0100
0010
1000
0100
,
0020
0031
0100
0001
0010
0100
1000
0001
0100
0001
1000
0100
1000
0010
0100
0001
,
0010
0100
0010
0001
1000
0010
1000
0001
1000
0100
1000
0010
0100
0001
0010
0001
,
1000
0001
0100
0001
0010
0100
1000
0010
0100
0001
1000
0100
1000
0001
1000
0010
,
1000
0100
0010
0001
1000
0010
0100
0001
0010
0001
1000
0001
0100
0010
1000
0100
,
1000
0001
0100
0010
1000
0100
0010
0001
1000
0010
1000
0100
0010
0001
1000
0001
,
0100
0001
0010
0100
1000
0001
0100
0001
1000
0100
1000
0010
0100
0001
0010
0100
,
1000
0001
0100
0001
1000
0100
0010
0100
1000
0010
1000
0001
1000
0100
0010
0001
,
1000
0010
0100
0001
0010
0001
1000
0001
0100
0001
0010
0100
1000
0001
0100
0010
,
1000
0100
1000
0010
0100
0001
0010
0001
1000
0100
0010
0001
1000
0010
0100
0001
,
0010
0001
1000
0100
1000
0010
0100
0001
0010
0100
1000
0001
0100
0010
1000
0100
,
1000
0010
0100
0001
0010
0001
1000
0100
0010
0001
1000
0010
0100
0010
1000
0100
,
0010
0001
1000
0100
1000
0001
0100
0010
1000
0100
0010
0100
1000
0010
0100
0001
,
1000
0100
1000
0010
0100
0001
0010
0100
1000
0001
0100
0001
1000
0100
0010
0001
,
1000
0010
0100
0010
1000
0100
0010
0001
1000
0100
1000
0001
0100
0010
1000
0100
,
0010
0001
1000
0010
0100
0001
0010
0001
1000
0100
0010
0001
1000
0010
0100
0000
,
0440
0330
0404
0303
0440
0330
4040
3030
,
0200
0301
0010
0100
1000
0001
0100
0001
,
2000
3100
0010
0001
2000
3020
0230
0302
,
2003
0000
3100
0000
1000
0000
0100
0000
0020
0000
0031
0000
1000
0001
0100
0010
,
2000
3100
2000
3010
0200
0310
0200
0301
,
0020
0130
1000
0100
1000
0001
0100
0001
,
2000
3100
0010
0001
1000
0001
0100
0001
,
0020
0130
1000
0001
2000
3100
0010
0001
,
0200
0320
2030
3020
0230
0320
2030
3020
,
0130
0001
0100
0001
0100
0010
0100
0010
,
1000
0010
1000
0010
0100
0010
0100
0010
,
1000
0100
1000
0010
0100
0001
0010
0001
1000
0100
0010
0001
,
1000
0100
1000
0010
0100
0001
0010
0001
0010
0100
1000
0001
0100
0001
1000
0010
,
0200
0301
0010
0001
0010
0100
1000
0001
,
2000
0000
0000
3010
0000
0000
0100
0000
0000
0001
0000
0000
1000
0000
0100
0000
0010
0000
0001
0000
1000
0000
0010
0000
,
0200
0000
0000
0000
,
0302
0000
0000
0000
,
0013
0100
1000
0001
0100
0001
1000
0100
,
1000
0000
0001
0000
0010
0000
0001
0000
1000
0001
0100
0010
1000
0100
0010
0001
,
1000
0100
1000
0010
0100
0001
0010
0001
1000
0100
0010
0001
1000
0010
0100
0010
,
1000
0100
1000
0001
0100
0010
1000
0100
0010
0001
1000
0010
1000
0100
1000
0010
,
0100
0001
0010
0100
1000
0001
0100
0001
1000
0100
0010
0001
1000
0010
0100
0010
,
1000
0100
1000
0001
0100
0010
1000
0100
0010
0001
1000
0010
1000
0100
0010
0001
,
1000
0100
0010
0001
1000
0010
1000
0001
0100
0001
0010
0100
1000
0010
0100
0001
,
1000
0100
1000
0010
0100
0001
0010
0100
1000
0001
0100
0001
1000
0100
0010
0001
,
0100
0010
1000
0100
1000
0010
0100
0001
0010
0001
1000
0100
1000
0001
1000
0010
,
0100
0001
0010
0001
1000
0001
0100
0001
0010
0100
1000
0001
0100
0010
1000
0100
,
0020
0031
0100
0010
1000
0100
1000
0010
0100
0001
0010
0100
,
2000
3010
0100
0010
1000
0100
0010
0001
1000
0010
0100
0001
,
0020
0130
1000
0001
0100
0001
1000
0100
0010
0100
1000
0010
,
0200
0301
0010
0100
1000
0001
0100
0001
1000
0100
0010
0001
1000
0010
0100
0001
,
0020
0130
1000
0001
0100
0001
1000
0100
0010
0001
1000
0010
,
0200
0301
0010
0001
1000
0100
0010
0001
1000
0010
0100
0001
,
1000
0100
1000
0010
0100
0001
0010
0100
0010
0001
1000
0100
1000
0010
0100
0001
,
0010
0100
1000
0001
0100
0001
1000
0100
0010
0001
1000
0001
0100
0010
1000
0001
,
0100
0010
0100
0010
0100
0010
0100
0010
,
1000
0010
1000
0010
1000
0010
1000
0001
,
0100
0001
0100
0001
0100
0001
0100
0001
,
0010
0100
0010
0100
0010
0100
0010
0100
,
1000
0010
1000
0010
1000
0010
1000
0010
,
0100
0001
0100
0001
0100
0001
0100
0001
,
0010
0100
0010
0100
0010
0100
0010
0100
,
1000
0001
1000
0001
1000
0001
1000
0001
,
0100
0010
0100
0010
0100
0010
0100
0010
,
1000
0100
1000
0100
1000
0100
1000
0100
,
0010
0001
0010
0001
0010
0001
0010
0001
,
0100
0010
0100
0010
0100
0010
0100
0010
,
1000
0100
1000
0100
1000
0100
1000
0100
,
0010
0001
0010
0001
0010
0001
0010
0001
,
1000
0010
1000
0010
1000
0010
1000
0010
,
0100
0001
0100
0001
0100
0001
0100
0001
,
0020
0000
0230
0000
2300
0000
3020
0000
0230
0000
0300
0022
0000
0033
0000
0000
,
0000
0020
0230
2300
3002
0203
0320
0030
,
0000
0000
2000
0000
3200
0000
0320
0000
0032
0000
0003
2020
0000
3030
0020
0000
,
0230
0000
0000
0000
,
0300
0000
0002
0000
0023
0000
0230
0000
2300
0000
3000
0220
0000
0330
0000
0000
,
0000
0200
0302
0023
0230
2300
3002
0003
,
0000
0000
0200
0000
0320
0000
2030
0000
3200
0000
0300
0022
0000
0033
0002
0000
,
0203
0000
0000
0000
,
0300
0000
0020
0000
2030
0000
3200
0000
0320
0000
0030
2002
0000
3003
0000
0000
,
0000
2000
3200
2300
3020
0230
0302
0003
,
0000
0000
0020
0000
0230
0000
2300
0000
3002
0000
0003
0220
0000
0330
0020
0000
,
2030
0000
0000
0000
,
3000
0000
0200
0000
0320
0000
0032
0000
0203
0000
0300
2020
0000
3030
0000
0000
,
0000
2000
3200
0320
0032
2003
3020
0030
,
0000
0000
0200
0000
0302
0000
0023
0000
0230
0000
0300
2200
0000
3300
0020
0000
,
0130
0001
1000
0100
0010
0001
1000
0010
0100
0001
0010
0100
1000
0001
0100
0010
,
2000
3100
0010
0001
1000
0010
2000
3100
,
0020
0031
0100
0001
0010
0100
1000
0001
,
0200
0310
1000
0100
0020
0031
1000
0001
,
2000
3010
0200
0301
0020
0130
2000
3001
,
0200
0310
1000
0010
1000
0100
0020
0031
,
0200
0310
1000
0010
1000
0100
0010
0001
,
0200
0310
1000
0010
0200
0301
0010
0100
,
2000
3001
0100
0001
0010
0100
1000
0010
0100
0001
1000
0100
,
0010
0001
0100
0001
1000
0010
1000
0010
,
0100
0001
0010
0100
0010
0100
1000
0001
,
0100
0010
1000
0100
1000
0010
0100
0001
0010
0100
1000
0001
,
0100
0010
1000
0100
1000
0010
0100
0001
0010
0001
1000
0100
0010
0001
1000
0010
,
0100
0001
1000
0100
1000
0010
0100
0001
,
0010
0000
0000
0100
0000
0000
1000
0000
0000
0001
0000
0000
0100
0000
0010
0000
1000
0000
0100
0000
0010
0000
0001
0000
,
2000
0000
0000
0000
,
3200
0000
0000
0000
,
0310
0001
1000
0100
0010
0001
1000
0100
,
0010
0000
0001
0000
1000
0000
0010
0000
0100
0001
0010
0100
1000
0001
0100
0001
,
1000
0100
1000
0010
0100
0001
0010
0100
1000
0001
0100
0001
,
1000
0100
0010
0001
1000
0010
0100
0001
0010
0001
1000
0100
,
0010
0001
1000
0010
0100
0010
1000
0100
0010
0001
1000
0010
,
0100
0001
0010
0001
1000
0100
0010
0001
1000
0010
0100
0001
,
0010
0100
1000
0001
0100
0001
1000
0100
0010
0001
1000
0010
,
0100
0001
0010
0001
1000
0100
0010
0001
1000
0010
0100
0001
,
0010
0100
1000
0001
0100
0001
1000
0100
0010
0001
1000
0010
,
0100
0001
0010
0001
1000
0100
0010
0001
1000
0010
0100
0001
,
1000
0010
1000
0100
1000
0010
0100
0001
0010
0100
1000
0001
,
0100
0001
1000
0100
0010
0001
1000
0010
0100
0001
0010
0001
,
1000
0100
0010
0001
1000
0010
0100
0001
0010
0001
1000
0100
,
0010
0001
1000
0010
0100
0001
0010
0100
1000
0001
0100
0010
,
1000
0100
1000
0010
0100
0001
0010
0100
0010
0001
1000
0100
,
1000
0010
0100
0001
0010
0100
1000
0001
0100
0001
1000
0010
,
0100
0001
0010
0100
1000
0001
0100
0010
1000
0100
1000
0010
,
0100
0001
0010
0100
1000
0001
0100
0010
1000
0100
0010
0001
,
1000
0100
1000
0010
0100
0001
0010
0100
1000
0001
0100
0010
1000
0100
1000
0010
,
0100
0001
0010
0100
1000
0001
0100
0001
1000
0100
0010
0001
,
1000
0100
1000
0010
0100
0001
0010
0100
0010
0001
1000
0100
0010
0100
1000
0001
,
0100
0001
1000
0100
0010
0001
1000
0010
0100
0010
1000
0100
,
1000
0010
0100
0001
1000
0100
1000
0010
0100
0001
0010
0001
1000
0100
0010
0001
,
1000
0010
1000
0100
0010
0001
1000
0010
0100
0001
0100
0010
,
1000
0001
0100
0010
1000
0100
1000
0010
0100
0001
0010
0100
0010
0001
1000
0100
,
0010
0001
1000
0100
1000
0010
0100
0010
1000
0100
0010
0001
,
1000
0100
1000
0010
0100
0001
0010
0100
0010
0001
1000
0100
0010
0001
1000
0010
,
0100
0001
1000
0100
0010
0001
1000
0010
0100
0010
1000
0100
,
1000
0001
0100
0001
0010
0100
1000
0001
0100
0010
1000
0100
1000
0010
0100
0001
,
1000
0010
1000
0100
0010
0001
0100
0001
0010
0100
1000
0001
,
0100
0010
1000
0100
1000
0010
0100
0001
0010
0100
0010
0001
1000
0010
0100
0001
,
1000
0010
1000
0100
1000
0010
0100
0001
0010
0100
0010
0001
1000
0100
1000
0010
,
0100
0001
0010
0001
1000
0100
0010
0001
1000
0010
0100
0010
1000
0100
1000
0010
,
0100
0001
0010
0100
1000
0001
0100
0001
1000
0100
0010
0001
1000
0010
0100
0010
,
1000
0000
0000
0000
0000
0000
0000
0000
0000
0000
0000
0000
0000
0000
0000
MMMM
,
0000
0000
0000
0000
,
MMMM
0000
0000
0000
;

//---------------dance-single - ----------------
#NOTES:
     dance-single:
     :
     Challenge:
     22:
     1.000,1.000,0.122,0.930,1.000,1675.000,19.000,145.000,8.000,0.000:
0000
0000
0000
0000
,
1000
0000
0100
0000
0010
0000
0001
0000
2000
0000
3000
0220
0000
0000
0000
0000
,
0330
0100
0001
0010
0100
1000
2002
0000
,
3003
0000
0001
0000
0100
0000
0010
0000
2200
3300
0000
0220
0330
0000
0001
0000
,
2000
0000
0000
0000
,
3000
0000
0010
0000
0100
0000
0001
0000
0020
0000
0030
2200
0000
0000
0000
0000
,
3300
1000
0001
0100
0001
0010
0002
0000
,
0000
0000
1003
0000
0100
0000
0010
0000
0202
0000
0303
0220
0000
0330
1000
0000
,
0002
0000
0000
0000
,
1003
0100
1000
0010
0100
0001
0010
0001
1000
0100
0010
0001
1000
0010
0100
0001
,
0010
0100
1000
0001
0100
0001
1000
0100
1000
0010
0100
0001
0010
0100
1000
0001
,
0100
0010
1000
0100
1000
0010
0100
0001
0010
0100
1000
0001
0100
0001
1000
0100
,
1000
0010
0100
0001
0010
0001
1000
0100
0010
0001
1000
0010
0100
0010
1000
0100
,
1000
0001
0100
0010
1000
0100
1000
0010
0100
0001
0010
0100
1000
0001
0100
0010
,
2000
3100
0010
0001
1000
0010
0100
0001
0010
0100
1000
0001
0100
0010
1000
0100
,
0020
0031
0100
0001
0010
0100
1000
0001
0100
0001
1000
0100
1000
0010
0100
0001
,
0010
0100
0010
0001
1000
0010
1000
0001
1000
0100
1000
0010
0100
0001
0010
0001
,
1000
0001
0100
0001
0010
0100
1000
0010
0100
0001
1000
0100
1000
0001
1000
0010
,
1000
0100
0010
0001
1000
0010
0100
0001
0010
0001
1000
0001
0100
0010
1000
0100
,
1000
0001
0100
0010
1000
0100
0010
0001
1000
0010
1000
0100
0010
0001
1000
0001
,
0100
0001
0010
0100
1000
0001
0100
0001
1000
0100
1000
0010
0100
0001
0010
0100
,
1000
0001
0100
0001
1000
0100
0010
0100
1000
0010
1000
0001
1000
0100
0010
0001
,
1000
0010
0100
0001
0010
0001
1000
0001
0100
0001
0010
0100
1000
0001
0100
0010
,
1000
0100
1000
0010
0100
0001
0010
0001
1000
0100
0010
0001
1000
0010
0100
0001
,
0010
0001
1000
0100
1000
0010
0100
0001
0010
0100
1000
0001
0100
0010
1000
0100
,
1000
0010
0100
0001
0010
0001
1000
0100
0010
0001
1000
0010
0100
0010
1000
0100
,
0010
0001
1000
0100
1000
0001
0100
0010
1000
0100
0010
0100
1000
0010
0100
0001
,
1000
0100
1000
0010
0100
0001
0010
0100
1000
0001
0100
0001
1000
0100
0010
0001
,
1000
0010
0100
0010
1000
0100
0010
0001
1000
0100
1000
0001
0100
0010
1000
0100
,
0010
0001
1000
0010
0100
0001
0010
0001
1000
0100
0010
0001
1000
0010
0100
0000
,
0440
0330
0404
0303
0440
0330
4040
3030
,
0200
0301
0010
0100
1000
0001
0100
0001
,
2000
3100
0010
0001
2000
3020
0230
0302
,
2003
0000
3100
0000
1000
0000
0100
0000
0020
0000
0031
0000
1000
0001
0100
0010
,
2000
3100
2000
3010
0200
0310
0200
0301
,
0020
0130
1000
0100
1000
0001
0100
0001
,
2000
3100
0010
0001
1000
0001
0100
0001
,
0020
0130
1000
0001
2000
3100
0010
0001
,
0200
0320
2030
3020
0230
0320
2030
3020
,
0130
0001
0100
0001
0100
0010
0100
0010
,
1000
0010
1000
0010
0100
0010
0100
0010
,
1000
0100
1000
0010
0100
0001
0010
0100
0010
0001
1000
0100
0010
0001
1000
0010
,
0100
0001
1000
0010
0100
0001
1000
0001
0010
0100
1000
0001
0100
0001
1000
0010
,
0200
0301
0010
0001
0010
0100
1000
0001
,
2000
0000
3010
0000
0100
0000
0001
0000
1000
0001
0100
0001
0010
0100
1000
0010
,
0200
0000
0000
0000
,
0302
0000
0000
0000
,
0013
0100
1000
0001
0100
0001
1000
0100
,
1000
0000
0001
0000
0010
0000
0001
0000
1000
0001
0100
0010
1000
0100
0010
0001
,
1000
0100
1000
0010
0100
0001
0010
0001
1000
0100
0010
0001
1000
0010
0100
0010
,
1000
0100
1000
0001
0100
0010
1000
0100
0010
0001
1000
0010
1000
0100
1000
0010
,
0100
0001
0010
0100
1000
0001
0100
0001
1000
0100
0010
0001
1000
0010
0100
0010
,
1000
0100
1000
0001
0100
0010
1000
0100
0010
0001
1000
0010
1000
0100
0010
0001
,
1000
0100
0010
0001
1000
0010
1000
0001
0100
0001
0010
0100
1000
0010
0100
0001
,
1000
0100
1000
0010
0100
0001
0010
0100
1000
0001
0100
0001
1000
0100
0010
0001
,
0100
0010
1000
0100
1000
0010
0100
0001
0010
0001
1000
0100
1000
0001
1000
0010
,
0100
0001
0010
0001
1000
0001
0100
0001
0010
0100
1000
0001
0100
0010
1000
0100
,
0010
0001
0100
0001
0010
0100
1000
0010
0100
0001
1000
0100
1000
0001
0100
0001
,
1000
0010
0100
0001
0010
0100
1000
0001
0100
0001
1000
0100
0010
0001
1000
0010
,
0100
0001
0010
0001
1000
0100
0010
0001
1000
0010
0100
0001
0010
0100
1000
0010
,
1000
0001
0010
0100
1000
0001
0100
0001
1000
0100
0010
0001
1000
0010
0100
0001
,
0010
0100
1000
0001
0100
0001
1000
0100
0010
0001
1000
0010
0100
0010
1000
0100
,
0010
0001
1000
0010
0100
0001
0010
0001
1000
0100
0010
0001
1000
0010
0100
0001
,
0010
0100
1000
0010
0100
0001
0010
0100
0010
0001
1000
0100
1000
0010
0100
0001
,
0010
0100
1000
0001
0100
0001
1000
0100
0010
0001
1000
0001
0100
0010
1000
0001
,
0100
0010
0100
0010
0100
0010
0100
0010
,
1000
0010
1000
0010
1000
0010
1000
0001
,
0100
0001
0100
0001
0100
0001
0100
0001
,
0010
0100
0010
0100
0010
0100
0010
0100
,
1000
0010
1000
0010
1000
0010
1000
0010
,
0100
0001
0100
0001
0100
0001
0100
0001
,
0010
0100
0010
0100
0010
0100
0010
0100
,
1000
0001
1000
0001
1000
0001
1000
0001
,
0100
0010
0100
0010
0100
0010
0100
0010
,
1000
0100
1000
0100
1000
0100
1000
0100
,
0010
0001
0010
0001
0010
0001
0010
0001
,
0100
0010
0100
0010
0100
0010
0100
0010
,
1000
0100
1000
0100
1000
0100
1000
0100
,
0010
0001
0010
0001
0010
0001
0010
0001
,
1000
0010
1000
0010
1000
0010
1000
0010
,
0100
0001
0100
0001
0100
0001
0100
0001
,
0020
0000
0230
0000
2300
0000
3020
0000
0230
0000
0300
0022
0000
0033
0000
0000
,
0000
0020
0230
2300
3002
0203
0320
0030
,
0000
0000
2000
0000
3200
0000
0320
0000
0032
0000
0003
2020
0000
3030
0020
0000
,
0230
0000
0000
0000
,
0300
0000
0002
0000
0023
0000
0230
0000
2300
0000
3000
0220
0000
0330
0000
0000
,
0000
0200
0302
0023
0230
2300
3002
0003
,
0000
0000
0200
0000
0320
0000
2030
0000
3200
0000
0300
0022
0000
0033
0002
0000
,
0203
0000
0000
0000
,
0300
0000
0020
0000
2030
0000
3200
0000
0320
0000
0030
2002
0000
3003
0000
0000
,
0000
2000
3200
2300
3020
0230
0302
0003
,
0000
0000
0020
0000
0230
0000
2300
0000
3002
0000
0003
0220
0000
0330
0020
0000
,
2030
0000
0000
0000
,
3000
0000
0200
0000
0320
0000
0032
0000
0203
0000
0300
2020
0000
3030
0000
0000
,
0000
2000
3200
0320
0032
2003
3020
0030
,
0000
0000
0200
0000
0302
0000
0023
0000
0230
0000
0300
2200
0000
3300
0020
0000
,
0130
0001
1000
0100
0010
0001
1000
0010
0100
0001
0010
0100
1000
0001
0100
0010
,
2000
3100
0010
0001
1000
0010
2000
3100
,
0020
0031
0100
0001
0010
0100
1000
0001
,
0200
0310
1000
0100
0020
0031
1000
0001
,
2000
3010
0200
0301
0020
0130
2000
3001
,
0200
0310
1000
0010
1000
0100
0020
0031
,
0200
0310
1000
0010
1000
0100
0010
0001
,
0200
0310
1000
0010
0200
0301
0010
0100
,
1000
0001
0100
0001
1000
0010
0100
0001
0010
0100
1000
0001
0100
0010
1000
0100
,
0010
0001
0100
0001
1000
0010
1000
0010
,
0100
0001
0010
0100
0010
0100
1000
0001
,
1000
0100
1000
0010
0100
0001
0010
0100
0010
0001
1000
0100
0010
0001
1000
0010
,
0100
0010
1000
0100
1000
0010
0100
0001
0010
0001
1000
0100
0010
0001
1000
0010
,
0100
0001
1000
0100
1000
0010
0100
0001
,
0010
0000
0100
0000
1000
0000
0001
0000
1000
0100
0010
0001
1000
0010
0100
0001
,
2000
0000
0000
0000
,
3200
0000
0000
0000
,
0310
0001
1000
0100
0010
0001
1000
0100
,
0010
0000
0001
0000
1000
0000
0010
0000
0100
0001
0010
0100
1000
0001
0100
0001
,
1000
0100
1000
0010
0100
0001
0010
0100
1000
0001
0100
0001
1000
0100
0010
0001
,
1000
0010
0100
0010
1000
0100
0010
0001
1000
0001
0100
0010
1000
0100
1000
0010
,
0100
0001
0010
0100
1000
0001
0100
0001
1000
0100
0010
0001
1000
0010
0100
0001
,
0010
0001
1000
0100
0010
0001
1000
0010
1000
0100
1000
0010
0100
0001
0010
0100
,
0010
0001
1000
0100
0010
0001
1000
0100
1000
0010
0100
0001
0010
0001
1000
0100
,
0010
0001
1000
0010
0100
0001
0010
0001
1000
0100
0010
0001
1000
0010
0100
0010
,
1000
0100
1000
0001
0100
0010
1000
0100
0010
0001
1000
0010
1000
0001
0100
0010
,
1000
0100
0010
0001
1000
0010
1000
0001
0010
0001
1000
0100
0010
0001
1000
0010
,
0100
0001
0010
0001
1000
0100
0010
0001
1000
0010
0100
0010
1000
0100
1000
0001
,
0100
0010
1000
0100
0010
0001
1000
0010
1000
0001
0010
0001
1000
0100
0010
0001
,
1000
0010
0100
0001
0010
0001
1000
0100
0010
0001
1000
0010
0100
0010
1000
0100
,
1000
0001
0100
0010
1000
0001
0100
0010
1000
0100
1000
0010
0100
0001
0010
0100
,
0010
0001
1000
0100
1000
0010
0100
0001
0010
0100
1000
0001
0100
0001
1000
0100
,
0010
0001
1000
0010
0100
0010
1000
0100
1000
0001
0100
0010
1000
0100
0010
0001
,
1000
0010
1000
0001
0100
0010
1000
0001
0100
0010
1000
0100
1000
0010
0100
0001
,
0010
0100
0010
0001
1000
0100
0010
0001
1000
0010
0100
0001
0010
0100
1000
0001
,
1000
0100
1000
0010
0100
0001
0010
0100
1000
0001
0100
0010
1000
0100
1000
0010
,
0100
0001
0010
0001
1000
0100
0010
0001
1000
0010
0100
0001
0010
0001
1000
0100
,
0010
0100
1000
0010
0100
0001
0010
0100
0010
0001
1000
0100
0010
0100
1000
0001
,
0100
0010
1000
0100
1000
0010
0100
0001
0010
0001
1000
0100
0010
0001
1000
0010
,
0100
0001
0100
0010
1000
0100
1000
0010
0100
0001
0010
0001
1000
0100
0010
0001
,
1000
0100
1000
0010
0100
0001
0010
0001
1000
0100
0010
0001
1000
0010
0100
0001
,
0010
0001
0100
0010
1000
0100
1000
0010
0100
0001
0010
0100
0010
0001
1000
0100
,
0010
0100
1000
0001
0100
0001
1000
0100
1000
0010
0100
0001
0010
0100
1000
0001
,
0100
0010
1000
0001
0100
0001
0010
0100
0010
0001
1000
0100
0010
0001
1000
0010
,
0100
0001
0010
0001
1000
0100
0010
0001
1000
0010
0100
0010
1000
0100
0010
0001
,
1000
0001
0100
0001
0010
0100
1000
0001
0100
0010
1000
0100
1000
0010
0100
0001
,
1000
0100
1000
0010
0100
0001
0010
0001
1000
0100
0010
0001
1000
0010
0100
0001
,
1000
0010
1000
0100
1000
0010
0100
0001
0010
0100
0010
0001
1000
0010
0100
0001
,
1000
0010
1000
0100
1000
0010
0100
0001
0010
0100
0010
0001
1000
0100
1000
0010
,
0100
0001
0010
0001
1000
0100
0010
0001
1000
0010
0100
0010
1000
0100
1000
0010
,
0100
0001
0010
0100
1000
0001
0100
0001
1000
0100
0010
0001
1000
0010
0100
0010
,
1000
0000
0000
0000
0000
0000
0000
0000
0000
0000
0000
0000
0000
0000
0000
MMMM
,
0000
0000
0000
0000
,
MMMM
0000
0000
0000
;
