#TITLE:Speedcore Here We Go;
#SUBTITLE:;
#ARTIST:m1dy;
#TITLETRANSLIT:;
#SUBTITLETRANSLIT:;
#ARTISTTRANSLIT:;
#CREDIT:;
#BANNER:Speedcore Here We Go-bn.png;
#BACKGROUND:Speedcore Here We Go-bg.png;
#LYRICSPATH:;
#CDTITLE:!iomegatitle.png;
#MUSIC:Speedcore Here we Go.mp3;
#OFFSET:-1.060;
#SAMPLESTART:94.180;
#SAMPLELENGTH:12.000;
#SELECTABLE:YES;
#BPMS:0.000=200.000,64.000=399.998,320.000=200.000,352.000=399.998,576.000=200.000,608.000=100.000,612.000=50.000,616.000=399.998,672.000=200.000,676.000=399.998;
#STOPS:615.000=1.180
;
#BGCHANGES:;
// cache tags:
#FIRSTBEAT:0.000;
#LASTBEAT:1007.000;
#SONGFILENAME:Songs/new again/Speedcore Here We Go/speedcore here we go.sm;
#HASMUSIC:1;
#HASBANNER:1;
#MUSICLENGTH:182.021;
// end cache tags

//---------------dance-single - ----------------
#NOTES:
     dance-single:
     :
     Challenge:
     14:
     1.000,1.000,1.000,0.291,0.159,1458.000,294.000,53.000,0.000,23.000:

0011
0000
1000
0100
0001
0000
0010
0000
0000
0100
0001
1000
0010
0100
0001
0000
,
1000
0000
0100
0001
0010
0000
0100
0000
0010
1000
0100
0000
0001
0000
0010
0000
,
1100
0000
0010
0001
0100
0000
0010
0000
0000
0001
0100
0010
1000
0001
0100
0000
,
0010
0000
1000
0100
0001
0000
0010
0000
0100
0010
1000
0000
0100
0000
0001
0000
,
0110
0000
0001
1000
0010
0000
0100
0000
0000
0010
1000
0100
0001
0010
1000
0000
,
0100
0000
0001
1000
0010
0000
0001
0000
0100
0010
1000
0000
0100
0000
0001
0000
,
1010
0000
0100
0010
0001
0000
1000
0000
0000
0010
0001
0100
0010
1000
0001
0000
,
0100
0000
0010
1000
0100
0000
0001
0000
0010
0100
1000
0000
0010
0000
0100
0000
,
1001
0000
0010
0100
1000
0001
0010
0000
0000
1000
0100
0001
0010
1000
0100
0000
,
0010
0000
1000
0010
0100
0000
0001
0000
0100
0010
1000
0000
0001
0000
0100
0000
,
0011
0000
1000
0100
0001
0000
0010
0000
0000
0100
0001
1000
0010
0100
0001
0000
,
1000
0000
0010
0001
1000
0000
0100
0000
0010
1000
0001
0000
0100
0000
1000
0000
,
0101
0000
0010
1000
0100
0000
0001
0000
0000
0100
1000
0010
0001
0100
0010
0000
,
1001
0000
0100
0010
0001
0000
0100
0000
0010
1000
0100
0000
0010
0000
0100
0000
,
0011
0000
1000
0010
1100
0001
1000
0000
0101
0010
0100
0001
0010
1000
0100
0001
,
0000
0000
0010
0000
0200
0000
0000
0000
2000
3300
0011
0000
0000
0000
0000
0000
,
1100
0000
0010
0100
0001
0000
1000
0000
,
0000
0010
0100
0001
1000
0010
0100
0000
,
0011
0000
1000
0001
0100
0000
0010
0000
,
1000
0001
0100
0000
0010
0000
0100
0000
,
1010
0000
0100
0010
1000
0000
0001
0000
,
0000
1000
0010
0100
1000
0001
0010
0000
,
0201
0000
0310
1000
0001
0000
0200
0000
,
0310
0100
1000
0000
0001
0000
1000
0001
,
0110
0000
1000
0001
0100
0000
0010
0000
,
0000
0001
0100
1000
0010
0100
0010
0000
,
1001
0000
0100
0010
1000
0000
0001
0000
,
0000
0100
0010
1000
0100
0001
0010
1000
,
0110
0000
0001
0010
0001
0000
1000
0000
,
0000
0010
0100
0010
0001
1000
0020
0001
,
1130
0000
0001
1000
0100
0000
0010
0000
,
0000
1000
0100
1000
0001
0100
0001
0000
,
0110
0011
1100
0101
,
0110
1100
0011
0110
,
1001
0011
1100
0110
,
1010
0000
0101
0000
0011
0000
1100
0001
,
0110
1010
0110
0011
,
1100
0110
1001
0011
,
1100
0001
0110
0001
1100
0000
0011
1000
,
0110
1001
1010
0101
,
0011
1100
0110
1001
,
0011
1100
0110
1010
,
0101
0011
1100
1100
,
0110
0101
0011
1100
,
0001
0100
0001
0100
1000
0001
0010
1000
,
0010
0100
0001
1000
0010
0100
0002
0000
,
0000
0000
1003
0100
0000
0000
1010
0000
,
0001
0010
0100
1000
0001
0000
0000
0000
0200
0000
0000
0000
0000
0000
0000
0000
,
1300
0010
1000
0100
0010
0001
0100
0001
,
0100
1000
0010
0100
0001
0010
0100
1000
,
0010
0100
0010
0001
0100
0010
1000
0100
,
0010
0001
0010
0100
1000
0001
0010
0100
,
0001
0100
1000
0010
0100
0001
0100
1000
,
0010
1000
0100
0001
0100
0010
2000
0010
,
3100
0001
0010
0100
0001
0100
2000
0010
,
3100
0010
0001
0100
1000
0100
0001
0010
,
0100
0001
0010
0100
0001
1000
0100
0010
,
1000
0010
0100
0001
1000
0100
0001
1000
,
0010
0100
0001
1000
0010
0100
0001
0010
,
0001
0100
0001
0100
1000
0010
1000
0100
,
0011
0101
1010
1100
,
0110
1001
0011
1100
,
0002
0000
0000
0000
,
0000
0000
1003
0000
,
0010
0100
0010
0100
0010
0001
0010
0100
,
1000
0100
0010
1000
0100
0010
0001
0100
,
0001
0100
1000
0010
0100
0010
0001
0100
,
0010
1000
0100
0001
0100
1000
0010
0100
,
0001
0010
0100
0001
0100
1000
0010
1000
,
0100
0001
0100
1000
0010
0100
0010
0001
,
0100
0010
1000
0001
0010
0100
1000
0010
,
0100
0001
1000
0010
0100
1000
0010
0100
,
0001
1000
0010
0100
0001
0010
0100
0001
,
1000
0100
0010
1000
0001
0100
0010
0100
,
1000
0010
0100
0010
0001
0100
0010
0100
,
0001
1000
0100
0001
0100
1000
0010
0100
,
0001
0100
1000
0010
0100
0010
0001
0100
,
1000
0100
0001
0010
0100
0010
0001
1000
,
0200
0320
0032
0000
,
2003
0000
0000
0000
,
3102
0000
0000
0020
0000
0000
0000
0000
,
1030
0000
0000
0200
0000
0000
0000
0000
,
0310
0000
0000
2000
0000
0000
0000
3003
,
0010
0000
0100
0010
0001
0000
1000
0000
0010
0000
0001
0000
0000
0000
0000
0000
,
2010
0000
0000
0200
0000
0000
0000
0000
,
0301
0000
0000
0020
0000
0000
0000
0000
,
0130
0000
0000
0002
0000
0000
0000
3003
,
0100
0000
0001
0100
1000
0000
0010
0000
0100
0000
0001
0000
0000
0000
0000
0000
,
0011
0000
0100
1000
0100
0000
0001
0000
,
0010
0100
0001
0000
1000
0000
0100
0001
,
1000
0000
0010
0000
0100
0001
1000
0000
,
0100
1000
0010
0000
0001
0000
0010
1000
,
0100
0000
0001
0100
0001
0000
0100
0000
,
1000
0010
1000
0000
0100
0000
0010
0001
,
0100
0000
0010
0000
0100
1000
0001
0000
,
0100
0000
0010
0100
0010
0000
0001
0000
,
1000
0000
0100
0001
0010
0000
0100
0000
,
0010
1000
0100
0000
0001
0000
0100
0010
,
1000
0000
0010
0000
0100
0010
0001
0000
,
0100
0000
0010
0100
1000
0000
0001
0000
,
0010
0000
0100
0001
0100
0000
0010
0000
,
0100
1000
0010
0000
0100
0000
0010
0000
,
1100
0011
0110
1100
,
0101
0011
1100
0110
,
1001
0101
1100
0011
,
1010
1100
0110
1001
,
0011
1100
0110
1001
,
0011
1010
0110
0011
,
1100
0110
1010
0011
,
1100
0110
1001
0011
,
1100
0110
1100
0110
,
0011
0110
1001
1100
,
0110
0011
1100
0110
,
1001
0011
1100
1010
,
0101
1010
0011
1100
,
0110
1001
0011
0110
,
1001
0101
1010
0110
,
1100
0011
0110
1001
,
0011
1100
1010
0101
,
1010
0110
1001
0110
,
1100
0110
0101
0011
,
1100
0110
0011
1010
,
0101
1010
0011
0110
,
1100
0110
0011
1001
,
0110
1001
0011
1100
,
0110
1001
0011
1100
,
1010
1100
1010
1100
,
0011
0110
1100
0110
,
1001
0011
0101
0110
,
1001
0011
1100
0110
,
0011
1001
0110
1010
,
1100
0011
0101
1010
,
0110
0011
1001
0110
,
1001
0011
1100
0110
,
1000
0000
0100
0001
0100
0000
1000
0000
,
0010
0000
0100
0010
0001
1000
0100
0001
,
2010
0000
0010
0000
,
0010
0000
0100
0010
,
3102
0000
0010
0000
,
0100
0000
0000
1000
0100
0000
0010
0000
,
1203
0000
0001
0000
,
0010
0000
0010
1000
,
0321
0000
0100
0000
,
0001
0000
0000
1000
0001
0000
0100
0000
,
1032
0000
1000
0000
0100
0000
0010
1000
,
0213
0000
0000
0000
0001
0000
0000
0000
0010
0000
0000
0001
0010
0000
1000
0000
,
2310
0000
0001
0000
0100
0000
0001
0100
,
3021
0000
0000
0000
0100
0000
0000
0000
1000
0000
0000
0100
0001
0000
1000
0000
,
0132
0000
0000
0020
0000
0000
0000
0000
,
1030
0000
0000
0200
0000
0000
0000
0000
,
0310
0000
0000
2000
0000
0000
0000
3000
,
0103
0000
0010
0100
1000
0000
0010
0000
0001
0000
0200
0000
0000
0000
0300
0000
,
2000
0000
3002
0000
,
0203
0000
0000
0300
,
0011
0100
1000
0010
0100
0010
0100
0010
,
1001
0100
0010
1000
0100
0010
0001
0010
,
1100
0010
0100
0001
0010
0100
1000
0001
,
0110
0001
0100
1000
0010
1000
0100
0001
,
0110
1000
0010
0100
0010
0001
0100
0010
,
1001
0100
0010
0100
1000
0001
0010
0100
,
1010
0100
0001
0100
1000
0010
0100
0010
,
0101
0010
0100
1000
0001
0100
1000
0010
,
2100
0001
3100
0010
0001
0100
0020
0001
,
1130
0010
0100
0010
0001
0100
1000
0010
,
1100
0001
0010
0001
0010
1000
0100
0010
,
0101
0010
0100
1000
0100
0001
0100
0010
,
0101
1000
0010
0100
0001
0010
0100
0001
,
1010
0100
0001
0100
1000
0010
0100
1000
,
0020
0000
0000
0000
0002
0000
0000
0033
,
1100
0001
0100
0001
0100
0001
0100
0001
,
0100
1000
0010
1000
0010
1000
0010
0100
,
1000
0001
0010
0100
0001
0100
1000
0010
,
1100
0001
1000
0100
0010
1000
0100
0001
,
1010
0100
1000
0001
0100
1000
0001
0100
,
0011
1000
0010
0001
0100
1000
0010
0001
,
0110
1000
0010
0100
0001
0010
0100
0010
,
1001
0100
1000
0010
0100
0010
0100
0010
,
1001
0100
0010
1000
0100
0010
0001
0010
,
1100
0010
0100
0001
0010
0100
1000
0001
,
0010
0100
0010
0100
1000
0100
0001
0100
,
0010
1000
0010
0100
0001
0010
0100
0010
,
0001
0100
0001
0100
1000
0010
0100
0010
,
0001
0100
0010
1000
0001
0010
0100
1000
,
0001
1000
0001
1000
0001
1000
0001
1000
,
0001
1000
0001
1000
0001
1000
0002
0000
,
0000
0000
0103
1000
0000
0000
0010
0000
,
1000
0100
0010
0001
1000
0000
0100
0000
0002
0000
0003
0000
0000
0000
0000
0000
,
1100
0000
0010
0100
0001
0000
1000
0000
,
0000
0010
0100
0001
1000
0010
0100
0000
,
0011
0000
1000
0001
0100
0000
0010
0000
,
1000
0001
0100
0000
0010
0000
0100
0000
,
1010
0000
0100
0010
1000
0000
0001
0000
,
0000
1000
0010
0100
1000
0001
0010
0000
,
0201
0000
0310
1000
0001
0000
0200
0000
,
0310
0100
1000
0000
0001
0000
1000
0001
,
0110
0000
1000
0001
0100
0000
0010
0000
,
0000
0001
0100
1000
0010
0100
0010
0000
,
1001
0000
0100
0010
1000
0000
0001
0000
,
0000
0100
0010
1000
0100
0001
0010
1000
,
0110
0000
0001
0010
0001
0000
1000
0000
,
0000
0010
0100
0010
0001
1000
0020
0001
,
1130
0001
0100
0010
1000
0100
0010
0001
,
0100
0010
1000
0010
0100
0001
0010
0100
,
1001
0010
0100
0001
0100
1000
0010
0100
,
0010
0001
0100
0010
1000
0100
0010
0001
,
1100
0010
0100
0001
1000
0010
0100
0001
,
0010
0100
0001
0100
0010
1000
0100
0010
,
1001
0010
0100
0001
0100
1000
0010
0100
,
0001
0010
0100
0001
0100
1000
0100
0010
,
0101
0010
0100
0010
1000
0100
0001
0100
,
0010
1000
0010
0100
0010
0001
0100
0010
,
1001
0100
0010
0100
1000
0001
0010
0100
,
0010
0001
0100
0010
1000
0100
0010
0100
,
0011
0100
0010
1000
0001
0010
0100
0001
,
0100
0010
1000
0100
1000
0001
0100
0010
,
1100
0001
0100
0010
0001
0100
0010
1000
,
0001
0100
0010
1000
0100
0010
0001
0100
,
1010
0001
0100
0010
0001
0010
0100
1000
,
0001
0010
0100
0001
1010
0000
0000
0000
,
0101
0000
1000
0010
0100
0000
0010
0000
,
0000
0001
0010
1000
0100
0001
0010
0000
,
1100
0000
0010
0100
0001
0000
1000
0000
,
0100
1000
0001
0000
0100
0000
0010
0000
,
1001
0000
0010
0100
0001
0000
1000
0000
,
0000
0001
0100
0010
1000
0010
0100
0000
,
0001
0000
0100
0010
1000
0000
0001
0000
,
0100
0010
0100
0000
1000
0000
0010
1000
,
0101
0000
0010
1000
0001
0000
0100
0000
,
0000
0010
0001
0100
1000
0001
0010
0000
,
1001
0000
0010
0100
0001
0000
1000
0000
,
0000
0010
0100
0001
0010
0100
0001
0010
,
1100
0000
0010
0001
0100
0000
0010
0000
,
0000
1000
0010
0100
0001
0100
1000
0100
,
0011
0000
0100
0010
1000
0000
0001
0000
,
0000
0010
1000
0100
0010
1000
0001
0000
,
2100
0000
3110
0000
,
0011
0000
0101
0000
,
1010
0000
1100
0000
,
0110
0000
0011
1100
,
0120
0000
0131
0000
,
0011
0000
1100
0000
,
0110
0000
0011
0000
,
1100
0000
0110
0011
,
0120
0000
1130
0000
,
0110
0000
1001
0000
,
0012
0000
1103
0000
,
0110
0000
1001
0101
,
0021
0000
1130
0000
,
1001
0010
0100
1000
0011
0000
0100
0000
,
1000
0000
0010
0001
1000
0000
0100
0000
,
0000
0010
0100
0001
1000
0010
0200
0000
,
0000
0000
0000
0300
;
